<?xml version="1.0" standalone="no"?>
<!DOCTYPE svg PUBLIC "-//W3C//DTD SVG 1.1//EN" "http://www.w3.org/Graphics/SVG/1.1/DTD/svg11.dtd" >
<svg xmlns="http://www.w3.org/2000/svg">
<metadata>
<json>
<![CDATA[
{
	"fontFamily": "wqIcon",
	"majorVersion": 1,
	"minorVersion": 0,
	"version": "Version 1.0",
	"fontId": "wqIcon",
	"psName": "wqIcon",
	"subFamily": "Regular",
	"fullName": "wqIcon",
	"description": "Font generated by IcoMoon."
}
]]>
</json>
</metadata>
<defs>
<font id="wqIcon" horiz-adv-x="1024">
<font-face units-per-em="1024" ascent="960" descent="-64" />
<missing-glyph horiz-adv-x="1024" />
<glyph unicode="&#x20;" horiz-adv-x="512" d="" />
<glyph unicode="&#x2611;" glyph-name="checkBox" data-tags="checkBox" horiz-adv-x="1409" d="M1369.219 740.818l-754.907-754.907c-3.118-4.948-6.069-9.12-9.213-13.134l0.256 0.34c-24.082-22.978-56.772-37.118-92.763-37.118s-68.682 14.14-92.816 37.168l0.053-0.050c-2.888 3.675-5.839 7.846-8.581 12.163l-0.374 0.631-371.056 371.056c-23.304 23.224-37.723 55.35-37.723 90.844 0 70.83 57.418 128.248 128.248 128.248 35.335 0 67.332-14.291 90.528-37.407l291.595-291.724 675.45 675.578c23.215 23.168 55.26 37.493 90.652 37.493 70.879 0 128.338-57.459 128.338-128.338 0-35.488-14.403-67.61-37.683-90.842l-0.002-0.002z" />
<glyph unicode="&#xe900;" glyph-name="backUp" data-tags="backUp" horiz-adv-x="1192" d="M1106.914 363.951h-778.020l240.903-281.238c16.027-15.496 25.978-37.19 25.978-61.207 0-46.997-38.099-85.094-85.094-85.094-24.019 0-45.712 9.951-61.184 25.954l-0.023 0.024-424.877 424.877c-15.236 16.067-24.605 37.829-24.605 61.778s9.37 45.711 24.643 61.819l-0.038-0.040 424.877 424.877c15.287 14.78 36.138 23.887 59.116 23.887 46.997 0 85.094-38.099 85.094-85.094 0-22.978-9.108-43.829-23.91-59.14l0.023 0.024-240.903-281.238h778.020c46.997 0 85.094-38.099 85.094-85.094s-38.099-85.094-85.094-85.094v0z" />
<glyph unicode="&#xe901;" glyph-name="calendar" data-tags="calendar" d="M0-64v950.856h219.429v73.143h73.143v-73.143h438.857v73.143h73.143v-73.143h219.429v-950.856h-1023.999zM950.857 813.714h-146.286v-73.143h-73.143v73.143h-438.857v-73.143h-73.143v73.143h-146.286v-146.286h877.713v146.286zM950.857 594.286h-877.713v-585.142h877.713v585.142zM365.714 374.857h-146.286v73.143h146.286v-73.143zM365.714 155.429h-146.286v73.143h146.286v-73.143zM585.143 374.857h-146.286v73.143h146.286v-73.143zM585.143 155.429h-146.286v73.143h146.286v-73.143zM804.571 374.857h-146.286v73.143h146.286v-73.143zM804.571 155.429h-146.286v73.143h146.286v-73.143z" />
<glyph unicode="&#xe902;" glyph-name="prevMonth" data-tags="prevMonth" horiz-adv-x="570" d="M15.923 406.733l464.414-455.669c9.402-9.311 22.342-15.064 36.627-15.064s27.225 5.753 36.631 15.068l-0.004-0.004c9.24 9.204 14.957 21.939 14.957 36.009s-5.717 26.804-14.955 36.007l-0.002 0.002-430.36 421.82 430.36 428.097c9.24 9.204 14.957 21.939 14.957 36.009s-5.717 26.804-14.955 36.007l-0.002 0.002c-9.424 9.262-22.357 14.98-36.627 14.98s-27.203-5.718-36.634-14.988l0.007 0.007-464.414-462.15c-8.981-10.072-14.47-23.429-14.47-38.066s5.489-27.995 14.52-38.123l-0.050 0.057z" />
<glyph unicode="&#xe903;" glyph-name="nextMonth" data-tags="nextMonth" horiz-adv-x="611" d="M595.178 406.482l-500.044-454.836c-10.454-9.262-24.288-14.919-39.443-14.919s-28.989 5.657-39.504 14.974l0.063-0.055c-9.962 8.899-16.204 21.783-16.204 36.126s6.242 27.227 16.157 36.084l0.047 0.041 463 420.955-463 427.283c-9.988 8.867-16.25 21.739-16.25 36.074s6.263 27.208 16.2 36.031l0.050 0.043c10.437 9.303 24.276 14.988 39.443 14.988s29.004-5.684 39.501-15.039l-0.059 0.052 500.044-461.265c9.777-9.801 15.823-23.329 15.823-38.269s-6.046-28.467-15.824-38.27l0.001 0.001z" />
<glyph unicode="&#xe904;" glyph-name="prevYear" data-tags="prevYear" horiz-adv-x="1085" d="M16.174 406.731l464.452-455.707c9.414-9.287 22.352-15.024 36.63-15.024s27.216 5.736 36.635 15.029l-0.006-0.006c9.24 9.205 14.958 21.941 14.958 36.012s-5.718 26.807-14.957 36.011l-0.002 0.002-430.396 421.855 430.396 428.132c9.24 9.205 14.958 21.941 14.958 36.012s-5.718 26.807-14.957 36.011l-0.002 0.002c-9.436 9.239-22.367 14.941-36.63 14.941s-27.194-5.702-36.639-14.95l0.009 0.009-464.452-462.189c-8.983-10.073-14.472-23.43-14.472-38.070s5.489-27.997 14.522-38.127l-0.050 0.057zM530.632 406.731l464.452-455.707c9.414-9.287 22.352-15.024 36.63-15.024s27.216 5.736 36.635 15.029l-0.006-0.006c9.24 9.205 14.958 21.941 14.958 36.012s-5.718 26.807-14.957 36.011l-0.002 0.002-430.396 421.855 430.396 428.132c9.24 9.205 14.958 21.941 14.958 36.012s-5.718 26.807-14.957 36.011l-0.002 0.002c-9.436 9.239-22.367 14.941-36.63 14.941s-27.194-5.702-36.639-14.95l0.009 0.009-464.452-462.189c-8.983-10.073-14.472-23.43-14.472-38.070s5.489-27.997 14.522-38.127l-0.050 0.057z" />
<glyph unicode="&#xe905;" glyph-name="nextYear" data-tags="nextYear" horiz-adv-x="1082" d="M1067.284 406.733l-464.414-455.669c-9.402-9.311-22.342-15.064-36.627-15.064s-27.225 5.753-36.631 15.068l0.004-0.004c-9.24 9.204-14.957 21.939-14.957 36.009s5.717 26.804 14.955 36.007l0.002 0.002 430.257 421.82-430.257 428.097c-9.24 9.204-14.957 21.939-14.957 36.009s5.717 26.804 14.955 36.007l0.002 0.002c9.424 9.262 22.357 14.98 36.627 14.98s27.203-5.718 36.634-14.988l-0.007 0.007 464.414-462.15c8.981-10.072 14.47-23.429 14.47-38.066s-5.489-27.995-14.52-38.123l0.050 0.057zM552.869 406.733l-464.414-455.669c-9.402-9.311-22.342-15.064-36.627-15.064s-27.225 5.753-36.631 15.068l0.004-0.004c-9.24 9.204-14.957 21.939-14.957 36.009s5.717 26.804 14.955 36.007l0.002 0.002 430.257 421.82-430.257 428.097c-9.24 9.204-14.957 21.939-14.957 36.009s5.717 26.804 14.955 36.007l0.002 0.002c9.424 9.262 22.357 14.98 36.627 14.98s27.203-5.718 36.634-14.988l-0.007 0.007 464.414-462.15c8.981-10.072 14.47-23.429 14.47-38.066s-5.489-27.995-14.52-38.123l0.050 0.057z" />
<glyph unicode="&#xe906;" glyph-name="toast-error" data-tags="toast-error" d="M512-64c-282.77 0-512 229.23-512 512s229.23 512 512 512c282.77 0 512-229.23 512-512v0c0-282.77-229.23-512-512-512v0zM726.585 598.869c7.749 8.145 12.517 19.189 12.517 31.347 0 25.135-20.376 45.511-45.511 45.511-12.158 0-23.202-4.767-31.366-12.535l0.019 0.018-148.651-148.594-147.228 147.911c-8.735 8.735-20.803 14.138-34.133 14.138-26.66 0-48.272-21.612-48.272-48.272 0-13.33 5.403-25.398 14.138-34.133v0l147.115-147.911-147.911-147.911c-8.228-8.235-13.317-19.609-13.317-32.171 0-25.138 20.378-45.516 45.516-45.516 12.576 0 23.961 5.1 32.199 13.345l147.57 147.57 146.091-146.716c8.735-8.735 20.803-14.138 34.133-14.138 26.66 0 48.272 21.612 48.272 48.272 0 13.33-5.403 25.398-14.138 34.133v0l-145.977 146.603z" />
<glyph unicode="&#xe907;" glyph-name="toast-info" data-tags="toast-info" d="M512-64c-282.77 0-512 229.23-512 512s229.23 512 512 512c282.77 0 512-229.23 512-512v0c0-282.77-229.23-512-512-512v0zM577.764 664.917c-1.092 36.472-30.919 65.623-67.556 65.623s-66.464-29.151-67.553-65.523l-0.002-0.1v-1.82c1.092-36.472 30.919-65.623 67.556-65.623s66.464 29.151 67.553 65.523l0.002 0.1v1.82zM586.638 220.444h-28.444v298.667h-122.652c-15.709 0-28.444-12.735-28.444-28.444s12.735-28.444 28.444-28.444v0h28.444v-241.778h-28.444c-15.709 0-28.444-12.735-28.444-28.444s12.735-28.444 28.444-28.444v0h151.097c15.709 0 28.444 12.735 28.444 28.444s-12.735 28.444-28.444 28.444v0z" />
<glyph unicode="&#xe908;" glyph-name="toast-success" data-tags="toast-success" d="M512-64c-282.77 0-512 229.23-512 512s229.23 512 512 512c282.77 0 512-229.23 512-512v0c0-282.77-229.23-512-512-512v0zM775.794 600.462c-8.235 8.23-19.608 13.319-32.171 13.319s-23.936-5.090-32.171-13.32l-265.216-265.216-135.452 135.452c-8.24 8.24-19.625 13.337-32.199 13.337-25.149 0-45.536-20.387-45.536-45.536 0-12.575 5.097-23.959 13.337-32.199l166.343-166.286c0.455-0.512 0.569-1.138 1.024-1.593 8.338-8.235 19.803-13.322 32.455-13.322s24.117 5.087 32.46 13.327l-0.005-0.005c0.455 0.455 0.626 1.081 1.081 1.593l295.822 295.822c8.383 8.26 13.576 19.736 13.576 32.426 0 12.577-5.102 23.962-13.348 32.2v0z" />
<glyph unicode="&#xe909;" glyph-name="toast-warning" data-tags="toast-warning" d="M512-64c-282.77 0-512 229.23-512 512s229.23 512 512 512c282.77 0 512-229.23 512-512v0c0-282.77-229.23-512-512-512v0zM568.889 675.556c0 31.419-25.47 56.889-56.889 56.889s-56.889-25.47-56.889-56.889v0-284.444c0-31.419 25.47-56.889 56.889-56.889s56.889 25.47 56.889 56.889v0 284.444zM512 277.333c-31.419 0-56.889-25.47-56.889-56.889s25.47-56.889 56.889-56.889c31.419 0 56.889 25.47 56.889 56.889v0c0 31.419-25.47 56.889-56.889 56.889v0z" />
<glyph unicode="&#xe92e;" glyph-name="close" data-tags="close" d="M572.467 448.335l436.667-436.752c9.123-7.846 14.865-19.403 14.865-32.301 0-23.487-19.040-42.527-42.527-42.527-12.899 0-24.455 5.742-32.254 14.809l-0.047 0.056-436.752 436.667-439.304-439.304c-7.744-8.010-18.586-12.983-30.589-12.983-23.487 0-42.527 19.040-42.527 42.527 0 12.003 4.973 22.845 12.971 30.578l0.012 0.011 439.304 439.304-436.667 436.752c-9.123 7.846-14.865 19.403-14.865 32.301 0 23.487 19.040 42.527 42.527 42.527 12.899 0 24.455-5.742 32.254-14.809l0.047-0.056 436.752-436.752 436.667 436.667c7.744 8.010 18.586 12.983 30.589 12.983 23.487 0 42.527-19.040 42.527-42.527 0-12.003-4.973-22.845-12.971-30.578l-0.012-0.011z" />
<glyph unicode="&#xe92f;" glyph-name="search" data-tags="search" d="M1001.746-41.746c-13.736-13.748-32.72-22.253-53.688-22.253s-39.952 8.504-53.688 22.253l-144.973 144.973c-76.634-55.746-172.622-89.181-276.419-89.181-261.218 0-472.977 211.759-472.977 472.977s211.759 472.977 472.977 472.977c261.218 0 472.977-211.759 472.977-472.977 0-103.797-33.435-199.786-90.124-277.781l0.944 1.362 144.972-144.972c13.748-13.736 22.253-32.72 22.253-53.688s-8.504-39.952-22.253-53.688l-0.001-0.001zM475.98 797.38c-173.021 0-313.282-140.262-313.282-313.282s140.262-313.282 313.282-313.282c173.021 0 313.282 140.262 313.282 313.282v0c0 173.021-140.262 313.282-313.282 313.282v0z" />
<glyph unicode="&#xe930;" glyph-name="max" data-tags="max" d="M996.352 21.333l12.629-12.544c7.403-7.403 11.982-17.631 11.982-28.928 0-22.594-18.316-40.91-40.91-40.91-11.297 0-21.525 4.579-28.928 11.982l-12.459 12.459v-27.392h-341.333l184.405 184.405-172.117 172.117c-7.411 7.4-11.995 17.629-11.995 28.928 0 22.578 18.303 40.88 40.88 40.88 11.278 0 21.49-4.567 28.886-11.953v0l172.117-172.117 184.491 184.405v-341.333h-27.648zM981.333 533.333c-23.564 0-42.667 19.103-42.667 42.667v0 213.333c0 47.128-38.205 85.333-85.333 85.333v0h-213.333c-23.564 0-42.667 19.103-42.667 42.667s19.103 42.667 42.667 42.667v0h298.667c47.128 0 85.333-38.205 85.333-85.333v0-298.667c0-23.564-19.103-42.667-42.667-42.667v0zM384-64h-298.667c-47.128 0-85.333 38.205-85.333 85.333v0 298.667c0 23.564 19.103 42.667 42.667 42.667s42.667-19.103 42.667-42.667v0-213.333c0-47.128 38.205-85.333 85.333-85.333v0h213.333c23.564 0 42.667-19.103 42.667-42.667s-19.103-42.667-42.667-42.667v0zM411.648 606.123c7.403-7.403 11.982-17.631 11.982-28.928 0-22.594-18.316-40.91-40.91-40.91-11.297 0-21.525 4.579-28.928 11.982l-169.387 169.472-184.405-184.405v341.333h27.392l-15.104 15.104c-7.411 7.4-11.995 17.629-11.995 28.928 0 22.578 18.303 40.88 40.88 40.88 11.278 0 21.49-4.567 28.886-11.953v0l15.275-15.275v27.648h341.333l-184.491-184.491z" />
<glyph unicode="&#xe931;" glyph-name="treeItem_del" data-tags="treeItem_del" d="M755.712 631.381l0.012 0.012c8.024 7.758 13.014 18.635 13.014 30.679 0 23.564-19.103 42.666-42.666 42.666-12.042 0-22.92-4.99-30.689-13.026l-182.102-182.102-182.131 182.055c-7.468 6.424-17.185 10.306-27.809 10.306-23.564 0-42.666-19.103-42.666-42.666 0-10.624 3.883-20.341 10.26-27.753l182.102-182.102-184.758-184.843c-8.024-7.758-13.014-18.635-13.014-30.679 0-23.564 19.103-42.666 42.666-42.666 12.042 0 22.92 4.99 30.689 13.026l184.746 184.746 182.233-182.158c7.825-9.097 19.419-14.858 32.36-14.858 23.564 0 42.666 19.103 42.666 42.666 0 12.941-5.761 24.535-14.914 32.408l-182.102 182.187zM512 960c282.77 0 512-229.23 512-512s-229.23-512-512-512c-282.77 0-512 229.23-512 512v0c0 282.77 229.23 512 512 512v0z" />
<glyph unicode="&#xe932;" glyph-name="selected" data-tags="selected" d="M812.8 542.656l-0.038-0.042c9.415 10.253 15.162 23.929 15.162 38.946 0 31.812-25.788 57.6-57.6 57.6-14.97 0-28.605-5.71-38.804-15.032l-290.56-292.288-156.116 162.264c-10.243 9.361-23.878 15.072-38.848 15.072-31.812 0-57.6-25.788-57.6-57.6 0-15.017 5.747-28.692 15.124-38.904l195.187-203.315c10.665-10.383 25.232-16.779 41.293-16.779s30.628 6.396 41.28 16.767l331.52 333.312zM512 960c282.77 0 512-229.23 512-512s-229.23-512-512-512c-282.77 0-512 229.23-512 512v0c0 282.77 229.23 512 512 512v0z" />
<glyph unicode="&#xe933;" glyph-name="maxmin" data-tags="maxmin" d="M981.333 533.333c-23.564 0-42.666 19.103-42.666 42.666v0 213.333c0 47.129-38.205 85.333-85.333 85.333v0h-213.333c-23.564 0-42.666 19.103-42.666 42.666s19.103 42.666 42.666 42.666v0h298.666c47.129 0 85.333-38.205 85.333-85.333v0-298.666c0-23.564-19.103-42.666-42.666-42.666v0zM426.667 618.667c0-47.129-38.205-85.333-85.333-85.333v0h-341.332l184.49 184.49-169.472 169.387c-7.385 7.395-11.952 17.607-11.952 28.885 0 22.577 18.303 40.88 40.88 40.88 11.299 0 21.528-4.584 28.927-11.994v0l169.387-169.387 184.405 184.405v-341.332zM42.667 362.666c23.564 0 42.666-19.103 42.666-42.666v0-213.333c0-47.129 38.205-85.333 85.333-85.333v0h213.333c23.564 0 42.666-19.103 42.666-42.666s-19.103-42.666-42.666-42.666v0h-298.666c-47.129 0-85.333 38.205-85.333 85.333v0 298.666c0 23.564 19.103 42.666 42.666 42.666v0zM682.667 362.666h341.332l-184.405-184.405 172.117-172.117c7.411-7.4 11.994-17.628 11.994-28.927 0-22.577-18.303-40.88-40.88-40.88-11.278 0-21.49 4.567-28.885 11.952v0l-172.117 172.117-184.49-184.405v341.332c0 47.129 38.205 85.333 85.333 85.333v0z" />
<glyph unicode="&#xe934;" glyph-name="noline_close" data-tags="noline_close" d="M853.333-64h-682.666c-94.256 0-170.667 76.41-170.667 170.667v0 682.666c0 94.256 76.41 170.667 170.667 170.667v0h682.666c94.256 0 170.667-76.41 170.667-170.667v0-682.666c0-94.256-76.41-170.667-170.667-170.667v0zM938.666 789.332c0 47.129-38.205 85.333-85.333 85.333v0h-682.666c-47.129 0-85.333-38.205-85.333-85.333v0-682.666c0-47.129 38.205-85.333 85.333-85.333v0h682.666c47.129 0 85.333 38.205 85.333 85.333v0 682.666zM768 362.666h-170.667v-170.667c0-47.129-38.205-85.333-85.333-85.333s-85.333 38.205-85.333 85.333v0 170.667h-170.667c-47.129 0-85.333 38.205-85.333 85.333s38.205 85.333 85.333 85.333v0h170.667v170.667c0 47.129 38.205 85.333 85.333 85.333s85.333-38.205 85.333-85.333v0-170.667h170.667c47.129 0 85.333-38.205 85.333-85.333s-38.205-85.333-85.333-85.333v0z" />
<glyph unicode="&#xe935;" glyph-name="noline_open" data-tags="noline_open" d="M853.334-64.001h-682.666c-94.256 0-170.667 76.41-170.667 170.667v0 682.666c0 94.256 76.41 170.667 170.667 170.667v0h682.666c94.256 0 170.667-76.41 170.667-170.667v0-682.666c0-94.256-76.41-170.667-170.667-170.667v0zM938.667 789.331c0 47.129-38.205 85.333-85.333 85.333v0h-682.666c-47.129 0-85.333-38.205-85.333-85.333v0-682.666c0-47.129 38.205-85.333 85.333-85.333v0h682.666c47.129 0 85.333 38.205 85.333 85.333v0 682.666zM768.001 362.665h-511.999c-47.129 0-85.333 38.205-85.333 85.333s38.205 85.333 85.333 85.333v0h511.999c47.129 0 85.333-38.205 85.333-85.333s-38.205-85.333-85.333-85.333v0z" />
<glyph unicode="&#xe936;" glyph-name="dep" data-tags="dep" d="M955.733 4.266h-204.8c-37.702 0-68.267 30.564-68.267 68.267v0 204.8c0 37.702 30.564 68.267 68.267 68.267v0h68.267v68.267h-614.4v-68.267h68.267c37.702 0 68.267-30.564 68.267-68.267v0-204.8c0-37.702-30.564-68.267-68.267-68.267v0h-204.8c-37.702 0-68.267 30.564-68.267 68.267v0 204.8c0 37.702 30.564 68.267 68.267 68.267v0h68.267v102.4c0 18.851 15.282 34.133 34.133 34.133v0h307.2v68.267h-68.267c-37.702 0-68.267 30.564-68.267 68.267v0 204.8c0 37.702 30.564 68.267 68.267 68.267v0h204.8c37.702 0 68.267-30.564 68.267-68.267v0-204.8c0-37.702-30.564-68.267-68.267-68.267v0h-68.267v-68.267h307.2c18.851 0 34.133-15.282 34.133-34.133v0-102.4h68.267c37.702 0 68.267-30.564 68.267-68.267v0-204.8c0-37.702-30.564-68.267-68.267-68.267v0z" />
</font>
</defs>
</svg>
