<?xml version="1.0" standalone="no"?>
<!DOCTYPE svg PUBLIC "-//W3C//DTD SVG 1.1//EN" "http://www.w3.org/Graphics/SVG/1.1/DTD/svg11.dtd" >
<svg xmlns="http://www.w3.org/2000/svg">
<metadata>Generated by IcoMoon</metadata>
<defs>
<font id="wqmenu" horiz-adv-x="1024">
<font-face units-per-em="1024" ascent="960" descent="-64" />
<missing-glyph horiz-adv-x="1024" />
<glyph unicode="&#x20;" horiz-adv-x="512" d="" />
<glyph unicode="&#xe900;" glyph-name="jx-jxkh" d="M910.221 448v56.889c0-188.513-152.82-341.333-341.333-341.333v0-56.889h170.667v-113.778h-455.111v113.778h170.667v56.889c-188.513 0-341.333 152.82-341.333 341.333v0-56.889h-113.778v341.333h113.778v56.889c0 31.419 25.47 56.889 56.889 56.889v0h682.666c31.419 0 56.889-25.47 56.889-56.889v0-56.889h113.778v-341.333h-113.778zM796.443 789.333h-568.888v-284.444c0-125.675 101.88-227.556 227.556-227.556v0h113.778c125.675 0 227.556 101.88 227.556 227.556v0 284.444z" />
<glyph unicode="&#xe901;" glyph-name="kq-bcsz" d="M512-64c-282.77 0-512 229.23-512 512s229.23 512 512 512c282.77 0 512-229.23 512-512v0c0-282.77-229.23-512-512-512v0zM512 846.222c-219.932 0-398.222-178.29-398.222-398.222s178.29-398.222 398.222-398.222c219.932 0 398.222 178.29 398.222 398.222v0c0 219.932-178.29 398.222-398.222 398.222v0zM455.111 334.222v341.333h113.778v-227.556h170.667v-113.778h-284.444z" />
<glyph unicode="&#xe902;" glyph-name="kq-gjdz" horiz-adv-x="1022" d="M1004.835 283.066l-329.414-329.868c-10.53-10.556-25.091-17.087-41.176-17.087s-30.647 6.53-41.175 17.086l-576.021 577.271c-10.535 10.561-17.049 25.137-17.049 41.233s6.514 30.673 17.051 41.234l-0.001-0.001 329.414 329.868c10.53 10.556 25.091 17.087 41.176 17.087s30.647-6.53 41.175-17.086l0.001-0.001 576.247-577.27c10.468-10.549 16.936-25.079 16.936-41.119 0-16.153-6.56-30.775-17.162-41.346l-0.001-0.001zM840.128 365.534l-82.354-82.467-41.12 41.233 82.297 82.467-41.176 41.233-82.297-82.467-41.176 41.233 82.354 82.467-41.176 41.233-123.473-123.701-82.354 82.467 123.473 123.701-41.12 41.233-82.354-82.467-41.12 41.233 82.637 82.467-41.176 41.233-82.297-82.467-41.176 41.233 82.354 82.467-41.176 41.233-247.004-247.401 494.12-494.802 246.947 247.401z" />
<glyph unicode="&#xe903;" glyph-name="kq-home" d="M512 789.333l-512-341.333v113.778l512 341.333 512-341.333v-113.778zM625.778 334.222v-170.667h-227.556v170.667h227.556zM227.556 106.667h568.889v341.333h113.778v-398.222c0-31.419-25.47-56.889-56.889-56.889v0h-682.667c-31.419 0-56.889 25.47-56.889 56.889v0 398.222h113.778v-341.333z" />
<glyph unicode="&#xe904;" glyph-name="kq-kqbb" d="M1023.999 277.334v-113.778h-455.111v-56.889h170.667v-113.778h-455.111v113.778h170.667v56.889h-455.111v113.778h56.889v512h-56.889v113.778h1024v-113.778h-56.889v-512h56.889zM853.332 789.334h-682.667v-512h682.667v512zM341.332 334.223h-113.778v227.556h113.778v-227.556zM568.888 334.223h-113.778v341.333h113.778v-341.333zM796.443 334.223h-113.778v170.667h113.778v-170.667z" />
<glyph unicode="&#xe905;" glyph-name="kq-kqqx" horiz-adv-x="910" d="M455-64l-455.111 284.444v625.778l458.354 113.778 451.868-113.778v-625.778zM796.333 748.26l-339.058 97.963-343.609-97.963v-451.982l341.333-189.611 341.333 189.611v451.982zM398.111 334.222v113.778h-113.778v113.778h113.778v113.778h113.778v-113.778h113.778v-113.778h-113.778v-113.778h-113.778z" />
<glyph unicode="&#xe906;" glyph-name="kq-kqsz" horiz-adv-x="956" d="M927.648 576.631l-52.633-30.4v-196.466l52.633-30.4c17.071-9.99 28.357-28.235 28.357-49.117 0-10.441-2.821-20.224-7.743-28.625l0.145 0.268-56.717-98.233c-9.99-17.071-28.235-28.357-49.117-28.357-10.441 0-20.224 2.821-28.625 7.743l0.268-0.145-52.633 30.173-170.15-98.233v-60.573c0-31.324-25.393-56.717-56.717-56.717v0h-113.433c-31.324 0-56.717 25.393-56.717 56.717v0 60.8l-170.15 98.233-3.516-2.042-49.117-28.358c-8.134-4.776-17.917-7.598-28.358-7.598-20.882 0-39.128 11.285-48.972 28.089l-0.145 0.267-56.717 98.233c-4.776 8.134-7.598 17.917-7.598 28.358 0 20.882 11.285 39.128 28.089 48.972l0.267 0.145 52.633 30.4v196.466l-52.633 30.4c-17.071 9.99-28.357 28.235-28.357 49.117 0 10.441 2.821 20.224 7.743 28.625l-0.145-0.268 56.717 98.233c9.99 17.071 28.235 28.357 49.117 28.357 10.441 0 20.224-2.821 28.625-7.743l-0.268 0.145 52.633-30.173 170.15 98.233v60.573c0 31.324 25.393 56.717 56.717 56.717v0h113.433c31.324 0 56.717-25.393 56.717-56.717v0-60.8l170.15-98.233 3.516 2.042 49.117 28.358c8.134 4.776 17.917 7.598 28.358 7.598 20.882 0 39.128-11.285 48.972-28.089l0.145-0.267 56.717-98.233c4.776-8.134 7.598-17.917 7.598-28.358 0-20.882-11.285-39.128-28.089-48.972l-0.267-0.145zM761.582 546.231l88.591 51.045-56.717 98.233-88.591-51.045-170.15 98.233v102.317h-113.433v-102.090l-170.15-98.233-88.591 51.045-56.717-98.233 88.591-51.045v-196.466l-88.591-51.045 56.717-98.233 88.591 51.045 170.15-98.233v-102.543h113.433v102.090l170.15 98.233 88.591-51.045 56.717 98.233-88.591 51.045v196.466zM478 334.565c-62.647 0-113.433 50.786-113.433 113.433s50.786 113.433 113.433 113.433c62.647 0 113.433-50.786 113.433-113.433v0c0-62.647-50.786-113.433-113.433-113.433v0z" />
<glyph unicode="&#xe907;" glyph-name="kq-sbgl" d="M967.11-7.11h-227.556c-31.419 0-56.889 25.47-56.889 56.889v0 398.222c0 31.419 25.47 56.889 56.889 56.889v0h227.556c31.419 0 56.889-25.47 56.889-56.889v0-398.222c0-31.419-25.47-56.889-56.889-56.889v0zM910.221 106.668h-113.778v-56.889h113.778v56.889zM625.777 220.445h-113.778v-113.778h113.778v-113.778h-455.111v113.778h227.556v113.778h-341.333c-31.419 0-56.889 25.47-56.889 56.889v0 568.89c0 31.419 25.47 56.889 56.889 56.889v0h796.445c31.419 0 56.889-25.47 56.889-56.889v0-284.444h-284.444v-341.333zM796.443 675.557v113.778h-682.668v-455.111h398.222v341.333h284.444z" />
<glyph unicode="&#xe908;" glyph-name="pz-gsxx" d="M1024-64h-1024v113.778h56.889v455.111c0 31.419 25.47 56.889 56.889 56.889v0h341.333v341.333c0 31.419 25.47 56.889 56.889 56.889v0h398.222c31.419 0 56.889-25.47 56.889-56.889v0-853.333h56.889v-113.778zM455.111 448h-284.444v-398.222h284.444v398.222zM853.333 846.222h-284.444v-796.444h284.444v796.444zM796.444 618.667h-170.667v113.778h170.667v-113.778zM796.444 391.111h-170.667v113.778h170.667v-113.778zM796.444 163.556h-170.667v113.778h170.667v-113.778zM398.222 277.333h-170.667v113.778h170.667v-113.778zM398.222 106.667h-170.667v113.778h170.667v-113.778z" />
<glyph unicode="&#xe909;" glyph-name="pz-zzjg" d="M853.391 278.702c94.225 0 170.609-76.384 170.609-170.609s-76.384-170.609-170.609-170.609c-94.225 0-170.609 76.384-170.609 170.609v0c0 5.402 1.081 10.52 1.592 15.81l-342.809 97.93v3.128c-36.188-37.093-86.668-60.1-142.522-60.1-109.929 0-199.043 89.115-199.043 199.043s89.115 199.043 199.043 199.043c42.862 0 82.561-13.548 115.047-36.597l-0.617 0.416 271.040 193.356c-9.273 20.285-14.679 44-14.679 68.978 0 93.565 75.849 169.414 169.414 169.414s169.414-75.849 169.414-169.414c0-93.565-75.849-169.414-169.414-169.414-35.517 0-68.482 10.929-95.713 29.609l0.577-0.374-269.561-192.503c14.785-26.701 23.6-58.497 23.885-92.327l0.001-0.086c-0.105-15.395-1.922-30.311-5.272-44.638l0.268 1.361 336.042-95.995c31.018 33.201 75.044 53.911 123.908 53.97h0.011zM853.391 51.225c31.408 0 56.87 25.461 56.87 56.87s-25.461 56.87-56.87 56.87c-31.408 0-56.87-25.461-56.87-56.87v0c0-31.408 25.461-56.87 56.87-56.87v0zM199.392 449.311c-47.112 0-85.304-38.192-85.304-85.304s38.192-85.304 85.304-85.304c47.112 0 85.304 38.192 85.304 85.304v0c0 47.112-38.192 85.304-85.304 85.304v0zM739.653 733.658c31.408 0 56.87 25.461 56.87 56.87s-25.461 56.87-56.87 56.87c-31.408 0-56.87-25.461-56.87-56.87v0c0-31.408 25.461-56.87 56.87-56.87v0z" />
<glyph unicode="&#xe90a;" glyph-name="rs-htgl" horiz-adv-x="910" d="M853.127-63.878h-796.254c-31.412 0-56.875 25.464-56.875 56.875v0 910.005c0 31.412 25.464 56.875 56.875 56.875v0h796.254c31.412 0 56.875-25.464 56.875-56.875v0-910.005c0-31.412-25.464-56.875-56.875-56.875v0zM796.252 846.127h-682.504v-796.254h682.504v796.254zM682.502 504.875h-455.003v113.751h455.003v-113.751zM682.502 277.374h-455.003v113.751h455.003v-113.751z" />
<glyph unicode="&#xe90b;" glyph-name="rs-rsfx" d="M540.825-64c-237.073 0.19-434.261 170.719-475.796 395.797l-0.457 2.979h-0.855c0 31.462 25.505 56.968 56.968 56.968v0h448.623v448.623c0 31.462 25.505 56.968 56.968 56.968v0 0-0.855c227.186-42.861 396.728-239.76 396.728-476.257 0-266.712-215.631-483.061-482.069-484.223h-0.111zM683.246 760.953v-424.411s0-0.57 0-0.855 0-0.57 0-0.912c0-31.462-25.505-56.968-56.968-56.968v0h-426.178c57.092-134.962 188.397-227.937 341.417-227.937 204.161 0 369.665 165.505 369.665 369.665 0 153.020-92.974 284.325-225.514 340.504l-2.423 0.912zM455.374 448.712h-397.010c-31.462 0-56.968 25.505-56.968 56.968v0h-0.399c14.862 244.724 209.648 439.49 453.026 454.254l1.352 0.066v-0.342c31.462 0 56.968-25.505 56.968-56.968v0-397.010c0-31.462-25.505-56.968-56.968-56.968v0zM398.406 835.012c-135.277-32.849-239.835-137.199-272.466-269.84l-0.525-2.524h272.991v272.364z" />
<glyph unicode="&#xe90c;" glyph-name="rs-yggh" d="M512-7.111l-512 398.222v341.333l284.444 170.667 227.556-170.667 227.556 170.667 284.444-170.667v-341.333zM910.222 666.681l-170.667 87.097-227.556-159.972-227.556 161.735-170.667-88.86v-218.681l398.222-305.778 398.222 305.778v218.681z" />
<glyph unicode="&#xe90d;" glyph-name="rs-yggl" d="M967.111 21.333h-113.778v113.778h56.889v113.778c0 31.419-25.47 56.889-56.889 56.889v0 113.778h56.889c62.838 0 113.778-50.94 113.778-113.778v0-227.556c0-31.419-25.47-56.889-56.889-56.889v0zM711.111 476.444c-10.294 0.312-20.098 1.335-29.673 3.024l1.228-0.18v116.622c8.411-3.384 18.153-5.451 28.347-5.687l0.097-0.002c47.128 0 85.333 38.205 85.333 85.333s-38.205 85.333-85.333 85.333v0c-10.292-0.238-20.033-2.305-29.007-5.887l0.562 0.198v116.622c8.346 1.51 18.151 2.532 28.136 2.837l0.309 0.007c109.966 0 199.111-89.145 199.111-199.111s-89.145-199.111-199.111-199.111v0zM398.222 476.444c-125.675 0-227.556 101.88-227.556 227.556s101.88 227.556 227.556 227.556c125.675 0 227.556-101.88 227.556-227.556v0c0-125.675-101.88-227.556-227.556-227.556v0zM398.222 817.778c-62.838 0-113.778-50.94-113.778-113.778s50.94-113.778 113.778-113.778c62.838 0 113.778 50.94 113.778 113.778v0c0 62.838-50.94 113.778-113.778 113.778v0zM568.889 419.556c125.675 0 227.556-101.88 227.556-227.556v0-170.667c0-31.419-25.47-56.889-56.889-56.889v0h-682.667c-31.419 0-56.889 25.47-56.889 56.889v0 170.667c0 125.675 101.88 227.556 227.556 227.556v0h341.333zM113.778 135.111v-56.889h568.889v56.889c0 94.257-76.41 170.667-170.667 170.667v0h-227.556c-94.257 0-170.667-76.41-170.667-170.667v0z" />
<glyph unicode="&#xe90e;" glyph-name="rs-zcgl" horiz-adv-x="1022" d="M965.221-63.571h-908.444c-31.358 0-56.778 25.42-56.778 56.778v0 681.333c0 31.358 25.42 56.778 56.778 56.778v0h227.111l418.793 221.092c8.269 4.51 18.112 7.162 28.574 7.162 20.717 0 39.006-10.4 49.93-26.262l0.133-0.204 127.523-201.789h56.381c31.358 0 56.778-25.42 56.778-56.778v0-681.333c0-31.358-25.42-56.778-56.778-56.778v0zM113.555 617.762v-567.778h794.888v170.333h-170.333c-62.715 0-113.555 50.84-113.555 113.555s50.84 113.555 113.555 113.555v0h170.333v170.333h-794.888zM851.666 333.874c0 31.358-25.42 56.778-56.778 56.778s-56.778-25.42-56.778-56.778c0-31.358 25.42-56.778 56.778-56.778v0c31.358 0 56.778 25.42 56.778 56.778v0zM710.46 834.823l-196.11-103.506h261.178z" />
<glyph unicode="&#xe90f;" glyph-name="sp-spgl" d="M910.118-64h-796.237c-62.822 0-113.748 50.927-113.748 113.748v0 170.623c0 62.822 50.927 113.748 113.748 113.748v0h147.873l125.124 208.387c-62.043 41.293-102.373 110.935-102.373 189.997 0 125.642 101.854 227.497 227.497 227.497s227.497-101.854 227.497-227.497c0-79.061-40.331-148.703-101.54-189.475l-0.834-0.522 125.124-208.387h147.873c62.822 0 113.748-50.927 113.748-113.748v0-170.623c0-62.822-50.927-113.748-113.748-113.748v0zM511.999 845.986c-62.822 0-113.748-50.927-113.748-113.748s50.927-113.748 113.748-113.748c62.822 0 113.748 50.927 113.748 113.748v0c0 62.822-50.927 113.748-113.748 113.748v0zM544.418 507.983c-9.746-2.061-20.945-3.241-32.419-3.241s-22.672 1.18-33.48 3.426l1.062-0.185-104.080-173.864h272.996zM910.118 163.497c0 31.411-25.463 56.874-56.874 56.874v0h-682.49c-31.411 0-56.874-25.463-56.874-56.874v0-56.874c0-31.411 25.463-56.874 56.874-56.874v0h682.49c31.411 0 56.874 25.463 56.874 56.874v0 56.874z" />
<glyph unicode="&#xe910;" glyph-name="xc-gzt" horiz-adv-x="910" d="M853.127-63.878l-398.127 170.626-398.127-170.626c-31.412 0-56.875 25.464-56.875 56.875v0 910.005c0 31.412 25.464 56.875 56.875 56.875v0h796.254c31.412 0 56.875-25.464 56.875-56.875v0-910.005c0-31.412-25.464-56.875-56.875-56.875v0zM113.748 846.127v-785.562l341.252 159.934 341.252-159.934v785.562h-682.504zM227.499 504.875h455.003v-113.751h-455.003v113.751zM227.499 732.376h455.003v-113.751h-455.003v113.751z" />
<glyph unicode="&#xe911;" glyph-name="xc-xcqx" horiz-adv-x="910" d="M455-63.878l-455.002 284.376v625.629l458.245 113.751 451.76-113.751v-625.629zM796.252 748.188l-338.977 97.94-343.527-97.94v-451.874l341.252-189.566 341.252 189.566v451.874zM398.125 334.249v113.751h-113.751v113.751h113.751v113.751h113.751v-113.751h113.751v-113.751h-113.751v-113.751h-113.751z" />
<glyph unicode="&#xe912;" glyph-name="xc-xzsz" horiz-adv-x="956" d="M927.648 576.631l-52.633-30.4v-196.466l52.633-30.4c17.071-9.99 28.357-28.235 28.357-49.117 0-10.441-2.821-20.224-7.743-28.625l0.145 0.268-56.717-98.233c-9.99-17.071-28.235-28.357-49.117-28.357-10.441 0-20.224 2.821-28.625 7.743l0.268-0.145-52.633 30.173-170.15-98.233v-60.573c0-31.324-25.393-56.717-56.717-56.717v0h-113.433c-31.324 0-56.717 25.393-56.717 56.717v0 60.8l-170.15 98.233-3.516-2.042-49.117-28.358c-8.134-4.776-17.917-7.598-28.358-7.598-20.882 0-39.128 11.285-48.972 28.089l-0.145 0.267-56.717 98.233c-4.776 8.134-7.598 17.917-7.598 28.358 0 20.882 11.285 39.128 28.089 48.972l0.267 0.145 52.633 30.4v196.466l-52.633 30.4c-17.071 9.99-28.357 28.235-28.357 49.117 0 10.441 2.821 20.224 7.743 28.625l-0.145-0.268 56.717 98.233c9.99 17.071 28.235 28.357 49.117 28.357 10.441 0 20.224-2.821 28.625-7.743l-0.268 0.145 52.633-30.173 170.15 98.233v60.573c0 31.324 25.393 56.717 56.717 56.717v0h113.433c31.324 0 56.717-25.393 56.717-56.717v0-60.8l170.15-98.233 3.516 2.042 49.117 28.358c8.134 4.776 17.917 7.598 28.358 7.598 20.882 0 39.128-11.285 48.972-28.089l0.145-0.267 56.717-98.233c4.776-8.134 7.598-17.917 7.598-28.358 0-20.882-11.285-39.128-28.089-48.972l-0.267-0.145zM761.582 546.231l88.591 51.045-56.717 98.233-88.591-51.045-170.15 98.233v102.317h-113.433v-102.090l-170.15-98.233-88.591 51.045-56.717-98.233 88.591-51.045v-196.466l-88.591-51.045 56.717-98.233 88.591 51.045 170.15-98.233v-102.543h113.433v102.090l170.15 98.233 88.591-51.045 56.717 98.233-88.591 51.045v196.466zM478 334.565c-62.647 0-113.433 50.786-113.433 113.433s50.786 113.433 113.433 113.433c62.647 0 113.433-50.786 113.433-113.433v0c0-62.647-50.786-113.433-113.433-113.433v0z" />
<glyph unicode="&#xe913;" glyph-name="xc-xczs" d="M1023.999 277.334v-113.778h-455.111v-56.889h170.667v-113.778h-455.111v113.778h170.667v56.889h-455.111v113.778h56.889v512h-56.889v113.778h1024v-113.778h-56.889v-512h56.889zM853.332 789.334h-682.667v-512h682.667v512zM353.45 594.774l80.441 80.498 139.548-139.605 160.939 160.882 80.441-80.441-241.38-241.323-139.548 139.548-144.27-144.213-80.441 80.441 144.27 144.213z" />
<glyph unicode="&#xe914;" glyph-name="xc-xgmm" d="M933.647-64h-843.295c-33.267 0-60.235 26.968-60.235 60.235v0 542.119c0 33.267 26.968 60.235 60.235 60.235v0h120.471v60.235c0 166.335 134.841 301.176 301.176 301.176s301.176-134.841 301.176-301.176v0-60.235h120.471c33.267 0 60.235-26.968 60.235-60.235v0-542.119c0-33.267-26.968-60.235-60.235-60.235v0zM692.706 658.825c0 99.801-80.905 180.706-180.706 180.706s-180.706-80.905-180.706-180.706v0-60.235h361.412v60.235zM873.412 478.119h-722.825v-421.647h722.825v421.647zM632.471 297.413h-60.235v-180.706h-120.471v180.706h-60.235v120.471h240.941v-120.471z" />
<glyph unicode="&#xe915;" glyph-name="xc-xzbb" d="M1023.999 277.334v-113.778h-455.111v-56.889h170.667v-113.778h-455.111v113.778h170.667v56.889h-455.111v113.778h56.889v512h-56.889v113.778h1024v-113.778h-56.889v-512h56.889zM853.332 789.334h-682.667v-512h682.667v512zM341.332 334.223h-113.778v227.556h113.778v-227.556zM568.888 334.223h-113.778v341.333h113.778v-341.333zM796.443 334.223h-113.778v170.667h113.778v-170.667z" />
<glyph unicode="&#xe916;" glyph-name="xc-znxz" horiz-adv-x="999" d="M970.278 597.612l-49.19-28.4c-8.068-4.669-17.749-7.422-28.074-7.422-31.37 0-56.801 25.43-56.801 56.801 0 20.781 11.16 38.954 27.813 48.857l0.262 0.144 49.19 28.4c8.224 4.901 18.137 7.8 28.726 7.8 31.37 0 56.801-25.43 56.801-56.801 0-21.045-11.446-39.418-28.452-49.231l-0.275-0.146zM499.174 163.997c-156.85 0-284.003 127.152-284.003 284.003s127.152 284.003 284.003 284.003c156.85 0 284.003-127.152 284.003-284.003v0c0-156.85-127.152-284.003-284.003-284.003v0zM499.174 618.402c-94.111 0-170.402-76.291-170.402-170.402s76.291-170.402 170.402-170.402c94.111 0 170.402 76.291 170.402 170.402v0c0 94.111-76.291 170.402-170.402 170.402v0zM499.174 788.803c-31.37 0-56.801 25.43-56.801 56.801v0 56.801c0 31.37 25.43 56.801 56.801 56.801s56.801-25.43 56.801-56.801v0-56.801c0-31.37-25.43-56.801-56.801-56.801v0zM77.259 569.213l-49.19 28.4c-16.915 10.046-28.074 28.22-28.074 49.001 0 31.37 25.43 56.801 56.801 56.801 10.325 0 20.006-2.755 28.349-7.569l-0.275 0.146 49.19-28.4c17.281-9.96 28.726-28.332 28.726-49.377 0-31.37-25.43-56.801-56.801-56.801-10.59 0-20.502 2.897-28.988 7.944l0.262-0.144zM357.172 107.197h284.003c15.685 0 28.4-12.715 28.4-28.4s-12.715-28.4-28.4-28.4v0h-284.003c-15.685 0-28.4 12.715-28.4 28.4s12.715 28.4 28.4 28.4v0zM357.172-6.405h284.003c15.685 0 28.4-12.715 28.4-28.4s-12.715-28.4-28.4-28.4v0h-284.003c-15.685 0-28.4 12.715-28.4 28.4s12.715 28.4 28.4 28.4v0z" />
<glyph unicode="&#xe917;" glyph-name="yy-yyzx-gg" d="M910.222 163.556v568.889h113.778v-568.889h-113.778zM739.556 618.667h113.778v-341.333h-113.778v341.333zM227.556 49.778h-227.556v625.778l682.667 170.667v-796.444l-455.111 113.778v-113.778zM568.889 675.556l-455.111-113.778v-227.556l455.111-113.778v455.111z" />
<glyph unicode="&#xe918;" glyph-name="yy-yyzx-jy" d="M967.111 106.667h-568.889v-113.778h-398.222v853.333c0 31.419 25.47 56.889 56.889 56.889v0h910.222c31.419 0 56.889-25.47 56.889-56.889v0-682.667c0-31.419-25.47-56.889-56.889-56.889v0zM910.222 789.333h-796.444v-568.889h796.444v568.889zM739.556 561.778h-455.111v113.778h455.111v-113.778zM739.556 334.222h-455.111v113.778h455.111v-113.778z" />
<glyph unicode="&#xe919;" glyph-name="yy-yyzx-rz" d="M967.111-7.11h-967.111v853.333c0 31.419 25.47 56.889 56.889 56.889v0h568.889v-113.778h-512v-682.667h796.444v398.222h113.778v-455.111c0-31.419-25.47-56.889-56.889-56.889v0zM397.653 361.416l541.582 541.696 84.764-84.764-541.582-541.753z" />
<glyph unicode="&#xe91a;" glyph-name="yy-yyzx-wq" horiz-adv-x="796" d="M398 50s-398 311.805-398 562.261c0 191.893 177.963 347.454 398 347.454s398-155.561 398-347.454c0-252.73-398-562.261-398-562.261zM398 845.488c-157.494 0-284.854-92.28-284.854-206.050 0-176.258 284.854-418.355 284.854-418.355s284.854 237.55 284.854 418.355c0 113.772-127.36 206.050-284.854 206.050zM398 504.857c-62.803 0-113.715 50.912-113.715 113.715s50.912 113.715 113.715 113.715c62.803 0 113.715-50.912 113.715-113.715v0c0-62.803-50.912-113.715-113.715-113.715v0zM98.363 264.92l97.226-69.764c-50.603-15.351-81.874-36.503-81.874-59.871 0-47.078 127.36-85.285 284.286-85.285s284.286 38.208 284.286 85.285c0 23.311-31.272 44.348-81.874 59.757l97.794 69.65c52.535-22.753 90.205-70.933 97.708-128.588l0.087-0.819c0-109.905-177.963-199-398-199s-398 89.095-398 199c7.842 58.591 45.673 106.813 97.304 129.225l1.059 0.41z" />
<glyph unicode="&#xe91b;" glyph-name="yy-yyzx-xlgj" d="M170.667-64v113.778h739.556v56.889h-910.222v284.444h341.333v-113.778h-227.556v-56.889h910.222v-284.444h-853.333zM227.556 677.547c0 155.989 153.031 282.453 341.333 282.453s341.333-126.464 341.333-282.453c0-205.426-341.333-457.102-341.333-457.102s-341.333 253.497-341.333 457.102zM568.889 333.426s204.8 195.413 204.8 344.121c0 93.582-91.591 169.472-204.8 169.472s-204.8-75.89-204.8-169.472c0-145.124 204.8-344.121 204.8-344.121zM568.889 675.556c31.419 0 56.889-25.47 56.889-56.889s-25.47-56.889-56.889-56.889c-31.419 0-56.889 25.47-56.889 56.889v0c0 31.419 25.47 56.889 56.889 56.889v0z" />
<glyph unicode="&#xe91c;" glyph-name="wqlogo" horiz-adv-x="3904" d="M3721.6 517.664h78.72l8 10.176 47.616-38.4-12-15.264v-24.448c-2.884-72.652-35.77-137.094-86.529-181.673l-0.287-0.247c42.856-20.505 92.69-34.503 145.202-39.207l1.678-0.121-4.32-53.76c-71.001 4.66-136.322 25.107-193.734 57.834l2.214-1.162c-61.139-35.769-134.434-57.276-212.673-58.269l-0.287-0.003-2.144 53.888c60.756 1.163 117.901 15.451 169.093 40.131l-2.437-1.059c-3.488 3.008-7.168 5.824-10.464 8.96-48.020 43.496-78.726 105.344-80.982 174.388l-0.010 0.396v23.296h-29.056v44.544h128.896v79.424h-139.84v49.76h139.84v87.52l53.312-5.024v-82.496h170.144v-49.76h-169.952v-79.424zM3621.632 473.12v-23.296c1.29-64.333 35.119-120.493 85.656-152.835l0.744-0.445c47.828 35.322 79.386 90.305 82.667 152.78l0.021 0.5v23.296h-168.992zM3427.712 216.384c0-0.067 0.001-0.146 0.001-0.225 0-22.019-17.778-39.886-39.763-40.031h-62.478l-9.344 53.92h52.704c3.079 0.018 5.568 2.518 5.568 5.6 0 0.023 0 0.045 0 0.068v-0.003 126.72l-60.8-17.952-15.552-14.176-23.232 66.304 99.488 22.4v178.080h-87.904v49.76h87.744v87.52l53.312-5.024v-82.496h71.296v-49.76h-71.296v-166.080l83.52 18.784 9.824-44-93.344-27.584v-161.824zM3171.712 179.2h-54.912v138.688l-185.6-31.808-24.768-10.144-9.184 67.648 219.456 29.088v346.432h54.72v-339.2l76.448 10.144 5.728-48.704-82.176-14.080v-148.064zM3075.392 453.28l-43.616-39.744c-24.244 25.951-51.168 48.87-80.487 68.492l-1.657 1.044 37.44 38.4c33.799-19.042 62.81-41.702 87.994-68.050l0.134-0.142zM2964.128 634.176l36.384 36.544c32.262-18.622 59.946-40.712 83.909-66.326l0.187-0.202-42.304-37.696c-23.171 25.247-48.869 47.541-76.881 66.699l-1.519 0.981zM2813.504 495.84c29.408-18.208 80.704-50.432 106.944-69.312-19.040-27.936-35.2-51.552-35.2-51.552s-30.528 27.136-71.872 59.808v-255.584h-54.72v241.12c-29.244-53.298-60.787-99.252-96.317-141.758l1.117 1.374-41.6 40.416c55.561 57.243 101.018 124.667 133.252 199.147l1.66 4.309h-109.472v49.76h111.264v82.432l-102.752-9.248-5.504 46.016c1.66-0.013 3.624-0.021 5.589-0.021 79.632 0 156.32 12.602 228.18 35.919l-5.225-1.466 29.6-57.6-95.168-8.544v-87.264h107.040v-49.76h-107.040v-27.968zM2246.112 184.608c-75.902 0.229-142.521 39.757-180.604 99.298l-0.516 0.862c-10.185-47.034-25.884-88.656-46.743-127.070l1.239 2.494-40.032 29.888c30.442 56.367 48.631 123.258 49.374 194.33l0.002 0.23v73.248l54.4-11.904-7.776-11.648v-33.664c0.398-34.414 10.777-66.326 28.371-93.069l-0.403 0.653v201.216h-97.312v43.936h97.152v81.152h-85.984v43.84h85.984v57.312h44.8v-57.312h59.68v-43.904h-59.68v-81.152h71.392v-43.936h-71.392v-93.408h71.392v-43.904h-71.392v-110.56c27.157-19.618 61.116-31.382 97.822-31.392h347.17l-7.296-45.568h-339.872zM2559.712 276.096c-26.256 17.965-48.973 38.325-68.77 61.275l-0.382 0.453c-20.405-26.488-43.478-49.439-69.217-69.073l-0.895-0.655-27.008 36.416c26.684 20.336 49.469 43.995 68.255 70.672l0.673 1.008c-34.078 55.023-54.275 121.754-54.275 193.202 0 6.432 0.164 12.826 0.487 19.177l-0.036-0.891h-11.744v40.32h131.68l7.52 9.6 44.032-39.936-10.368-10.336c0.032-1.92 0.050-4.186 0.050-6.456 0-74.732-19.697-144.864-54.182-205.486l1.076 2.055c19.373-24.551 41.81-45.534 67.002-62.79l1.030-0.666zM2524.8 587.68h-71.456c-0.302-5.27-0.475-11.434-0.475-17.639 0-54.286 13.188-105.493 36.535-150.589l-0.861 1.828c22.898 47.582 36.276 103.455 36.276 162.453 0 1.388-0.007 2.773-0.022 4.157l0.002-0.211zM2378.784 246.144h-44.8v73.856l-92.256-30.656-17.568-13.408-16.896 55.584 34.464 8.384v330.848h-17.728v40.32h345.6v-40.32h-190.944v-424.608zM2333.984 670.752h-47.552v-77.024h47.456v77.024zM2333.984 553.408h-47.552v-78.752h47.456v78.752zM2333.984 434.336h-47.552v-83.552l47.456 11.552v72zM1724.16 176.768h-137.6v47.232h137.6v57.6h-97.888v47.424h97.888v52.192l-81.248-8.352-16.64-8.032-7.776 56.416 20.672 0.256c18.843 21.337 34.694 45.923 46.518 72.686l0.714 1.81h-79.36v45.536h302.464v-45.536h-173.632c-11.732-28.326-24.675-52.527-39.655-75.267l1.031 1.667 123.648 1.504c-12.54 12.651-26.201 24.148-40.835 34.345l-0.957 0.631 33.664 24.96c37.063-24.506 68.733-53.428 95.379-86.561l0.621-0.799-41.6-27.456c-6.4 9.088-12.8 17.376-19.2 25.088l-72.128-7.392v-57.6h109.312v-47.424h-109.152v-57.696h149.12v-47.392h-200.96zM1597.184 399.648c0.225-4.571 0.354-9.928 0.354-15.314 0-80.659-28.806-154.591-76.691-212.068l0.433 0.534-40.032 29.888c41.394 49.119 66.549 113.106 66.549 182.968 0 4.899-0.124 9.769-0.368 14.607l0.027-0.679v317.216h361.952v-140.8h-312.224v-176.512zM1857.6 618.592v55.584h-260.416v-55.584h260.416zM1395.776 274.464v-52.16h-51.776v494.336h166.4v-442.176h-114.624zM1458.656 664.224h-62.88v-337.344h62.88v337.344zM857.056 770.592c-338.392-225.987-622.585-503.433-849.038-824.519l-6.738-10.073-1.28 1.728v1022.272h960v-896.896h-609.6c115.58 281.032 288.042 517.934 504.414 705.532l2.306 1.956z" />
<glyph unicode="&#xe91d;" glyph-name="customerService" horiz-adv-x="1073" d="M926.112 132.12c-8.707 0.101-17.077 1.374-25.012 3.67l0.661-0.164c-43.121-64.157-100.769-115.408-168.422-149.812l-2.52-1.163c-4.133-27.127-27.296-47.672-55.257-47.672-1.807 0-3.595 0.086-5.357 0.254l0.225-0.017h-121.754c-3.293-0.774-7.073-1.217-10.957-1.217-27.57 0-49.919 22.349-49.919 49.919s22.349 49.919 49.919 49.919c3.884 0 7.665-0.443 11.294-1.283l-0.337 0.066h121.754c12.579-0.16 24.314-3.63 34.417-9.577l-0.327 0.178c63.41 30.994 115.53 76.493 153.512 132.376l0.871 1.358c-18.619 17.773-30.195 42.785-30.195 70.501 0 0.024 0 0.047 0 0.071v-0.004 340.91c0 0.102-0.001 0.223-0.001 0.344 0 26.036 10.408 49.64 27.29 66.881l-0.016-0.017c-48.315 132.295-173.068 225.031-319.481 225.031s-271.166-92.736-318.727-222.675l-0.754-2.356c16.866-17.224 27.273-40.829 27.273-66.865 0-0.121 0-0.242-0.001-0.362v0.019-340.91c0-53.794-43.609-97.403-97.403-97.403v0c-80.691 0-146.105 65.413-146.105 146.105v0 243.508c0 0.008 0 0.018 0 0.028 0 72.004 52.242 131.805 120.89 143.568l0.863 0.123c61.163 172.905 223.235 294.548 413.719 294.548s352.556-121.644 412.773-291.487l0.947-3.062c69.637-11.845 122.025-71.631 122.24-143.695v-243.531c0-80.691-65.413-146.105-146.105-146.105v0z" />
<glyph unicode="&#xe91e;" glyph-name="exit" d="M1008.702 412.91v0l-0.512-0.461c-0.212-0.427-0.571-0.752-1.010-0.916l-0.013-0.004-152.431-152.431c-9.304-10.176-22.637-16.535-37.456-16.535-27.995 0-50.691 22.695-50.691 50.691 0 14.819 6.359 28.152 16.496 37.421l0.039 0.035 65.985 66.139h-388.749c-28.25 0-51.151 22.901-51.151 51.151s22.901 51.151 51.151 51.151v0h390.284l-67.52 67.621c-8.207 8.975-13.235 20.979-13.235 34.155 0 27.995 22.695 50.691 50.691 50.691 13.177 0 25.18-5.028 34.194-13.27l-0.039 0.035 153.965-153.76c9.436-9.055 15.299-21.771 15.299-35.857s-5.863-26.801-15.282-35.841l-0.017-0.016zM664.966 857.21h-511.512c-28.25 0-51.151-22.901-51.151-51.151v0-716.117c0-28.25 22.901-51.151 51.151-51.151v0h511.512c28.25 0 51.151 22.901 51.151 51.151v0h102.302v-51.151c0-56.5-45.802-102.302-102.302-102.302v0h-613.814c-56.5 0-102.302 45.802-102.302 102.302v0 818.419c0 56.5 45.802 102.302 102.302 102.302v0h613.814c56.5 0 102.302-45.802 102.302-102.302v0-51.151h-102.302c0 28.25-22.901 51.151-51.151 51.151v0z" />
<glyph unicode="&#xe91f;" glyph-name="shrinkLeft" horiz-adv-x="1002" d="M517.827 447.906l435.231-433.279c8.37-8.304 13.55-19.812 13.55-32.528s-5.18-24.224-13.548-32.526l-0.003-0.003c-8.503-8.389-20.189-13.57-33.086-13.57s-24.583 5.18-33.091 13.576l0.005-0.005-466.458 463.67c-8.239 9.131-13.279 21.287-13.279 34.62s5.041 25.489 13.32 34.666l-0.041-0.046 465.993 463.949c8.503 8.389 20.189 13.57 33.086 13.57s24.583-5.18 33.091-13.576l-0.005 0.005c8.393-8.293 13.59-19.804 13.59-32.528s-5.197-24.235-13.584-32.525l-0.004-0.004zM146.072 447.906l435.231-433.279c8.37-8.304 13.55-19.812 13.55-32.528s-5.18-24.224-13.548-32.526l-0.003-0.003c-8.503-8.389-20.189-13.57-33.086-13.57s-24.583 5.18-33.091 13.576l0.005-0.005-466.458 463.67c-8.239 9.131-13.279 21.287-13.279 34.62s5.041 25.489 13.32 34.666l-0.041-0.046 465.993 463.949c8.503 8.389 20.189 13.57 33.086 13.57s24.583-5.18 33.091-13.576l-0.005 0.005c8.393-8.293 13.59-19.804 13.59-32.528s-5.197-24.235-13.584-32.525l-0.004-0.004z" />
<glyph unicode="&#xe920;" glyph-name="shrinkRight" d="M495.423 447.86l-435.27-433.226c-8.37-8.304-13.551-19.814-13.551-32.531s5.181-24.226 13.549-32.529l0.003-0.003c8.504-8.39 20.191-13.572 33.089-13.572s24.585 5.181 33.094 13.577l-0.005-0.005 466.035 463.62c8.24 9.132 13.281 21.289 13.281 34.623s-5.041 25.491-13.321 34.669l0.041-0.046-466.035 463.991c-8.504 8.39-20.191 13.572-33.089 13.572s-24.585-5.181-33.094-13.577l0.005 0.005c-8.393-8.294-13.591-19.806-13.591-32.531s5.197-24.237 13.586-32.528l0.004-0.004zM867.21 447.86l-435.27-433.226c-8.37-8.304-13.551-19.814-13.551-32.531s5.181-24.226 13.549-32.529l0.003-0.003c8.504-8.39 20.191-13.572 33.089-13.572s24.585 5.181 33.094 13.577l-0.005-0.005 466.035 463.898c8.24 9.132 13.281 21.289 13.281 34.623s-5.041 25.491-13.321 34.669l0.041-0.046-466.035 463.712c-8.504 8.39-20.191 13.572-33.089 13.572s-24.585-5.181-33.094-13.577l0.005 0.005c-8.393-8.294-13.591-19.806-13.591-32.531s5.197-24.237 13.586-32.528l0.004-0.004z" />
<glyph unicode="&#xe921;" glyph-name="yy-wp" horiz-adv-x="910" d="M853.127-63.878h-796.255c-31.412 0-56.875 25.464-56.875 56.875v0 910.006c0 31.412 25.464 56.875 56.875 56.875v0h796.255c31.412 0 56.875-25.464 56.875-56.875v0-910.006c0-31.412-25.464-56.875-56.875-56.875v0zM511.875-7.002h113.751v56.875h-113.751v-56.875zM796.252 846.128h-682.505v-739.381h682.505v739.381zM796.252 49.874h-113.751v-56.875h113.751v56.875zM312.812 504.876c11.084-0.152 21.599-2.415 31.216-6.405l-0.56 0.206c10.861 68.355 69.38 119.981 139.957 119.981 70.252 0 128.557-51.154 139.7-118.246l0.113-0.826c34.453-10.991 59.013-42.606 59.264-79.994v-0.030c0-47.117-38.196-85.313-85.313-85.313v0c-4.275-0.874-9.189-1.374-14.219-1.374s-9.944 0.5-14.693 1.453l0.475-0.080h-227.502c-4.275-0.814-9.193-1.28-14.219-1.28s-9.944 0.466-14.711 1.357l0.493-0.076c-47.117 0-85.313 38.196-85.313 85.313s38.196 85.313 85.313 85.313v0z" />
</font>
</defs>
</svg>
