<?xml version="1.0" standalone="no"?>
<!DOCTYPE svg PUBLIC "-//W3C//DTD SVG 1.1//EN" "http://www.w3.org/Graphics/SVG/1.1/DTD/svg11.dtd" >
<svg xmlns="http://www.w3.org/2000/svg">
<metadata>Generated by IcoMoon</metadata>
<defs>
<font id="nh" horiz-adv-x="1024">
<font-face units-per-em="1024" ascent="960" descent="-64" />
<missing-glyph horiz-adv-x="1024" />
<glyph unicode="&#x20;" horiz-adv-x="512" d="" />
<glyph unicode="&#xe900;" glyph-name="chuchai" d="M988.584 785.226l-203.346-204.049 140.364-379.296c9.376-36.324 21.474-72.902-23.554-118.026-22.946-22.977-70.694-70.79-141.357 0l-212.306 259.671-167.823-168.367 35.619-156.525c5.377-26.050 9.217-35.203-8.609-53.124-28.13-26.69-48.74-40.579-70.887-18.37l-142.604 183.312-183.344 142.604c-30.594 30.659 13.313 63.205 19.202 70.758 8.57 9.265 20.79 15.045 34.359 15.045 6.059 0 11.849-1.153 17.162-3.25l-0.317 0.111 157.678-39.364 168.974 168.559-259.638 212.627c-70.662 70.79-22.882 118.634 0 141.452 45.028 45.252 81.543 33.155 117.931 23.778l378.625-141.548 204.178 203.698c20.020 21.551 48.516 34.992 80.151 34.992 26.729 0 51.217-9.595 70.207-25.53l-0.169 0.138c15.506-18.616 24.92-42.782 24.92-69.146 0-31.715-13.621-60.249-35.332-80.071l-0.084-0.077z" />
<glyph unicode="&#xe901;" glyph-name="chidaozaotui" d="M1015.038 712.613c-5.609-5.636-13.372-9.123-21.95-9.123-8.766 0-16.681 3.642-22.315 9.497l-0.010 0.010c-29.653 40.012-59.591 75.308-91.645 108.55l0.313-0.327c-31.166 31.046-64.505 59.972-99.746 86.509l-2.43 1.753c-5.771 5.786-9.339 13.771-9.339 22.589 0 8.625 3.414 16.453 8.964 22.207l-0.010-0.010c6.291 3.508 13.801 5.573 21.794 5.573 8.269 0 16.022-2.211 22.7-6.075l-0.219 0.117c37.551-23.288 70.108-49.131 99.382-78.268l-0.021 0.020c33.539-35.43 64.518-74.090 92.161-115.179l2.018-3.184c5.723-5.778 9.259-13.731 9.259-22.51 0-8.601-3.395-16.411-8.918-22.159l0.011 0.011zM991.877 415.871c0-0.063 0-0.136 0-0.21 0-145.466-64.918-275.77-167.364-363.52l-0.648-0.543 63.053-63.053c5.559-5.559 8.998-13.239 8.998-21.721 0-16.965-13.753-30.719-30.719-30.719-8.483 0-16.162 3.438-21.721 8.998v0l-69.131 69.194c-73.91-49.071-164.692-78.297-262.3-78.297-113.713 0-218.162 39.665-300.265 105.914l0.913-0.713-95.971-95.971c-5.559-5.559-13.239-8.998-21.721-8.998-16.965 0-30.719 13.753-30.719 30.719 0 8.483 3.438 16.162 8.998 21.721l94.051 94.051c-83.615 86.257-135.159 204.026-135.159 333.833 0 265.016 214.838 479.853 479.853 479.853s479.853-214.838 479.853-479.853c0-0.241 0-0.483-0.001-0.724v0.037zM735.956 415.871h-191.941v255.921c0 17.668-14.322 31.991-31.991 31.991s-31.991-14.322-31.991-31.991v0-287.912c0-17.668 14.322-31.991 31.991-31.991v0h223.932c17.668 0 31.991 14.322 31.991 31.991s-14.322 31.991-31.991 31.991v0zM144.617 821.251c-31.741-32.915-61.679-68.211-89.285-105.343l-2.047-2.88c-5.643-5.864-13.559-9.506-22.325-9.506-8.577 0-16.34 3.487-21.949 9.122l-0.001 0.001c-5.54 5.744-8.954 13.572-8.954 22.197 0 8.818 3.568 16.803 9.339 22.589l-0.001-0.001c29.661 44.274 60.64 82.934 94.564 118.774l-0.386-0.411c29.253 29.117 61.81 54.96 97.047 76.905l2.314 1.344c6.459 3.746 14.212 5.958 22.481 5.958 7.993 0 15.502-2.066 22.025-5.692l-0.232 0.118c5.54-5.744 8.954-13.572 8.954-22.197 0-8.818-3.568-16.803-9.339-22.589l0.001 0.001c-37.677-28.323-71.028-57.291-102.229-88.41l0.021 0.020z" />
<glyph unicode="&#xe902;" glyph-name="choujiang" d="M933.647 690.447c-51.2 0-90.353 39.153-90.353 90.353s39.153 90.353 90.353 90.353 90.353-39.153 90.353-90.353-39.153-90.353-90.353-90.353zM843.294 509.741h21.082l39.153 180.706c0 9.035 6.024 18.071 18.071 18.071 9.035 0 18.071-6.024 18.071-18.071v-3.012l-39.153-180.706c18.071-3.012 33.129-18.071 33.129-39.153v-252.988c0-21.082-18.071-39.153-39.153-39.153h-51.2v-60.235c0-51.2-39.153-90.353-90.353-90.353h-662.588c-51.2 0-90.353 39.153-90.353 90.353v424.659c0 51.2 39.153 90.353 90.353 90.353h662.588c51.2 0 90.353-39.153 90.353-90.353v-30.118zM391.529 479.624c0 33.129-27.106 60.235-60.235 60.235h-210.824c-33.129 0-60.235-27.106-60.235-60.235v-301.176c0-33.129 27.106-60.235 60.235-60.235h210.824c33.129 0 60.235 27.106 60.235 60.235v301.176zM783.059 479.624c0 33.129-27.106 60.235-60.235 60.235h-210.824c-33.129 0-60.235-27.106-60.235-60.235v-301.176c0-33.129 27.106-60.235 60.235-60.235h210.824c33.129 0 60.235 27.106 60.235 60.235v301.176zM578.259 347.106c15.059 9.035 30.118 12.047 45.176 12.047s27.106-3.012 39.153-9.035c12.047-6.024 24.094-15.059 30.118-30.118 9.035-15.059 12.047-30.118 12.047-45.176 0-12.047-3.012-27.106-6.024-39.153s-12.047-21.082-18.071-27.106c-9.035-9.035-18.071-15.059-30.118-18.071s-24.094-6.024-36.141-6.024c-30.118-3.012-60.235 12.047-75.294 39.153s-21.082 57.224-21.082 87.341c-3.012 39.153 6.024 78.306 27.106 111.435 18.071 24.094 45.176 36.141 72.282 36.141 12.047 0 21.082-3.012 33.129-6.024 9.035-3.012 18.071-6.024 24.094-12.047s12.047-12.047 15.059-18.071c3.012-6.024 6.024-15.059 6.024-21.082h-33.129c-3.012 9.035-9.035 15.059-15.059 21.082-27.106 18.071-66.259 9.035-84.329-18.071-15.059-27.106-21.082-54.212-18.071-84.329 15.059 9.035 21.082 21.082 33.129 27.106zM575.247 229.647c12.047-12.047 27.106-18.071 42.165-15.059 15.059 0 30.118 6.024 42.165 15.059 12.047 12.047 18.071 30.118 18.071 45.176s-6.024 33.129-18.071 42.165c-12.047 9.035-27.106 15.059-42.165 15.059-12.047 0-21.082-3.012-30.118-6.024-9.035-6.024-15.059-12.047-21.082-21.082s-9.035-21.082-9.035-30.118c0-18.071 6.024-36.141 18.071-45.176zM237.929 184.471c-24.094 0-48.188 6.024-66.259 21.082-21.082 18.071-30.118 51.2-21.082 78.306l9.035 18.071c3.012 6.024 9.035 9.035 12.047 12.047s9.035 6.024 15.059 9.035c6.024 3.012 9.035 3.012 15.059 6.024-12.047 3.012-21.082 12.047-30.118 21.082-12.047 9.035-15.059 24.094-15.059 39.153 0 18.071 9.035 39.153 24.094 51.2 18.071 12.047 39.153 21.082 60.235 21.082 15.059 0 30.118-3.012 42.165-9.035s21.082-15.059 30.118-24.094c6.024-12.047 12.047-24.094 12.047-36.141 0-9.035 0-15.059-3.012-24.094-3.012-6.024-6.024-12.047-12.047-18.071-3.012-3.012-9.035-9.035-15.059-12.047-3.012-3.012-9.035-6.024-15.059-6.024 6.024-3.012 12.047-3.012 18.071-6.024s12.047-9.035 18.071-12.047c6.024-6.024 12.047-12.047 15.059-21.082 12.047-30.118 3.012-63.247-21.082-81.318-24.094-21.082-48.188-27.106-72.282-27.106zM292.141 386.259c0 12.047-6.024 24.094-15.059 33.129-12.047 9.035-24.094 12.047-39.153 12.047s-27.106-3.012-36.141-12.047c-9.035-9.035-15.059-21.082-15.059-33.129s6.024-24.094 15.059-33.129c9.035-9.035 24.094-12.047 36.141-12.047 15.059 0 27.106 3.012 39.153 12.047 9.035 9.035 15.059 21.082 15.059 33.129zM286.118 298.918c-12.047 9.035-30.118 15.059-45.176 15.059s-33.129-3.012-45.176-15.059c-21.082-15.059-24.094-45.176-9.035-66.259l9.035-9.035c12.047-9.035 30.118-15.059 45.176-15.059s33.129 3.012 45.176 15.059c21.082 15.059 24.094 45.176 9.035 66.259l-9.035 9.035z" />
<glyph unicode="&#xe903;" glyph-name="qiehuan" d="M512-64c-282.77 0-512 229.23-512 512s229.23 512 512 512c282.77 0 512-229.23 512-512v0c-0.32-282.641-229.359-511.68-511.969-512h-0.031zM512 917.966c-259.555 0-469.966-210.411-469.966-469.966s210.411-469.966 469.966-469.966c259.555 0 469.966 210.411 469.966 469.966v0c-0.291 259.437-210.528 469.675-469.938 469.966h-0.027zM784.487 319.641h-381.083c-7.183 0-13.005-5.823-13.005-13.005v0-77.209c-0.036-7.155-5.845-12.944-13.005-12.944-3.575 0-6.815 1.443-9.166 3.779v0l-99.379 99.379-38.451 38.605c-2.336 2.351-3.779 5.59-3.779 9.165 0 7.16 5.787 12.969 12.94 13.005h544.926c7.183 0 13.005-5.823 13.005-13.005v0-34.816c-0.029-7.16-5.84-12.954-13.005-12.954 0 0 0 0 0 0v0zM784.487 515.584h-544.973c-7.183 0-13.005 5.823-13.005 13.005v0 34.816c0 7.183 5.823 13.005 13.005 13.005v0h381.032c7.183 0 13.005 5.823 13.005 13.005v0 77.158c0.036 7.155 5.845 12.944 13.005 12.944 3.575 0 6.815-1.443 9.166-3.779v0l137.882-137.984c2.336-2.351 3.779-5.59 3.779-9.166 0-7.108-5.702-12.883-12.781-13.003h-0.012z" />
<glyph unicode="&#xe904;" glyph-name="gonggao" d="M845.125 37.813c-6.455-7.176-15.772-11.668-26.138-11.668-19.332 0-35.016 15.625-35.111 34.936v0.009c0.020 9.875 4.174 18.777 10.824 25.068l0.016 0.015-0.813 0.813c97.723 89.87 158.743 218.338 158.743 361.060s-61.020 271.191-158.393 360.742l-0.35 0.318 0.813 0.783c-6.6 6.303-10.707 15.167-10.72 24.99v0.002c0.078 19.332 15.767 34.975 35.111 34.975 10.366 0 19.682-4.492 26.109-11.636l0.028-0.032c110.104-102.526 178.756-248.312 178.756-410.132 0-161.878-68.701-307.71-178.536-409.93l-0.341-0.314zM693.089 187.048c-6.36-6.232-15.077-10.078-24.694-10.078-19.381 0-35.115 15.624-35.29 34.964v0.017c0.007 9.575 3.895 18.242 10.177 24.511l0.001 0.001-0.512 0.512c58.889 51.605 95.871 126.964 95.871 210.961 0 84.18-37.142 159.684-95.932 211.020l-0.33 0.282 0.512 0.512c-6.513 6.298-10.56 15.112-10.569 24.87v0.002c0.184 19.367 15.927 34.996 35.32 34.996 9.793 0 18.656-3.985 25.053-10.423l0.002-0.002c71.998-64.38 117.103-157.546 117.103-261.248 0-103.516-44.944-196.535-116.383-260.609l-0.328-0.289zM522.112 32.303c-12.467 9.455-101.087 73.625-191.724 140.955h-220.18c-2.777-0.272-6.005-0.426-9.268-0.426-55.746 0-100.936 45.191-100.936 100.936 0 1.686 0.041 3.361 0.123 5.027l-0.009-0.235v336.986c-0.075 1.458-0.118 3.165-0.118 4.883 0 55.746 45.191 100.936 100.936 100.936 3.264 0 6.493-0.155 9.678-0.458l-0.406 0.031h220.18c92.263 68.476 181.637 133.608 190.67 140.203 27.643 20.356 51.583-0.181 51.583-34.961v-758.224c-0.060-38.483-31.828-49.896-50.528-35.683z" />
<glyph unicode="&#xe905;" glyph-name="gongzuohuibao" d="M932.009 428.968l-92.038 66.068 26.029 34.465c4.454 5.487 11.199 8.964 18.754 8.964 5.043 0 9.724-1.549 13.594-4.196l-0.083 0.053 56.036-38.562c5.776-3.824 9.533-10.294 9.533-17.641 0-4.884-1.661-9.38-4.446-12.955l0.035 0.047zM189.953-4.077c-0.587-0.010-1.28-0.015-1.975-0.015-69.873 0-126.651 56.060-127.81 125.657l-0.001 0.109v712.561c1.144 69.702 57.916 125.766 127.782 125.766 0.705 0 1.408-0.006 2.111-0.017l-0.106 0.001h523.726c0.596 0.010 1.299 0.016 2.005 0.016 69.867 0 126.638-56.064 127.781-125.659l0.001-0.107v-265.9l-451.904-572.411h-201.609zM271.055 959.985h-60.253v-120.508c0.003-16.636 13.49-30.122 30.127-30.122s30.124 13.485 30.127 30.121v0 120.508zM481.943 959.985h-60.253v-120.508c0.003-16.636 13.49-30.122 30.127-30.122s30.124 13.485 30.127 30.121v0 120.508zM692.831 959.985h-60.253v-120.508c0-16.638 13.488-30.127 30.127-30.127s30.127 13.488 30.127 30.127v0 120.508zM722.958 628.588c0 16.638-13.488 30.127-30.127 30.127h-482.031c-16.636-0.003-30.122-13.49-30.122-30.127s13.485-30.124 30.121-30.127h482.031c16.638 0 30.127 13.488 30.127 30.127v0zM572.324 447.827c0 16.638-13.488 30.127-30.127 30.127h-331.396c-16.638 0-30.127-13.488-30.127-30.127s13.488-30.127 30.127-30.127h331.396c16.638 0 30.127 13.488 30.127 30.127v0zM421.689 267.066c0 16.638-13.488 30.127-30.127 30.127h-180.761c-16.636-0.003-30.122-13.49-30.122-30.127s13.485-30.124 30.121-30.127h180.761c16.638 0 30.127 13.488 30.127 30.127v0zM894.682 379.559l-319.345-423.042-88-20.517-5.393 84.777 320.762 424.789z" />
<glyph unicode="&#xe906;" glyph-name="gongzitiao" d="M933.772 26.308c0-49.876-40.432-90.307-90.307-90.307v0h-662.255c-49.876 0-90.307 40.432-90.307 90.307v0 782.666c0.187 1.326 0.429 2.477 0.739 3.599l-0.047-0.198c-0.868 3.573-1.366 7.674-1.366 11.892 0 15.869 7.049 30.092 18.186 39.707l0.067 0.057 88.23 79.501c11.771 10.233 27.252 16.469 44.19 16.469s32.42-6.237 44.273-16.539l-0.083 0.070 88.29-79.501c1.144-1.024 1.987-2.228 3.010-3.342 1.024 1.084 1.656 2.318 2.8 3.342l88.441 79.501c11.771 10.233 27.252 16.469 44.19 16.469s32.42-6.237 44.273-16.539l-0.083 0.070 88.29-79.501c1.144-1.024 1.987-2.228 3.010-3.342 1.024 1.084 1.656 2.318 2.8 3.342l88.441 79.501c11.769 10.225 27.244 16.456 44.175 16.456s32.407-6.232 44.258-16.527l-0.083 0.070 88.321-79.501c11.147-9.691 18.153-23.893 18.153-39.732 0-3.375-0.318-6.676-0.926-9.874l0.052 0.328c0.573-1.668 1.018-3.626 1.252-5.647l0.013-0.133v-782.666zM662.85 477.846c16.625 0 30.103 13.477 30.103 30.103s-13.477 30.103-30.103 30.103v0h-87.779l109.482 126.913c4.949 6.004 7.95 13.774 7.95 22.246s-3.001 16.241-7.998 22.306l0.048-0.060c-4.545 5.637-11.451 9.213-19.19 9.213s-14.645-3.576-19.153-9.166l-0.037-0.047-134.317-155.69-134.257 155.69c-4.545 5.637-11.451 9.213-19.19 9.213s-14.645-3.576-19.153-9.166l-0.037-0.047c-4.949-6.004-7.95-13.774-7.95-22.246s3.001-16.241 7.998-22.306l-0.048 0.060 109.422-126.913h-86.815c-16.625 0-30.103-13.477-30.103-30.103s13.477-30.103 30.103-30.103v0h120.41v-60.205h-120.41c-16.625 0-30.103-13.477-30.103-30.103s13.477-30.103 30.103-30.103v0h120.41v-60.205c0-16.625 13.477-30.103 30.103-30.103s30.103 13.477 30.103 30.103v0 60.205h120.41c16.625 0 30.103 13.477 30.103 30.103s-13.477 30.103-30.103 30.103v0h-120.41v60.205h120.41zM738.106 206.923h-451.538c-8.313 0-15.051-6.739-15.051-15.051s6.739-15.051 15.051-15.051h451.538c8.313 0 15.051 6.739 15.051 15.051s-6.739 15.051-15.051 15.051v0zM738.106 86.513h-451.538c-8.313 0-15.051-6.739-15.051-15.051s6.739-15.051 15.051-15.051h451.538c8.313 0 15.051 6.739 15.051 15.051s-6.739 15.051-15.051 15.051v0z" />
<glyph unicode="&#xe907;" glyph-name="huodong" d="M960 448.12h-352c-35.346 0-64 28.654-64 64v0 192h416c35.346 0 64-28.654 64-64v0-128.001c0-35.346-28.654-64-64-64v0zM778.784 704.12c69.216 40.896 103.008 108.032 75.616 153.088-28.608 46.592-111.681 51.712-185.6 11.297s-110.88-110.88-82.4-157.472c1.872-2.56 3.772-4.814 5.812-6.933l-0.020 0.020h-160.608c2.124 2.169 4.107 4.497 5.921 6.957l0.126 0.18c28.48 46.432-8.416 116.672-82.4 156.8s-157.056 35.2-185.6-11.264c-27.552-44.864 6.528-111.937 75.904-152.672h-101.28c-48.672 57.6-63.424 129.184-29.984 184.704 46.976 77.952 169.856 94.24 274.432 36.384 84.512-46.752 130.208-127.36 120.288-197.792h5.76c-9.952 70.4 35.712 151.072 120.097 197.824 104.448 57.824 227.2 41.6 274.049-36.352 33.408-55.552 18.656-127.169-29.984-184.768h-100.128zM480 512.12c0-35.346-28.654-64-64-64h-352c-35.346 0-64 28.654-64 64v0 128.001c0 35.346 28.654 64 64 64h416v-192zM96 384.12h320c35.346 0 64-28.654 64-64v0-320c0-35.346-28.654-64-64-64h-320c-35.346 0-64 28.654-64 64v0 320c0 35.346 28.654 64 64 64v0zM608 384.12h320c35.346 0 64-28.654 64-64v0-320c0-35.346-28.654-64-64-64h-320c-35.346 0-64 28.654-64 64v0 320c0 35.346 28.654 64 64 64v0z" />
<glyph unicode="&#xe908;" glyph-name="jiaban" d="M515.44-63.271c-284.68 0.047-515.44 230.835-515.44 515.521 0 251.754 180.461 461.36 419.084 506.516l3.209 0.505c-42.595-66.032-67.912-146.693-67.912-233.268 0-240.012 194.568-434.58 434.58-434.58 0.16 0 0.32 0 0.48 0h-0.024c0.095 0 0.208 0 0.321 0 86.335 0 166.759 25.303 234.262 68.899l-1.7-1.028c-45.535-241.894-255.096-422.46-506.849-422.566h-0.012z" />
<glyph unicode="&#xe909;" glyph-name="jifen" d="M944.001 704.001h-320c-26.509 0-48 21.49-48 48s21.49 48 48 48h320c26.509 0 48-21.49 48-48s-21.49-48-48-48v0zM399.999 704.001h-112.001v-112.001c0-26.509-21.49-48-48-48s-48 21.49-48 48v112.001h-112.001c-26.509 0-48 21.49-48 48s21.49 48 48 48h112.001v112.001c0 26.509 21.49 48 48 48s48-21.49 48-48v-112.001h112.001c26.509 0 48-21.49 48-48s-21.49-48-48-48v0zM79.167 304.544c9.468 9.466 22.546 15.32 36.992 15.32s27.524-5.854 36.992-15.32l86.401-86.401 86.401 86.401c9.518 9.788 22.812 15.86 37.524 15.86 28.896 0 52.32-23.425 52.32-52.32 0-14.712-6.072-28.007-15.848-37.513l-86.412-86.412 86.401-86.401c8.858-9.352 14.306-22.014 14.306-35.948 0-28.896-23.425-52.32-52.32-52.32-14.038 0-26.784 5.528-36.18 14.525l0.019-0.018-86.401 86.401-86.401-86.401c-9.412-9.152-22.276-14.796-36.46-14.796-28.896 0-52.32 23.425-52.32 52.32 0 14.183 5.644 27.048 14.808 36.473l86.389 86.389-86.401 86.401c-9.342 9.447-15.113 22.441-15.113 36.784 0 14.438 5.848 27.51 15.305 36.977v0zM736.001 304c0 26.509 21.49 48 48 48s48-21.49 48-48c0-26.509-21.49-48-48-48v0c-26.509 0-48 21.49-48 48v0zM624.001 191.999h320c26.509 0 48-21.49 48-48s-21.49-48-48-48h-320c-26.509 0-48 21.49-48 48s21.49 48 48 48v0zM784.001 31.999c26.509 0 48-21.49 48-48s-21.49-48-48-48c-26.509 0-48 21.49-48 48v0c0 26.509 21.49 48 48 48v0z" />
<glyph unicode="&#xe90a;" glyph-name="jiaqiyanqi" d="M996.375 322.495c-6.699-6.716-15.963-10.871-26.197-10.871s-19.498 4.155-26.197 10.871l-0.001 0.001-73.899 74.308v-392.533c0-18.852-15.282-34.134-34.134-34.134s-34.134 15.282-34.134 34.134v0 391.646l-73.25-73.455c-6.675-6.658-15.887-10.775-26.061-10.775-20.382 0-36.904 16.523-36.904 36.904 0 10.208 4.145 19.447 10.843 26.128l0.001 0.001 130.321 130.662c4.941 4.697 11.281 7.966 18.333 9.12l0.202 0.027c4.134 1.735 8.941 2.744 13.982 2.744 10.232 0 19.494-4.154 26.192-10.866l130.902-131.345c6.717-6.731 10.872-16.022 10.872-26.283s-4.154-19.552-10.872-26.283l0.001 0.001zM816.39 576.48c-1.91-0.958-3.262-1.697-4.593-2.466l0.464 0.247c-6.648-3.756-12.377-8.104-17.45-13.115l0.008 0.008-163.669-165.922v224.802c0 18.097-14.671 32.768-32.768 32.768v0h-2.73c-18.097 0-32.768-14.671-32.768-32.768v0-446.464c0-18.097 14.671-32.768 32.768-32.768h2.73c18.097 0 32.768 14.671 32.768 32.768v0 85.606c13.21-9.802 29.835-15.691 47.836-15.691 21.064 0 40.245 8.065 54.623 21.274l-0.058-0.053v-260.438h-34.134v-17.067c-0.005-28.273-22.926-51.193-51.199-51.193s-51.196 22.918-51.199 51.191v0 17.067h-341.333v-17.067c0-28.277-22.923-51.199-51.199-51.199s-51.199 22.923-51.199 51.199v0 17.067h-34.134c-56.554 0-102.4 45.846-102.4 102.4v0 614.4c0 56.554 45.846 102.4 102.4 102.4v0h102.4v34.134c0 56.554 45.846 102.4 102.4 102.4v0h204.8c56.554 0 102.4-45.846 102.4-102.4v0-34.134h102.4c56.554 0 102.4-45.846 102.4-102.4v-137.455c-7.354-1.686-13.833-4.129-19.862-7.311l0.44 0.212zM392.216 173.57c0-18.097 14.671-32.768 32.768-32.768v0h2.73c18.097 0 32.768 14.671 32.768 32.768v446.464c0 18.097-14.671 32.768-32.768 32.768h-2.73c-18.097 0-32.768-14.671-32.768-32.768v0-446.464zM257.048 652.802h-2.73c-18.097 0-32.768-14.671-32.768-32.768v0-446.464c0-18.097 14.671-32.768 32.768-32.768h2.73c18.097 0 32.768 14.671 32.768 32.768v446.464c0 18.097-14.671 32.768-32.768 32.768v0zM494.616 891.736h-136.534c-37.703 0-68.266-30.564-68.266-68.266h273.066c0 37.703-30.564 68.266-68.266 68.266v0z" />
<glyph unicode="&#xe90b;" glyph-name="kaoshi" d="M843.294-64h-662.588c-49.901 0-90.353 40.452-90.353 90.353v0 843.294c0 49.901 40.452 90.353 90.353 90.353v0h662.588c49.901 0 90.353-40.452 90.353-90.353v0-843.294c0-49.901-40.452-90.353-90.353-90.353v0zM240.941 207.059h451.765c16.634 0 30.118 13.484 30.118 30.118s-13.484 30.118-30.118 30.118h-451.765c-16.634 0-30.118-13.484-30.118-30.118s13.484-30.118 30.118-30.118v0zM451.765 688.941h-210.824c-16.634 0-30.118-13.484-30.118-30.118s13.484-30.118 30.118-30.118h210.824c16.634 0 30.118 13.484 30.118 30.118s-13.484 30.118-30.118 30.118v0zM813.176 929.882h-180.706v-240.941l90.353 60.235 90.353-60.235v240.941zM783.059 478.118h-542.118c-16.634 0-30.118-13.484-30.118-30.118s13.484-30.118 30.118-30.118h542.118c16.634 0 30.118 13.484 30.118 30.118s-13.484 30.118-30.118 30.118v0z" />
<glyph unicode="&#xe90c;" glyph-name="loudaka" d="M512-64c-40.508 0-415.641 374.077-415.641 597.32s211.116 426.68 415.641 426.68 415.641-203.437 415.641-426.68-375.133-597.32-415.641-597.32zM512 703.672c-88.358 0-159.985-71.628-159.985-159.985s71.628-159.985 159.985-159.985c88.358 0 159.985 71.628 159.985 159.985v0c0 88.358-71.628 159.985-159.985 159.985v0z" />
<glyph unicode="&#xe90d;" glyph-name="paiban" d="M957.209-31.996h-890.418c-37.020 0.626-66.791 30.783-66.791 67.894 0 0.374 0.003 0.748 0.010 1.121l-0.001-0.056v758.516c-0.005 0.317-0.008 0.691-0.008 1.065 0 37.11 29.771 67.268 66.732 67.893l0.058 0.001h189.213v15.552c0 0.002 0 0.004 0 0.007 0 26.509 21.49 47.999 47.999 47.999s47.999-21.49 47.999-47.999c0-0.002 0-0.005 0-0.007v0-15.552h319.994v15.552c0 0.002 0 0.004 0 0.007 0 26.509 21.49 47.999 47.999 47.999s47.999-21.49 47.999-47.999c0-0.002 0-0.005 0-0.007v0-15.552h189.213c37.020-0.626 66.791-30.783 66.791-67.894 0-0.374-0.003-0.748-0.010-1.121l0.001 0.056v-758.388c0.006-0.355 0.011-0.773 0.011-1.193 0-37.111-29.772-67.27-66.735-67.893l-0.058-0.001zM927.993 735.992c0 17.673-14.327 32-32 32v0h-127.998v-47.999c-0.004-26.506-21.493-47.992-47.999-47.992s-47.996 21.486-47.999 47.991v0 47.999h-319.994v-47.999c0-0.002 0-0.004 0-0.007 0-26.509-21.49-47.999-47.999-47.999s-47.999 21.49-47.999 47.999c0 0.002 0 0.005 0 0.007v0 47.999h-127.998c-17.673 0-32-14.327-32-32v0-95.999c0-17.673 14.327-32 32-32h767.988c17.673 0 32 14.327 32 32v0 95.999zM96.007 415.997c0-17.673 14.327-32 32-32h447.993c17.673 0 32 14.327 32 32s-14.327 32-32 32h-447.993c-17.673 0-32-14.327-32-32v0zM895.994 224h-767.988c-17.673 0-32-14.327-32-32s14.327-32 32-32v0h767.988c17.673 0 32 14.327 32 32s-14.327 32-32 32v0z" />
<glyph unicode="&#xe90e;" glyph-name="qingjia" d="M512-64c-282.77 0-512 229.23-512 512s229.23 512 512 512c282.77 0 512-229.23 512-512v0c0-282.77-229.23-512-512-512v0zM710.944 288.416l-166.944 166.976v296.608c-0.004 26.506-21.493 47.993-48 47.993s-47.996-21.486-48-47.992v0-320c0.184-17.709 10.053-33.071 24.555-41.060l0.244-0.123 170.4-170.272c8.518-7.848 19.938-12.66 32.482-12.66 26.509 0 48 21.49 48 48 0 12.567-4.83 24.007-12.735 32.564l0.030-0.032z" />
<glyph unicode="&#xe90f;" glyph-name="tiaoban" d="M957.209-31.996h-890.418c-37.020 0.626-66.791 30.783-66.791 67.894 0 0.374 0.003 0.748 0.010 1.121l-0.001-0.056v758.516c-0.005 0.317-0.008 0.691-0.008 1.065 0 37.11 29.771 67.268 66.732 67.893l0.058 0.001h189.213v15.552c0 0.002 0 0.004 0 0.007 0 26.509 21.49 47.999 47.999 47.999s47.999-21.49 47.999-47.999c0-0.002 0-0.005 0-0.007v0-15.552h319.994v15.552c0 0.002 0 0.004 0 0.007 0 26.509 21.49 47.999 47.999 47.999s47.999-21.49 47.999-47.999c0-0.002 0-0.005 0-0.007v0-15.552h189.213c37.020-0.626 66.791-30.783 66.791-67.894 0-0.374-0.003-0.748-0.010-1.121l0.001 0.056v-758.388c0.006-0.355 0.011-0.773 0.011-1.193 0-37.111-29.772-67.27-66.735-67.893l-0.058-0.001zM263.812 199.776l96.767-96.958c2.417-4.266 6.925-7.097 12.095-7.097s9.679 2.832 12.060 7.028l0.036 0.069v57.183h351.226c17.673 0 32 14.327 32 32s-14.327 32-32 32v0h-472.185c-4.246-2.438-7.059-6.947-7.059-12.112s2.813-9.674 6.992-12.076l0.068-0.036zM288.003 351.998h473.177c4.264 2.426 7.092 6.938 7.092 12.112s-2.828 9.687-7.024 12.076l-0.068 0.036-96.958 96.958c-2.421 4.28-6.942 7.121-12.128 7.121s-9.707-2.841-12.092-7.052l-0.036-0.069v-57.183h-351.962c-17.673 0-32-14.327-32-32s14.327-32 32-32v0zM927.993 735.992c0 17.673-14.327 32-32 32v0h-127.998v-47.999c-0.004-26.506-21.493-47.992-47.999-47.992s-47.996 21.486-47.999 47.991v0 47.999h-319.994v-47.999c-0.004-26.506-21.493-47.992-47.999-47.992s-47.996 21.486-47.999 47.991v0 47.999h-127.998c-17.673 0-32-14.327-32-32v0-95.999c0-17.673 14.327-32 32-32h767.988c17.673 0 32 14.327 32 32v0 95.999z" />
<glyph unicode="&#xe910;" glyph-name="toupiao" d="M767.999-63.999v384c0 35.346 28.653 64 64 64h128c35.346 0 64-28.653 64-64v0-384h-256zM383.999 896c0 35.346 28.653 64 64 64v0h128c35.346 0 64-28.653 64-64v0-959.999h-256v959.999zM0 608c0 35.346 28.653 64 64 64h128c35.346 0 64-28.653 64-64v0-672h-256v672z" />
<glyph unicode="&#xe911;" glyph-name="wenjuan" d="M843.294-64h-662.588c-49.901 0-90.353 40.452-90.353 90.353v0 843.294c0 49.901 40.452 90.353 90.353 90.353v0h662.588c49.901 0 90.353-40.452 90.353-90.353v0-843.294c0-49.901-40.452-90.353-90.353-90.353v0zM240.941 207.059h451.765c16.634 0 30.118 13.484 30.118 30.118s-13.484 30.118-30.118 30.118h-451.765c-16.634 0-30.118-13.484-30.118-30.118s13.484-30.118 30.118-30.118v0zM451.765 688.941h-210.824c-16.634 0-30.118-13.484-30.118-30.118s13.484-30.118 30.118-30.118h210.824c16.634 0 30.118 13.484 30.118 30.118s-13.484 30.118-30.118 30.118v0zM783.059 478.118h-542.118c-16.634 0-30.118-13.484-30.118-30.118s13.484-30.118 30.118-30.118h542.118c16.634 0 30.118 13.484 30.118 30.118s-13.484 30.118-30.118 30.118v0z" />
<glyph unicode="&#xe912;" glyph-name="wangpan" d="M896.001-63.999h-767.999c-0.189-0.001-0.412-0.001-0.636-0.001-70.338 0-127.36 57.021-127.36 127.36 0 10.053 1.164 19.835 3.367 29.216l-0.171-0.863 92.8 804.287c8.069 31.563 32.437 55.931 63.391 63.868l0.609 0.133h703.999c31.405-8.355 55.644-32.594 63.858-63.376l0.141-0.624 92.8-804.287c2.031-8.519 3.196-18.3 3.196-28.354 0-70.338-57.021-127.36-127.36-127.36-0.224 0-0.447 0.001-0.67 0.002h0.034zM669.537 572h-0.48c-6.932 74.242-68.933 131.899-144.4 131.899-0.985 0-1.967-0.010-2.946-0.030l0.147 0.002c-0.538 0.007-1.172 0.011-1.807 0.011-62.517 0-115.932-38.975-137.274-93.95l-0.343-1.004c-2.784 0.192-5.44 0.8-8.287 0.8-0.752 0.018-1.637 0.028-2.526 0.028-62.957 0-114.165-50.308-115.616-112.917l-0.002-0.135c1.472-62.73 52.671-113.019 115.618-113.019 0.888 0 1.774 0.010 2.657 0.030l-0.132-0.002h295.392c1.27-0.062 2.757-0.096 4.252-0.096 52.048 0 94.239 42.193 94.239 94.239s-42.193 94.239-94.239 94.239c-1.496 0-2.983-0.035-4.462-0.104l0.209 0.007zM896.001 128.001h-767.999c-35.346 0-64-28.653-64-64s28.653-64 64-64h767.999c35.346 0 64 28.653 64 64s-28.653 64-64 64v0zM864 32.001c-17.674 0-32 14.327-32 32s14.327 32 32 32c17.674 0 32-14.327 32-32v0c0-17.674-14.327-32-32-32v0z" />
<glyph unicode="&#xe914;" glyph-name="wupinlingyong" d="M924.271-63.872h-824.539c-68.827 0-99.731 31.342-99.731 101.23l109.714 922.515h804.571l109.714-922.515c0-69.888-30.866-101.23-99.731-101.23zM786.287 667.557c-30.296 0-54.857-24.56-54.857-54.857v0c0.227-17.787 9.040-33.468 22.476-43.117l0.162-0.111c-8.009-100.498-112.823-180.224-242.067-180.224s-234.057 79.725-242.067 180.224c13.598 9.759 22.411 25.441 22.638 43.192v0.035c0 30.296-24.56 54.857-54.857 54.857s-54.857-24.56-54.857-54.857v0c0.151-24.043 15.912-44.364 37.65-51.35l0.384-0.107c12.544-125.037 137.984-223.341 291.108-223.341s278.601 98.267 291.146 223.341c22.107 7.105 37.852 27.422 37.997 51.438v0.017c0 30.296-24.56 54.857-54.857 54.857v0z" />
<glyph unicode="&#xe915;" glyph-name="waiqin" d="M512-64.001c-249.406 0-451.605 94.356-451.605 210.749 0 69.246 71.685 130.333 181.906 168.75l41.909-41.909c-98.631-24.026-163.602-66.296-163.602-126.841 0-100.106 176.909-150.535 391.391-150.535s391.391 50.429 391.391 150.535c0 60.545-64.971 102.815-163.602 126.841l41.909 41.909c110.222-38.416 181.906-99.504 181.906-168.75 0-116.393-202.199-210.749-451.605-210.749zM512 116.913c-35.195 0-361.284 307.995-361.284 491.768s183.412 351.319 361.284 351.319 361.284-167.485 361.284-351.288-326.239-491.798-361.284-491.798zM512 748.889c-66.511 0-120.428-53.918-120.428-120.428s53.918-120.428 120.428-120.428c66.511 0 120.428 53.918 120.428 120.428v0c0 66.511-53.918 120.428-120.428 120.428v0z" />
<glyph unicode="&#xe916;" glyph-name="xunluo" d="M1024 384.039v-159.403c0-35.181-3.679-78.487-31.983-96.461v-63.966c0-35.437-43.689-63.966-80.501-63.966h-44.424c-0.365-0.007-0.796-0.012-1.228-0.012-35.694 0-64.713 28.579-65.424 64.103l-0.001 0.067v52.357c-77.080-3.933-181.024-20.566-288.168-20.566-110.757 0-215.215 16.504-289.543 20.373v-52.165c-0.711-35.591-29.731-64.17-65.425-64.17-0.431 0-0.862 0.004-1.292 0.013l0.065-0.001h-44.424c-36.845 0-79.126 28.529-79.126 63.966v63.966c0 2.143-0.192 1.311-0.32 0.288-26.737 18.326-30.543 62.047-30.543 96.173 0 0-2.814 142.197-1.119 159.403-0.070 1.16-0.11 2.516-0.11 3.88 0 28.773 17.746 53.402 42.891 63.536l0.46 0.164c-25.13 8.86-42.884 32.247-43.241 59.83v0.042c0.711 35.591 29.731 64.17 65.425 64.17 0.431 0 0.862-0.004 1.292-0.013l-0.065 0.001h43.624l51.173 136.599c16.439 49.797 79.958 87.218 143.413 87.218h142.901v32.335h-127.933c-17.664 0-31.983 14.319-31.983 31.983s14.319 31.983 31.983 31.983h383.797c17.664 0 31.983-14.319 31.983-31.983s-14.319-31.983-31.983-31.983h-127.933v-32.335h142.836c63.327 0 126.973-37.421 143.413-87.218l51.173-136.599h31.055c36.941 0 79.286-28.241 79.286-63.678-5.635-25.878-23.403-46.664-46.909-56.387l-0.522-0.191c27.742-12.465 46.837-39.609 47.429-71.278l0.001-0.076zM128.858 320.073c0.164-35.045 28.611-63.39 63.678-63.39 35.168 0 63.678 28.51 63.678 63.678s-28.51 63.678-63.678 63.678c-0.034 0-0.067 0-0.101 0h0.005c-35.162-0.218-63.583-28.772-63.583-63.965 0 0 0-0.001 0-0.001v0zM781.664 660.085c-14.142 26.319-41.481 43.911-72.929 43.911-1.607 0-3.202-0.046-4.785-0.136l0.22 0.010h-383.797c-3.096 0.465-6.668 0.732-10.302 0.732-30.015 0-55.794-18.134-66.98-44.043l-0.182-0.473-50.47-116.13c-4.445-34.318 37.292-31.983 63.966-31.983h511.729c22.676 0 63.966 1.663 63.966 31.983zM832.101 384.039c-35.42-0.018-64.126-28.736-64.126-64.158 0-35.434 28.724-64.158 64.158-64.158s64.158 28.724 64.158 64.158c0 0.068 0 0.135 0 0.202v-0.011c-0.109 35.351-28.791 63.966-64.158 63.966-0.012 0-0.022 0-0.034 0h0.002zM992.017 128.175c8.060-0.256 0.768-3.87 0 0zM32.205 128.463l0.32-0.288c-0.512-2.335-0.48-0.895-0.32 0.288z" />
</font>
</defs>
</svg>
