<?xml version="1.0" standalone="no"?>
<!DOCTYPE svg PUBLIC "-//W3C//DTD SVG 1.1//EN" "http://www.w3.org/Graphics/SVG/1.1/DTD/svg11.dtd" >
<!--
2013-9-30: Created.
-->
<svg>
<metadata>
Created by iconfont
</metadata>
<defs>

<font id="wqmenu" horiz-adv-x="1024" >
  <font-face
    font-family="wqmenu"
    font-weight="500"
    font-stretch="normal"
    units-per-em="1024"
    ascent="896"
    descent="-128"
  />
    <missing-glyph />
    
    <glyph glyph-name="kq-bcsz" unicode="&#58972;" d="M512-128C229.23-128 0 101.23 0 384S229.23 896 512 896s512-229.23 512-512-229.23-512-512-512z m0 910.222c-219.932 0-398.222-178.29-398.222-398.222S292.068-14.222 512-14.222 910.222 164.068 910.222 384 731.932 782.222 512 782.222z m-56.889-512V611.555h113.778v-227.556h170.667v-113.778H455.112z"  horiz-adv-x="1024" />

    
    <glyph glyph-name="jx-jxkh" unicode="&#58973;" d="M910.221 384v56.889c0-188.513-152.82-341.333-341.333-341.333v-56.889h170.667v-113.778H284.444V42.667h170.667v56.889c-188.513 0-341.333 152.82-341.333 341.333V384H0V725.333h113.778v56.889c0 31.419 25.47 56.889 56.889 56.889h682.666c31.419 0 56.889-25.47 56.889-56.889v-56.889H1024V384H910.222zM796.443 725.333H227.555v-284.444c0-125.675 101.88-227.556 227.556-227.556h113.778c125.675 0 227.556 101.88 227.556 227.556V725.333z"  horiz-adv-x="1024" />

    
    <glyph glyph-name="exit" unicode="&#58974;" d="M1008.702 348.91l-0.512-0.461a1.85 1.85 0 0 0-1.01-0.916l-0.013-0.004-152.431-152.431c-9.304-10.176-22.637-16.535-37.456-16.535-27.995 0-50.691 22.695-50.691 50.691 0 14.819 6.359 28.152 16.496 37.421l0.039 0.035 65.985 66.139H460.36c-28.25 0-51.151 22.901-51.151 51.151s22.901 51.151 51.151 51.151h390.284l-67.52 67.621a50.472 50.472 0 0 0-13.235 34.155c0 27.995 22.695 50.691 50.691 50.691 13.177 0 25.18-5.028 34.194-13.27l-0.039 0.035 153.965-153.76c9.436-9.055 15.299-21.771 15.299-35.857s-5.863-26.801-15.282-35.841l-0.017-0.016z m-343.736 444.3H153.454c-28.25 0-51.151-22.901-51.151-51.151v-716.117c0-28.25 22.901-51.151 51.151-51.151h511.512c28.25 0 51.151 22.901 51.151 51.151h102.302v-51.151c0-56.5-45.802-102.302-102.302-102.302H102.303c-56.5 0-102.302 45.802-102.302 102.302V793.21C0.001 849.71 45.803 895.512 102.303 895.512h613.814c56.5 0 102.302-45.802 102.302-102.302v-51.151H716.117c0 28.25-22.901 51.151-51.151 51.151z"  horiz-adv-x="1024" />

    
    <glyph glyph-name="kq-gjdz" unicode="&#58976;" d="M1005.835 219.066l-329.414-329.868c-10.53-10.556-25.091-17.087-41.176-17.087s-30.647 6.53-41.175 17.086L18.049 466.468C7.514 477.029 1 491.605 1 507.701s6.514 30.673 17.051 41.234l-0.001-0.001L347.464 878.802C357.994 889.358 372.555 895.889 388.64 895.889s30.647-6.53 41.175-17.086l0.001-0.001 576.247-577.27c10.468-10.549 16.936-25.079 16.936-41.119 0-16.153-6.56-30.775-17.162-41.346l-0.001-0.001z m-164.707 82.468l-82.354-82.467-41.12 41.233 82.297 82.467L758.775 384l-82.297-82.467-41.176 41.233 82.354 82.467-41.176 41.233-123.473-123.701-82.354 82.467 123.473 123.701-41.12 41.233-82.354-82.467-41.12 41.233 82.637 82.467-41.176 41.233-82.297-82.467-41.176 41.233 82.354 82.467-41.176 41.233-247.004-247.401 494.12-494.802 246.947 247.401z"  horiz-adv-x="1024" />

    
    <glyph glyph-name="customerService" unicode="&#58977;" d="M926.112 68.12c-8.707 0.101-17.077 1.374-25.012 3.67l0.661-0.164c-43.121-64.157-100.769-115.408-168.422-149.812l-2.52-1.163c-4.133-27.127-27.296-47.672-55.257-47.672-1.807 0-3.595 0.086-5.357 0.254l0.225-0.017H548.676c-3.293-0.774-7.073-1.217-10.957-1.217-27.57 0-49.919 22.349-49.919 49.919s22.349 49.919 49.919 49.919c3.884 0 7.665-0.443 11.294-1.283l-0.337 0.066H670.43c12.579-0.16 24.314-3.63 34.417-9.577l-0.327 0.178c63.41 30.994 115.53 76.493 153.512 132.376l0.871 1.358c-18.619 17.773-30.195 42.785-30.195 70.501v0.071-0.004 340.91l-0.001 0.344c0 26.036 10.408 49.64 27.29 66.881l-0.016-0.017C807.666 705.936 682.913 798.672 536.5 798.672s-271.166-92.736-318.727-222.675l-0.754-2.356c16.866-17.224 27.273-40.829 27.273-66.865l-0.001-0.362v0.019-340.91c0-53.794-43.609-97.403-97.403-97.403C66.197 68.12 0.783 133.533 0.783 214.225V457.733v0.028c0 72.004 52.242 131.805 120.89 143.568l0.863 0.123C183.699 774.357 345.771 896 536.255 896s352.556-121.644 412.773-291.487l0.947-3.062c69.637-11.845 122.025-71.631 122.24-143.695v-243.531c0-80.691-65.413-146.105-146.105-146.105z"  horiz-adv-x="1073" />

    
    <glyph glyph-name="kq-kqqx" unicode="&#58978;" d="M512-128L56.889 156.444V782.222L515.243 896l451.868-113.778v-625.778z m341.333 812.26l-339.058 97.963-343.609-97.963v-451.982l341.333-189.611 341.333 189.611V684.26zM455.111 270.222V384H341.333V497.778h113.778V611.556h113.778v-113.778h113.778V384H568.889v-113.778H455.111z"  horiz-adv-x="1024" />

    
    <glyph glyph-name="kq-sbgl" unicode="&#58979;" d="M967.11-71.11H739.554c-31.419 0-56.889 25.47-56.889 56.889V384.001c0 31.419 25.47 56.889 56.889 56.889H967.11c31.419 0 56.889-25.47 56.889-56.889v-398.222c0-31.419-25.47-56.889-56.889-56.889z m-56.889 113.778H796.443v-56.889h113.778v56.889zM625.777 156.445H511.999v-113.778h113.778v-113.778H170.666V42.667h227.556V156.445H56.889C25.47 156.445 0 181.915 0 213.334v568.89c0 31.419 25.47 56.889 56.889 56.889h796.445c31.419 0 56.889-25.47 56.889-56.889V497.78H625.779v-341.333z m170.666 455.112V725.335H113.775v-455.111h398.222V611.557h284.444z"  horiz-adv-x="1024" />

    
    <glyph glyph-name="pz-gsxx" unicode="&#58980;" d="M1024-128H0V-14.222h56.889V440.889c0 31.419 25.47 56.889 56.889 56.889h341.333V839.111C455.111 870.53 480.581 896 512 896h398.222c31.419 0 56.889-25.47 56.889-56.889v-853.333H1024V-128zM455.111 384H170.667v-398.222h284.444V384z m398.222 398.222H568.889v-796.444h284.444V782.222z m-56.889-227.555H625.777V668.445h170.667v-113.778z m0-227.556H625.777V440.889h170.667v-113.778z m0-227.555H625.777V213.334h170.667v-113.778zM398.222 213.333H227.555V327.111h170.667v-113.778z m0-170.666H227.555V156.445h170.667v-113.778z"  horiz-adv-x="1024" />

    
    <glyph glyph-name="kq-kqsz" unicode="&#58981;" d="M961.6495 512.631l-52.633-30.4v-196.466l52.633-30.4c17.071-9.99 28.357-28.235 28.357-49.117 0-10.441-2.821-20.224-7.743-28.625l0.145 0.268-56.717-98.233c-9.99-17.071-28.235-28.357-49.117-28.357-10.441 0-20.224 2.821-28.625 7.743l0.268-0.145-52.633 30.173-170.15-98.233v-60.573c0-31.324-25.393-56.717-56.717-56.717H455.2845c-31.324 0-56.717 25.393-56.717 56.717v60.8l-170.15 98.233-3.516-2.042-49.117-28.358c-8.134-4.776-17.917-7.598-28.358-7.598-20.882 0-39.128 11.285-48.972 28.089l-0.145 0.267L41.5925 177.89c-4.776 8.134-7.598 17.917-7.598 28.358 0 20.882 11.285 39.128 28.089 48.972l0.267 0.145 52.633 30.4V482.231l-52.633 30.4c-17.071 9.99-28.357 28.235-28.357 49.117 0 10.441 2.821 20.224 7.743 28.625l-0.145-0.268 56.717 98.233c9.99 17.071 28.235 28.357 49.117 28.357 10.441 0 20.224-2.821 28.625-7.743l-0.268 0.145 52.633-30.173 170.15 98.233V837.73c0 31.324 25.393 56.717 56.717 56.717h113.433c31.324 0 56.717-25.393 56.717-56.717v-60.8l170.15-98.233 3.516 2.042 49.117 28.358c8.134 4.776 17.917 7.598 28.358 7.598 20.882 0 39.128-11.285 48.972-28.089l0.145-0.267 56.717-98.233c4.776-8.134 7.598-17.917 7.598-28.358 0-20.882-11.285-39.128-28.089-48.972l-0.267-0.145z m-166.066-30.4l88.591 51.045-56.717 98.233-88.591-51.045-170.15 98.233V781.014H455.2835v-102.09l-170.15-98.233-88.591 51.045-56.717-98.233 88.591-51.045v-196.466l-88.591-51.045 56.717-98.233 88.591 51.045 170.15-98.233v-102.543h113.433v102.09l170.15 98.233 88.591-51.045 56.717 98.233-88.591 51.045V482.005zM512.0015 270.565c-62.647 0-113.433 50.786-113.433 113.433S449.3545 497.431 512.0015 497.431c62.647 0 113.433-50.786 113.433-113.433 0-62.647-50.786-113.433-113.433-113.433z"  horiz-adv-x="1024" />

    
    <glyph glyph-name="kq-kqbb" unicode="&#58982;" d="M1023.999 213.334v-113.778H568.888v-56.889h170.667v-113.778H284.444V42.667h170.667v56.889H0V213.334h56.889v512H0V839.112h1024v-113.778h-56.889v-512H1024z m-170.667 512H170.665v-512h682.667v512z m-512-455.111H227.554V497.779h113.778v-227.556z m227.556 0H455.11V611.556h113.778v-341.333z m227.555 0H682.665V440.89h113.778v-170.667z"  horiz-adv-x="1024" />

    
    <glyph glyph-name="rs-hpb" unicode="&#58983;" d="M1023.999 213.334v-113.778H568.888v-56.889h170.667v-113.778H284.444V42.667h170.667v56.889H0V213.334h56.889v512H0V839.112h1024v-113.778h-56.889v-512H1024z m-170.667 512H170.665v-512h682.667v512z m-512-455.111H227.554V497.779h113.778v-227.556z m227.556 0H455.11V611.556h113.778v-341.333z m227.555 0H682.665V440.89h113.778v-170.667z"  horiz-adv-x="1024" />

    
    <glyph glyph-name="rs-htgl" unicode="&#58984;" d="M910.127-127.878H113.873c-31.412 0-56.875 25.464-56.875 56.875V839.002C56.998 870.414 82.462 895.877 113.873 895.877h796.254c31.412 0 56.875-25.464 56.875-56.875v-910.005c0-31.412-25.464-56.875-56.875-56.875z m-56.875 910.005H170.748v-796.254h682.504V782.127z m-113.75-341.252H284.499V554.626h455.003v-113.751z m0-227.501H284.499V327.125h455.003v-113.751z"  horiz-adv-x="1024" />

    
    <glyph glyph-name="rs-rsfx" unicode="&#58985;" d="M540.825-128c-237.073 0.19-434.261 170.719-475.796 395.797l-0.457 2.979h-0.855c0 31.462 25.505 56.968 56.968 56.968h448.623V776.367c0 31.462 25.505 56.968 56.968 56.968v-0.855c227.186-42.861 396.728-239.76 396.728-476.257 0-266.712-215.631-483.061-482.069-484.223h-0.111z m142.421 824.953v-426.178c0-31.462-25.505-56.968-56.968-56.968H200.1C257.192 78.845 388.497-14.13 541.517-14.13c204.161 0 369.665 165.505 369.665 369.665 0 153.02-92.974 284.325-225.514 340.504l-2.423 0.912zM455.374 384.712H58.364c-31.462 0-56.968 25.505-56.968 56.968H0.997C15.859 686.404 210.645 881.17 454.023 895.934L455.375 896v-0.342c31.462 0 56.968-25.505 56.968-56.968v-397.01c0-31.462-25.505-56.968-56.968-56.968z m-56.968 386.3c-135.277-32.849-239.835-137.199-272.466-269.84l-0.525-2.524h272.991V771.012z"  horiz-adv-x="1024" />

    
    <glyph glyph-name="rs-yggh" unicode="&#58986;" d="M512-71.111L0 327.111V668.444L284.444 839.111 512 668.444 739.556 839.111 1024 668.444v-341.333z m398.222 673.792l-170.667 87.097-227.556-159.972-227.556 161.735-170.667-88.86V384l398.222-305.778L910.22 384V602.681z"  horiz-adv-x="1024" />

    
    <glyph glyph-name="pz-zzjg" unicode="&#58987;" d="M853.391 214.702c94.225 0 170.609-76.384 170.609-170.609s-76.384-170.609-170.609-170.609c-94.225 0-170.609 76.384-170.609 170.609 0 5.402 1.081 10.52 1.592 15.81l-342.809 97.93v3.128c-36.188-37.093-86.668-60.1-142.522-60.1C89.114 100.861 0 189.976 0 299.904s89.115 199.043 199.043 199.043c42.862 0 82.561-13.548 115.047-36.597l-0.617 0.416 271.04 193.356c-9.273 20.285-14.679 44-14.679 68.978 0 93.565 75.849 169.414 169.414 169.414S908.662 818.665 908.662 725.1c0-93.565-75.849-169.414-169.414-169.414-35.517 0-68.482 10.929-95.713 29.609l0.577-0.374-269.561-192.503c14.785-26.701 23.6-58.497 23.885-92.327l0.001-0.086c-0.105-15.395-1.922-30.311-5.272-44.638l0.268 1.361 336.042-95.995c31.018 33.201 75.044 53.911 123.908 53.97h0.011z m0-227.477c31.408 0 56.87 25.461 56.87 56.87s-25.461 56.87-56.87 56.87c-31.408 0-56.87-25.461-56.87-56.87 0-31.408 25.461-56.87 56.87-56.87zM199.392 385.311c-47.112 0-85.304-38.192-85.304-85.304s38.192-85.304 85.304-85.304 85.304 38.192 85.304 85.304-38.192 85.304-85.304 85.304z m540.261 284.347c31.408 0 56.87 25.461 56.87 56.87s-25.461 56.87-56.87 56.87c-31.408 0-56.87-25.461-56.87-56.87 0-31.408 25.461-56.87 56.87-56.87z"  horiz-adv-x="1024" />

    
    <glyph glyph-name="rs-zcgl" unicode="&#58988;" d="M966.2195-127.571H57.7755c-31.358 0-56.778 25.42-56.778 56.778V610.54c0 31.358 25.42 56.778 56.778 56.778h227.111L703.6795 888.41C711.9485 892.92 721.7915 895.572 732.2535 895.572c20.717 0 39.006-10.4 49.93-26.262l0.133-0.204 127.523-201.789h56.381c31.358 0 56.778-25.42 56.778-56.778v-681.333c0-31.358-25.42-56.778-56.778-56.778zM114.5535 553.762v-567.778h794.888V156.317H739.1085c-62.715 0-113.555 50.84-113.555 113.555s50.84 113.555 113.555 113.555h170.333V553.76H114.5535z m738.111-283.888c0 31.358-25.42 56.778-56.778 56.778s-56.778-25.42-56.778-56.778c0-31.358 25.42-56.778 56.778-56.778 31.358 0 56.778 25.42 56.778 56.778zM711.4585 770.823L515.3485 667.317h261.178z"  horiz-adv-x="1024" />

    
    <glyph glyph-name="shrinkLeft" unicode="&#58989;" d="M528.826819 383.911501l435.226325-433.274346c8.36991-8.303911 13.549854-19.811787 13.549854-32.52765s-5.179944-24.22374-13.547854-32.525651l-0.003-0.003c-8.502909-8.38891-20.188783-13.569854-33.085645-13.569854s-24.582736 5.179944-33.090644 13.575854l0.005-0.005-466.452989 463.665019c-8.238911 9.130902-13.278857 21.286771-13.278858 34.619628s5.040946 25.488726 13.319857 34.665628l-0.040999-0.045999L897.41586 882.430146C905.918768 890.819056 917.604643 896 930.501504 896s24.582736-5.179944 33.090645-13.575854l-0.005 0.005c8.39291-8.292911 13.589854-19.803787 13.589854-32.527651s-5.196944-24.23474-13.583854-32.52465l-0.004-0.004z m-371.751006 0l435.226324-433.274346c8.36991-8.303911 13.549854-19.811787 13.549855-32.52765s-5.179944-24.22374-13.547855-32.525651l-0.003-0.003c-8.502909-8.38891-20.188783-13.569854-33.085644-13.569854s-24.582736 5.179944-33.090645 13.575854l0.005-0.005-466.452989 463.665019c-8.238911 9.130902-13.278857 21.286771-13.278857 34.619628s5.040946 25.488726 13.319856 34.665628l-0.040999-0.045999L525.664853 882.430146C534.167762 890.819056 545.853636 896 558.750498 896s24.582736-5.179944 33.090644-13.575854l-0.005 0.005c8.39291-8.292911 13.589854-19.803787 13.589854-32.527651s-5.196944-24.23474-13.583854-32.52465l-0.004-0.004z"  horiz-adv-x="1024" />

    
    <glyph glyph-name="rs-yggl" unicode="&#58990;" d="M967.111-42.667H853.333V71.111h56.889V184.889c0 31.419-25.47 56.889-56.889 56.889V355.556h56.889c62.838 0 113.778-50.94 113.778-113.778v-227.556c0-31.419-25.47-56.889-56.889-56.889z m-256 455.111c-10.294 0.312-20.098 1.335-29.673 3.024l1.228-0.18V531.91c8.411-3.384 18.153-5.451 28.347-5.687l0.097-0.002c47.128 0 85.333 38.205 85.333 85.333s-38.205 85.333-85.333 85.333c-10.292-0.238-20.033-2.305-29.007-5.887l0.562 0.198V807.82c8.346 1.51 18.151 2.532 28.136 2.837l0.309 0.007c109.966 0 199.111-89.145 199.111-199.111S821.076 412.442 711.11 412.442z m-312.889 0c-125.675 0-227.556 101.88-227.556 227.556S272.546 867.556 398.222 867.556c125.675 0 227.556-101.88 227.556-227.556 0-125.675-101.88-227.556-227.556-227.556z m0 341.334c-62.838 0-113.778-50.94-113.778-113.778s50.94-113.778 113.778-113.778C461.06 526.222 512 577.162 512 640c0 62.838-50.94 113.778-113.778 113.778z m170.667-398.222c125.675 0 227.556-101.88 227.556-227.556v-170.667c0-31.419-25.47-56.889-56.889-56.889H56.889C25.47-99.556 0-74.086 0-42.667V128c0 125.675 101.88 227.556 227.556 227.556h341.333zM113.778 71.111v-56.889h568.889v56.889c0 94.257-76.41 170.667-170.667 170.667H284.444c-94.257 0-170.667-76.41-170.667-170.667z"  horiz-adv-x="1024" />

    
    <glyph glyph-name="xc-gzt" unicode="&#58991;" d="M910.127-127.878L512 42.748 113.873-127.878c-31.412 0-56.875 25.464-56.875 56.875V839.002C56.998 870.414 82.462 895.877 113.873 895.877h796.254c31.412 0 56.875-25.464 56.875-56.875v-910.005c0-31.412-25.464-56.875-56.875-56.875zM170.748 782.127v-785.562L512 156.499l341.252-159.934V782.127H170.748z m113.751-341.252h455.003v-113.751H284.499V440.875z m0 227.501h455.003v-113.751H284.499V668.376z"  horiz-adv-x="1024" />

    
    <glyph glyph-name="shrinkRight" unicode="&#58992;" d="M495.423 383.86L60.153-49.366c-8.37-8.304-13.551-19.814-13.551-32.531s5.181-24.226 13.549-32.529l0.003-0.003c8.504-8.39 20.191-13.572 33.089-13.572s24.585 5.181 33.094 13.577l-0.005-0.005 466.035 463.62c8.24 9.132 13.281 21.289 13.281 34.623s-5.041 25.491-13.321 34.669l0.041-0.046L126.333 882.428C117.829 890.818 106.142 896 93.244 896S68.659 890.819 60.15 882.423l0.005 0.005c-8.393-8.294-13.591-19.806-13.591-32.531S51.761 825.66 60.15 817.369l0.004-0.004z m371.787 0L431.94-49.366c-8.37-8.304-13.551-19.814-13.551-32.531s5.181-24.226 13.549-32.529l0.003-0.003c8.504-8.39 20.191-13.572 33.089-13.572s24.585 5.181 33.094 13.577l-0.005-0.005 466.035 463.898c8.24 9.132 13.281 21.289 13.281 34.623s-5.041 25.491-13.321 34.669l0.041-0.046L498.12 882.427C489.616 890.817 477.929 895.999 465.031 895.999s-24.585-5.181-33.094-13.577l0.005 0.005c-8.393-8.294-13.591-19.806-13.591-32.531s5.197-24.237 13.586-32.528l0.004-0.004z"  horiz-adv-x="1024" />

    
    <glyph glyph-name="sp-spgl" unicode="&#58993;" d="M910.118-128H113.881C51.059-128 0.133-77.073 0.133-14.252V156.371c0 62.822 50.927 113.748 113.748 113.748h147.873l125.124 208.387c-62.043 41.293-102.373 110.935-102.373 189.997C284.505 794.145 386.359 896 512.002 896s227.497-101.854 227.497-227.497c0-79.061-40.331-148.703-101.54-189.475l-0.834-0.522 125.124-208.387h147.873c62.822 0 113.748-50.927 113.748-113.748v-170.623c0-62.822-50.927-113.748-113.748-113.748zM511.999 781.986c-62.822 0-113.748-50.927-113.748-113.748S449.178 554.49 511.999 554.49c62.822 0 113.748 50.927 113.748 113.748 0 62.822-50.927 113.748-113.748 113.748z m32.419-338.003c-9.746-2.061-20.945-3.241-32.419-3.241s-22.672 1.18-33.48 3.426l1.062-0.185-104.08-173.864h272.996z m365.7-344.486c0 31.411-25.463 56.874-56.874 56.874h-682.49c-31.411 0-56.874-25.463-56.874-56.874v-56.874c0-31.411 25.463-56.874 56.874-56.874h682.49c31.411 0 56.874 25.463 56.874 56.874v56.874z"  horiz-adv-x="1024" />

    
    <glyph glyph-name="xc-xzzs" unicode="&#58994;" d="M1023.999 213.33399999999995v-113.778H568.888v-56.889h170.667v-113.778H284.444V42.66700000000003h170.667v56.889H0V213.33399999999995h56.889v512H0V839.112h1024v-113.778h-56.889v-512H1024z m-170.667 512H170.665v-512h682.667v512zM353.45 530.774l80.441 80.498 139.548-139.605 160.939 160.882 80.441-80.441-241.38-241.323-139.548 139.548-144.27-144.213-80.441 80.441 144.27 144.213z"  horiz-adv-x="1024" />

    
    <glyph glyph-name="xc-xzbb" unicode="&#58995;" d="M1023.999 213.334v-113.778H568.888v-56.889h170.667v-113.778H284.444V42.667h170.667v56.889H0V213.334h56.889v512H0V839.112h1024v-113.778h-56.889v-512H1024z m-170.667 512H170.665v-512h682.667v512z m-512-455.111H227.554V497.779h113.778v-227.556z m227.556 0H455.11V611.556h113.778v-341.333z m227.555 0H682.665V440.89h113.778v-170.667z"  horiz-adv-x="1024" />

    
    <glyph glyph-name="xc-xgmm" unicode="&#58996;" d="M933.642471-127.989H90.356529c-33.266643 0-60.234353 26.96771-60.234353 60.234353V474.358529c0 33.266643 26.96771 60.234353 60.234353 60.234353h120.469706v60.234353C210.826235 761.160448 345.665787 896 511.999 896s301.172765-134.839552 301.172765-301.172765v-60.234353h120.469706c33.266643 0 60.234353-26.96771 60.234353-60.234353v-542.113176c0-33.266643-26.96771-60.234353-60.234353-60.234353zM692.704059 594.828235c0 99.799928-80.904131 180.704059-180.704059 180.704059s-180.704059-80.904131-180.704059-180.704059v-60.234353h361.408118v60.234353z m180.704059-180.704059H150.590882v-421.64247h722.817236V414.124176zM632.469706 233.420118h-60.234353v-180.704059H451.765647V233.420118H391.531294V353.889823h240.938412v-120.469705z"  horiz-adv-x="1024" />

    
    <glyph glyph-name="xc-xcqx" unicode="&#58997;" d="M511.9995-127.878L56.9975 156.498V782.127L515.2425 895.878l451.76-113.751v-625.629z m341.252 812.066l-338.977 97.94-343.527-97.94v-451.874L511.9995 42.748l341.252 189.566V684.188zM455.1245 270.249V384H341.3735V497.751h113.751V611.502h113.751v-113.751h113.751V384H568.8755v-113.751H455.1245z"  horiz-adv-x="1024" />

    
    <glyph glyph-name="wqlogo" unicode="&#58998;" d="M3721.6 453.664h78.72l8 10.176 47.616-38.4-12-15.264v-24.448c-2.884-72.652-35.77-137.094-86.529-181.673l-0.287-0.247c42.856-20.505 92.69-34.503 145.202-39.207l1.678-0.121-4.32-53.76c-71.001 4.66-136.322 25.107-193.734 57.834l2.214-1.162c-61.139-35.769-134.434-57.276-212.673-58.269l-0.287-0.003-2.144 53.888c60.756 1.163 117.901 15.451 169.093 40.131l-2.437-1.059c-3.488 3.008-7.168 5.824-10.464 8.96-48.02 43.496-78.726 105.344-80.982 174.388l-0.01 0.396V409.12H3539.2v44.544h128.896v79.424h-139.84v49.76h139.84v87.52l53.312-5.024v-82.496h170.144v-49.76H3721.6v-79.424z m-99.968-44.544v-23.296c1.29-64.333 35.119-120.493 85.656-152.835l0.744-0.445c47.828 35.322 79.386 90.305 82.667 152.78l0.021 0.5V409.12h-168.992z m-193.92-256.736l0.001-0.225c0-22.019-17.778-39.886-39.763-40.031h-62.478l-9.344 53.92h52.704a5.6 5.6 0 0 1 5.568 5.6v0.068-0.003 126.72l-60.8-17.952-15.552-14.176-23.232 66.304 99.488 22.4v178.08H3286.4v49.76h87.744v87.52l53.312-5.024v-82.496h71.296v-49.76h-71.296v-166.08l83.52 18.784 9.824-44-93.344-27.584v-161.824z m-256-37.184H3116.8V253.888l-185.6-31.808-24.768-10.144-9.184 67.648 219.456 29.088V655.104h54.72v-339.2l76.448 10.144 5.728-48.704-82.176-14.08V115.2z m-96.32 274.08l-43.616-39.744c-24.244 25.951-51.168 48.87-80.487 68.492l-1.657 1.044 37.44 38.4c33.799-19.042 62.81-41.702 87.994-68.05l0.134-0.142z m-111.264 180.896l36.384 36.544c32.262-18.622 59.946-40.712 83.909-66.326l0.187-0.202-42.304-37.696c-23.171 25.247-48.869 47.541-76.881 66.699l-1.519 0.981zM2813.504 431.84c29.408-18.208 80.704-50.432 106.944-69.312-19.04-27.936-35.2-51.552-35.2-51.552s-30.528 27.136-71.872 59.808V115.2h-54.72V356.32c-29.244-53.298-60.787-99.252-96.317-141.758l1.117 1.374-41.6 40.416c55.561 57.243 101.018 124.667 133.252 199.147l1.66 4.309h-109.472v49.76h111.264V592l-102.752-9.248-5.504 46.016c1.66-0.013 3.624-0.021 5.589-0.021 79.632 0 156.32 12.602 228.18 35.919l-5.225-1.466 29.6-57.6-95.168-8.544v-87.264h107.04v-49.76h-107.04v-27.968z m-567.392-311.232c-75.902 0.229-142.521 39.757-180.604 99.298l-0.516 0.862c-10.185-47.034-25.884-88.656-46.743-127.07l1.239 2.494-40.032 29.888c30.442 56.367 48.631 123.258 49.374 194.33l0.002 0.23v73.248l54.4-11.904-7.776-11.648v-33.664c0.398-34.414 10.777-66.326 28.371-93.069l-0.403 0.653V445.472h-97.312v43.936h97.152V570.56h-85.984V614.4h85.984v57.312h44.8V614.4h59.68v-43.904h-59.68v-81.152h71.392v-43.936h-71.392V352h71.392v-43.904h-71.392v-110.56c27.157-19.618 61.116-31.382 97.822-31.392h347.17l-7.296-45.568h-339.872z m313.6 91.488c-26.256 17.965-48.973 38.325-68.77 61.275l-0.382 0.453c-20.405-26.488-43.478-49.439-69.217-69.073l-0.895-0.655-27.008 36.416c26.684 20.336 49.469 43.995 68.255 70.672l0.673 1.008c-34.078 55.023-54.275 121.754-54.275 193.202 0 6.432 0.164 12.826 0.487 19.177l-0.036-0.891H2396.8V564h131.68l7.52 9.6 44.032-39.936-10.368-10.336c0.032-1.92 0.05-4.186 0.05-6.456 0-74.732-19.697-144.864-54.182-205.486l1.076 2.055c19.373-24.551 41.81-45.534 67.002-62.79l1.03-0.666zM2524.8 523.68h-71.456c-0.302-5.27-0.475-11.434-0.475-17.639 0-54.286 13.188-105.493 36.535-150.589l-0.861 1.828c22.898 47.582 36.276 103.455 36.276 162.453 0 1.388-0.007 2.773-0.022 4.157l0.002-0.211z m-146.016-341.536h-44.8V256l-92.256-30.656-17.568-13.408-16.896 55.584 34.464 8.384V606.752H2224v40.32h345.6v-40.32h-190.944v-424.608z m-44.8 424.608h-47.552v-77.024h47.456v77.024z m0-117.344h-47.552v-78.752h47.456v78.752z m0-119.072h-47.552v-83.552l47.456 11.552v72zM1724.16 112.768h-137.6V160h137.6v57.6h-97.888v47.424h97.888v52.192l-81.248-8.352-16.64-8.032-7.776 56.416 20.672 0.256c18.843 21.337 34.694 45.923 46.518 72.686l0.714 1.81h-79.36v45.536h302.464V432h-173.632c-11.732-28.326-24.675-52.527-39.655-75.267l1.031 1.667 123.648 1.504a294.794 294.794 0 0 1-40.835 34.345l-0.957 0.631 33.664 24.96c37.063-24.506 68.733-53.428 95.379-86.561l0.621-0.799-41.6-27.456a397.709 397.709 0 0 1-19.2 25.088l-72.128-7.392v-57.6h109.312v-47.424H1776V160h149.12v-47.392h-200.96z m-126.976 222.88c0.225-4.571 0.354-9.928 0.354-15.314 0-80.659-28.806-154.591-76.691-212.068l0.433 0.534-40.032 29.888c41.394 49.119 66.549 113.106 66.549 182.968 0 4.899-0.124 9.769-0.368 14.607l0.027-0.679V652.8h361.952V512h-312.224v-176.512zM1857.6 554.592v55.584h-260.416v-55.584H1857.6z m-461.824-344.128v-52.16H1344V652.64h166.4v-442.176h-114.624z m62.88 389.76h-62.88V262.88h62.88V600.224z m-601.6 106.368C518.664 480.605 234.471 203.159 8.018-117.927L1.28-128 0-126.272V896h960v-896.896H350.4c115.58 281.032 288.042 517.934 504.414 705.532l2.306 1.956z"  horiz-adv-x="3904" />

    
    <glyph glyph-name="xc-xzsz" unicode="&#58999;" d="M961.6495 512.631l-52.633-30.4v-196.466l52.633-30.4c17.071-9.99 28.357-28.235 28.357-49.117 0-10.441-2.821-20.224-7.743-28.625l0.145 0.268-56.717-98.233c-9.99-17.071-28.235-28.357-49.117-28.357-10.441 0-20.224 2.821-28.625 7.743l0.268-0.145-52.633 30.173-170.15-98.233v-60.573c0-31.324-25.393-56.717-56.717-56.717H455.2845c-31.324 0-56.717 25.393-56.717 56.717v60.8l-170.15 98.233-3.516-2.042-49.117-28.358c-8.134-4.776-17.917-7.598-28.358-7.598-20.882 0-39.128 11.285-48.972 28.089l-0.145 0.267L41.5925 177.89c-4.776 8.134-7.598 17.917-7.598 28.358 0 20.882 11.285 39.128 28.089 48.972l0.267 0.145 52.633 30.4V482.231l-52.633 30.4c-17.071 9.99-28.357 28.235-28.357 49.117 0 10.441 2.821 20.224 7.743 28.625l-0.145-0.268 56.717 98.233c9.99 17.071 28.235 28.357 49.117 28.357 10.441 0 20.224-2.821 28.625-7.743l-0.268 0.145 52.633-30.173 170.15 98.233V837.73c0 31.324 25.393 56.717 56.717 56.717h113.433c31.324 0 56.717-25.393 56.717-56.717v-60.8l170.15-98.233 3.516 2.042 49.117 28.358c8.134 4.776 17.917 7.598 28.358 7.598 20.882 0 39.128-11.285 48.972-28.089l0.145-0.267 56.717-98.233c4.776-8.134 7.598-17.917 7.598-28.358 0-20.882-11.285-39.128-28.089-48.972l-0.267-0.145z m-166.066-30.4l88.591 51.045-56.717 98.233-88.591-51.045-170.15 98.233V781.014H455.2835v-102.09l-170.15-98.233-88.591 51.045-56.717-98.233 88.591-51.045v-196.466l-88.591-51.045 56.717-98.233 88.591 51.045 170.15-98.233v-102.543h113.433v102.09l170.15 98.233 88.591-51.045 56.717 98.233-88.591 51.045V482.005zM512.0015 270.56500000000005c-62.647 0-113.433 50.786-113.433 113.433S449.3545 497.431 512.0015 497.431c62.647 0 113.433-50.786 113.433-113.433 0-62.647-50.786-113.433-113.433-113.433z"  horiz-adv-x="1024" />

    
    <glyph glyph-name="xc-znxz" unicode="&#59000;" d="M982.779 533.612l-49.19-28.4c-8.068-4.669-17.749-7.422-28.074-7.422-31.37 0-56.801 25.43-56.801 56.801 0 20.781 11.16 38.954 27.813 48.857l0.262 0.144 49.19 28.4c8.224 4.901 18.137 7.8 28.726 7.8 31.37 0 56.801-25.43 56.801-56.801 0-21.045-11.446-39.418-28.452-49.231l-0.275-0.146zM511.675 99.997c-156.85 0-284.003 127.152-284.003 284.003s127.152 284.003 284.003 284.003c156.85 0 284.003-127.152 284.003-284.003 0-156.85-127.152-284.003-284.003-284.003z m0 454.405c-94.111 0-170.402-76.291-170.402-170.402s76.291-170.402 170.402-170.402c94.111 0 170.402 76.291 170.402 170.402 0 94.111-76.291 170.402-170.402 170.402z m0 170.401c-31.37 0-56.801 25.43-56.801 56.801V838.405c0 31.37 25.43 56.801 56.801 56.801s56.801-25.43 56.801-56.801v-56.801c0-31.37-25.43-56.801-56.801-56.801zM89.76 505.213l-49.19 28.4C23.655 543.659 12.496 561.833 12.496 582.614c0 31.37 25.43 56.801 56.801 56.801 10.325 0 20.006-2.755 28.349-7.569l-0.275 0.146 49.19-28.4c17.281-9.96 28.726-28.332 28.726-49.377 0-31.37-25.43-56.801-56.801-56.801-10.59 0-20.502 2.897-28.988 7.944l0.262-0.144z m279.913-462.016h284.003c15.685 0 28.4-12.715 28.4-28.4s-12.715-28.4-28.4-28.4H369.673c-15.685 0-28.4 12.715-28.4 28.4s12.715 28.4 28.4 28.4z m0-113.602h284.003c15.685 0 28.4-12.715 28.4-28.4s-12.715-28.4-28.4-28.4H369.673c-15.685 0-28.4 12.715-28.4 28.4s12.715 28.4 28.4 28.4z"  horiz-adv-x="1024" />

    
    <glyph glyph-name="yy-gg" unicode="&#59001;" d="M910.222 99.55600000000004V668.4449999999999H1024v-568.889H910.222zM739.556 554.6669999999999h113.778v-341.333H739.556V554.6669999999999z m-512-568.889H0V611.556l682.667 170.667v-796.444L227.556 99.55700000000002v-113.778z m341.333 625.778L113.778 497.778v-227.556l455.111-113.778V611.5550000000001z"  horiz-adv-x="1024" />

    
    <glyph glyph-name="yy-jy" unicode="&#59002;" d="M967.111 42.66700000000003H398.222v-113.778H0V782.222c0 31.419 25.47 56.889 56.889 56.889h910.222c31.419 0 56.889-25.47 56.889-56.889v-682.667c0-31.419-25.47-56.889-56.889-56.889z m-56.889 682.666H113.778v-568.889h796.444V725.333zM739.556 497.778H284.445V611.556h455.111v-113.778z m0-227.556H284.445V384h455.111v-113.778z"  horiz-adv-x="1024" />

    
    <glyph glyph-name="yy-gzhb" unicode="&#59003;" d="M967.111-71.11000000000001H0V782.223c0 31.419 25.47 56.889 56.889 56.889h568.889v-113.778h-512v-682.667h796.444V440.889H1024v-455.111c0-31.419-25.47-56.889-56.889-56.889zM397.653 297.41600000000005L939.235 839.112l84.764-84.764-541.582-541.753z"  horiz-adv-x="1024" />

    
    <glyph glyph-name="yy-wq" unicode="&#59004;" d="M511.999-14S113.999 297.80499999999995 113.999 548.261C113.999 740.154 291.962 895.715 511.999 895.715s398-155.561 398-347.454C909.999 295.53099999999995 511.999-14 511.999-14z m0 795.488c-157.494 0-284.854-92.28-284.854-206.05C227.145 399.18 511.999 157.08299999999997 511.999 157.08299999999997s284.854 237.55 284.854 418.355c0 113.772-127.36 206.05-284.854 206.05z m0-340.631c-62.803 0-113.715 50.912-113.715 113.715S449.196 668.287 511.999 668.287c62.803 0 113.715-50.912 113.715-113.715 0-62.803-50.912-113.715-113.715-113.715zM212.362 200.91999999999996l97.226-69.764c-50.603-15.351-81.874-36.503-81.874-59.871 0-47.078 127.36-85.285 284.286-85.285s284.286 38.208 284.286 85.285c0 23.311-31.272 44.348-81.874 59.757l97.794 69.65c52.535-22.753 90.205-70.933 97.708-128.588l0.087-0.819c0-109.905-177.963-199-398-199s-398 89.095-398 199c7.842 58.591 45.673 106.813 97.304 129.225l1.059 0.41z"  horiz-adv-x="1024" />

    
    <glyph glyph-name="yy-wp" unicode="&#59005;" d="M910.1275-127.878H113.8725c-31.412 0-56.875 25.464-56.875 56.875V839.003C56.9975 870.415 82.4615 895.878 113.8725 895.878h796.255c31.412 0 56.875-25.464 56.875-56.875v-910.006c0-31.412-25.464-56.875-56.875-56.875z m-341.252 56.876h113.751v56.875H568.8755v-56.875z m284.377 853.13H170.7475v-739.381h682.505V782.128z m0-796.254H739.5015v-56.875h113.751v56.875z m-483.44 455.002c11.084-0.152 21.599-2.415 31.216-6.405l-0.56 0.206c10.861 68.355 69.38 119.981 139.957 119.981 70.252 0 128.557-51.154 139.7-118.246l0.113-0.826c34.453-10.991 59.013-42.606 59.264-79.994v-0.03c0-47.117-38.196-85.313-85.313-85.313-4.275-0.874-9.189-1.374-14.219-1.374s-9.944 0.5-14.693 1.453l0.475-0.08H398.2505c-4.275-0.814-9.193-1.28-14.219-1.28s-9.944 0.466-14.711 1.357l0.493-0.076c-47.117 0-85.313 38.196-85.313 85.313s38.196 85.313 85.313 85.313z"  horiz-adv-x="1024" />

    
    <glyph glyph-name="yy-xlgj" unicode="&#59006;" d="M170.667-128V-14.22199999999998h739.556v56.889H0.001V327.111h341.333v-113.778H113.778v-56.889H1024V-128H170.667z m56.889 741.547C227.556 769.5360000000001 380.587 896 568.889 896s341.333-126.464 341.333-282.453c0-205.426-341.333-457.102-341.333-457.102S227.556 409.942 227.556 613.547z m341.333-344.121s204.8 195.413 204.8 344.121c0 93.582-91.591 169.472-204.8 169.472s-204.8-75.89-204.8-169.472c0-145.124 204.8-344.121 204.8-344.121z m0 342.13c31.419 0 56.889-25.47 56.889-56.889s-25.47-56.889-56.889-56.889c-31.419 0-56.889 25.47-56.889 56.889 0 31.419 25.47 56.889 56.889 56.889z"  horiz-adv-x="1024" />

    
    <glyph glyph-name="qqicon" unicode="&#59007;" d="M936.198678 91.632212c-6.301502 1.412991-11.524773 5.240259-14.748471 10.436549l-0.056959 0.09893-17.083805 31.263682c-12.066386-28.414716-26.380168-52.913227-43.340061-75.297248l0.63055 0.86838c29.037271-12.124345 52.762335-32.146052 69.118659-57.385035l0.355746-0.585582c4.391865-8.162173 6.973022-17.861249 6.973022-28.162895a60.24899 60.24899 0 0 0-3.690366-20.831129l0.134904 0.418701a11.401861 11.401861 0 0 0-2.853963-5.70193l0.006995 0.006995c-1.70878-2.67609-48.974039-66.000884-179.950539-66.000884-53.273969 0.891364-104.307538 8.984586-152.645032 23.346334l4.014135-1.02327-67.19703 18.052113c-55.772186-30.924924-122.299694-49.127929-193.078168-49.127929-1.991578 0-3.980159 0.01399-5.964742 0.04297l0.300785-0.002998c-32.485809 0.074946-64.152204 3.388581-94.752359 9.635122l3.068809-0.523627c-10.250682 1.594861-109.906541 18.279951-132.115687 74.542787-2.40928 7.220845-3.798289 15.53491-3.798289 24.172744 0 22.362036 9.312352 42.548626 24.271674 56.892386l0.02798 0.025981a24.230702 24.230702 0 0 0 6.141615 4.891509l0.121913 0.062955c9.376307 5.381159 20.291515 10.311639 31.695374 14.184873l1.334048 0.393719c-23.322351 25.510789-42.511652 55.295526-56.196883 87.95821l-0.749465 2.01656c-14.438693-25.375885-38.801301-43.690811-67.672691-49.768472l-0.663526-0.116916a18.047117 18.047117 0 0 0-0.417702-0.003997c-6.473379 0-12.255251 2.958888-16.06753 7.598575l-0.028979 0.035975C12.029413 129.395254 0.306781 161.421392 0.002998 196.171585v2.235404c0.138901 46.867543 13.472383 90.592329 36.477959 127.689846l-0.60157-1.041257c29.937629 48.233568 63.424723 90.014741 101.289692 127.372074l0.074947 0.073947c4.056104 45.250697 16.862962 86.706103 36.721786 123.822607l-0.845397-1.729765c4.555748 38.780316 41.00173 266.565707 267.647935 310.414405C469.58278 891.499213 502.676156 895.217559 536.636913 895.217559c1.332049 0 2.6621-0.005996 3.99115-0.016988l-0.203854 0.000999c5.121344 0.261813 11.119062 0.411706 17.151756 0.411706 119.425746 0 225.190244-58.493244 290.206831-148.393067l0.721485-1.047252c33.053404-49.091955 54.969759-108.249724 60.824579-172.054177l0.107923-1.460957c16.466245-27.940055 26.193301-61.557056 26.193301-97.445437 0-11.706643-1.035261-23.171459-3.018845-34.308508l0.173876 1.175161c47.115366-58.403308 79.459277-130.578784 90.294542-209.607368l0.250821-2.233406c1.06424-7.388725 1.671807-15.919635 1.671807-24.593443 0-35.852406-10.382588-69.279544-28.305794-97.438442l0.437688 0.736474c-11.284944-11.966458-27.24555-19.417139-44.946914-19.417138a61.795886 61.795886 0 0 0-16.419279 2.207424l0.43369-0.101928z"  horiz-adv-x="1025" />

    
    <glyph glyph-name="pz-qxgl" unicode="&#58935;" d="M933.641588-127.988H90.357412c-33.266968 0-60.234941 26.967974-60.234941 60.233941V474.360412c0 33.265968 26.967974 60.233941 60.234941 60.233941h120.469882v60.233941C210.826294 761.160132 345.665162 896 511.998 896s301.172706-134.839868 301.172706-301.172706v-60.233941h120.469882c33.265968 0 60.233941-26.967974 60.233941-60.233941v-542.113471c0-33.265968-26.967974-60.233941-60.234941-60.233941zM692.703824 594.828294c0 99.799903-80.903921 180.703824-180.703824 180.703824s-180.703824-80.903921-180.703824-180.703824v-60.233941h361.407648v60.233941z m180.703823-180.703823H150.591353v-421.641589h722.816294V414.124471zM632.469882 233.420647h-60.234941v-180.703823h-120.469882V233.420647h-60.233941V353.890529H632.469882v-120.469882z"  horiz-adv-x="1024" />

    
    <glyph glyph-name="rs-rstx" unicode="&#58903;" d="M910.222222-128H113.777778a56.888889 56.888889 0 0 0-56.888889 56.888889V839.111111a56.888889 56.888889 0 0 0 56.888889 56.888889h796.444444a56.888889 56.888889 0 0 0 56.888889-56.888889v-910.222222a56.888889 56.888889 0 0 0-56.888889-56.888889zM853.333333 782.222222H170.666667v-796.444444h682.666666V782.222222z m-227.555555-170.666666H227.555556V668.444444h398.222222v-56.888888z m-56.888889-113.777778H227.555556V554.666667h341.333333v-56.888889zM512 384H227.555556V440.888889h284.444444v-56.888889z m36.408889-61.155556l56.888889 58.424889a114.574222 114.574222 0 0 0 142.506666 26.225778 30.264889 30.264889 0 0 0 5.688889 14.108445 26.510222 26.510222 0 0 0 39.253334 3.697777 31.573333 31.573333 0 0 0 3.413333-42.211555 27.249778 27.249778 0 0 0-10.865778-8.135111 122.254222 122.254222 0 0 0-9.216-147.911111l-56.888889-58.424889a89.315556 89.315556 0 0 0 2.901334-89.543111c-29.696-38.058667-111.047111-17.066667-182.044445 46.705777s-103.822222 146.545778-74.126222 184.604445a73.955556 73.955556 0 0 0 82.488889 12.458666z"  horiz-adv-x="1024" />

    
    <glyph glyph-name="yy-gpswl" unicode="&#58937;" d="M1024 99.55555600000002v-113.777778H0v113.777778h170.666667v170.666666H0V384h170.666667V497.777778H0V611.555556h170.666667V782.222222h113.777777v-170.666666h170.666667V782.222222h113.777778v-170.666666h170.666667V782.222222h113.777777v-170.666666h170.666667v-113.777778h-170.666667v-113.777778h170.666667v-113.777778h-170.666667v-170.666666h170.666667zM284.444444 99.55555600000002h170.666667v170.666666H284.444444v-170.666666z m0 398.222222v-113.777778h170.666667V497.777778H284.444444z m455.111112 0h-170.666667v-113.777778h170.666667V497.777778z m-170.666667-227.555556v-170.666666h170.666667v170.666666h-170.666667z"  horiz-adv-x="1024" />

    
    <glyph glyph-name="pz-kfapi" unicode="&#58938;" d="M967.111111-71.11111100000005H56.888889a56.888889 56.888889 0 0 0-56.888889 56.888889V782.222222a56.888889 56.888889 0 0 0 56.888889 56.888889h910.222222a56.888889 56.888889 0 0 0 56.888889-56.888889v-796.444444a56.888889 56.888889 0 0 0-56.888889-56.888889zM341.333333 782.222222H113.777778v-56.888889h227.555555V782.222222z m568.888889-170.666666H113.777778v-568.888889h796.444444V611.555556zM341.333333 497.777778l113.777778-341.333334H398.222222l-28.444444 85.333334h-113.777778L227.555556 156.44444399999998H170.666667l113.777777 341.333334h56.888889z m9.500445-199.111111l-37.944889 113.777777-37.944889-113.777777h75.889778zM625.777778 497.777778a113.777778 113.777778 0 1 0 0-227.555556h-56.888889v-113.777778H512V497.777778h113.777778z m-56.888889-170.666667h56.888889a56.888889 56.888889 0 0 1 0 113.777778h-56.888889v-113.777778z m284.444444-170.666667h-56.888889V497.777778h56.888889v-341.333334z"  horiz-adv-x="1024" />

    
    <glyph glyph-name="pz-czrz" unicode="&#58939;" d="M910.222222-128H113.777778a56.888889 56.888889 0 0 0-56.888889 56.888889V839.111111a56.888889 56.888889 0 0 0 56.888889 56.888889h796.444444a56.888889 56.888889 0 0 0 56.888889-56.888889v-910.222222a56.888889 56.888889 0 0 0-56.888889-56.888889zM853.333333 782.222222H341.333333v-796.444444H227.555556V782.222222H170.666667v-796.444444h682.666666V782.222222z m-227.555555-284.444444H398.222222V611.555556h227.555556v-113.777778z m170.666666-284.444445H398.222222v113.777778h398.222222v-113.777778z"  horiz-adv-x="1024" />

    
    <glyph glyph-name="yy-wjgl" unicode="&#58940;" d="M910.222222-128H113.777778a56.888889 56.888889 0 0 0-56.888889 56.888889V839.111111a56.888889 56.888889 0 0 0 56.888889 56.888889h796.444444a56.888889 56.888889 0 0 0 56.888889-56.888889v-910.222222a56.888889 56.888889 0 0 0-56.888889-56.888889zM853.333333 782.222222H170.666667v-796.444444h682.666666V782.222222z m-113.777777-341.333333H284.444444V554.666667h455.111112v-113.777778z m0-227.555556H284.444444v113.777778h455.111112v-113.777778z"  horiz-adv-x="1024" />

    
    <glyph glyph-name="yy-stgl" unicode="&#58941;" d="M910.222222-128H113.777778a56.888889 56.888889 0 0 0-56.888889 56.888889V839.111111a56.888889 56.888889 0 0 0 56.888889 56.888889h796.444444a56.888889 56.888889 0 0 0 56.888889-56.888889v-910.222222a56.888889 56.888889 0 0 0-56.888889-56.888889zM682.666667 782.222222h-56.888889v-170.666666h56.888889V782.222222z m170.666666 0h-56.888889v-284.444444H512V782.222222H170.666667v-796.444444h682.666666V782.222222z m-113.777777-512H284.444444V384h455.111112v-113.777778z"  horiz-adv-x="1024" />

    
    <glyph glyph-name="yy-tpgl" unicode="&#58942;" d="M739.555556-128H0V554.666667a56.888889 56.888889 0 0 0 56.888889 56.888889h227.555555V839.111111a56.888889 56.888889 0 0 0 56.888889 56.888889h341.333334a56.888889 56.888889 0 0 0 56.888889-56.888889v-398.222222h227.555555a56.888889 56.888889 0 0 0 56.888889-56.888889v-512h-284.444444zM284.444444 497.777778H113.777778v-512h170.666666V497.777778z m341.333334 284.444444H398.222222v-796.444444h227.555556V782.222222z m284.444444-455.111111h-170.666666v-341.333333h170.666666v341.333333z"  horiz-adv-x="1024" />

    
    <glyph glyph-name="yy-hdgl" unicode="&#58943;" d="M967.111111 270.222222v-341.333333a56.888889 56.888889 0 0 0-56.888889-56.888889H113.777778a56.888889 56.888889 0 0 0-56.888889 56.888889v341.333333a56.888889 56.888889 0 0 0-56.888889 56.888889V554.666667a56.888889 56.888889 0 0 0 56.888889 56.888889h910.222222a56.888889 56.888889 0 0 0 56.888889-56.888889v-227.555556a56.888889 56.888889 0 0 0-56.888889-56.888889zM170.666667-14.222222h682.666666v284.444444H170.666667v-284.444444z m739.555555 512H113.777778v-113.777778h796.444444V497.777778z m11.377778 113.777778h-143.473778l76.060445 75.548444-95.402667 94.663111L587.320889 611.555556H436.679111L265.216 781.767111 169.813333 687.047111 245.873778 611.555556H102.4l-29.184 29.127111a56.490667 56.490667 0 0 0 0 79.644444L233.244444 880.355556a56.490667 56.490667 0 0 0 79.644445 0l199.111111-199.111112 199.111111 199.111112a56.490667 56.490667 0 0 0 79.644445 0l159.800888-159.800889a56.490667 56.490667 0 0 0 0-79.644445z"  horiz-adv-x="1024" />

    
    <glyph glyph-name="yy-cjgl" unicode="&#58944;" d="M1020.529778 327.111111A512 512 0 0 0 568.888889-124.643556V-128H455.111111v3.356444A512 512 0 0 0 3.470222 327.111111H0V440.888889h3.470222A512 512 0 0 0 455.111111 892.643556V896h113.777778v-3.356444A512 512 0 0 0 1020.529778 440.888889H1024v-113.777778h-3.470222zM568.888889 776.533333V668.444444H455.111111V776.533333A396.856889 396.856889 0 0 1 119.011556 440.888889H227.555556v-113.777778H119.011556A396.8 396.8 0 0 1 455.111111-8.533333V99.555556h113.777778v-108.088889a396.8 396.8 0 0 1 336.099555 335.644444H796.444444V440.888889h108.544A396.8 396.8 0 0 1 568.888889 776.533333zM479.118222 270.222222L398.222222 351.118222l120.604445 120.604445 221.354666 140.515555-140.458666-221.354666z"  horiz-adv-x="1024" />

    
    <glyph glyph-name="yy-ssgl" unicode="&#58945;" d="M910.222222-71.111111v113.777778H113.777778v-113.777778H0V384a170.154667 170.154667 0 0 0 113.777778 160.199111V782.222222a56.888889 56.888889 0 0 0 56.888889 56.888889h682.666666a56.888889 56.888889 0 0 0 56.888889-56.888889v-238.023111A170.154667 170.154667 0 0 0 1024 384v-455.111111h-113.777778zM796.444444 725.333333H227.555556v-170.666666h56.888888V611.555556h170.666667v-56.888889h113.777778V611.555556h170.666667v-56.888889h56.888888V725.333333z m113.777778-398.222222a113.777778 113.777778 0 0 1-113.777778 113.777778H227.555556a113.777778 113.777778 0 0 1-113.777778-113.777778v-170.666667h796.444444v170.666667z"  horiz-adv-x="1024" />

    
    <glyph glyph-name="kq-home" unicode="&#58946;" d="M512 782.222222L0 554.666667V668.444444l512 227.555556 512-227.555556v-113.777777z m170.666667-512v-170.666666H341.333333v170.666666h341.333334z m-512-284.444444h682.666666V497.777778h113.777778v-568.888889a56.888889 56.888889 0 0 0-56.888889-56.888889H113.777778a56.888889 56.888889 0 0 0-56.888889 56.888889V497.777778h113.777778v-512z"  horiz-adv-x="1024" />

    
    <glyph glyph-name="hndx-cjgl" unicode="&#58947;" d="M910.222222-128H113.777778a56.888889 56.888889 0 0 0-56.888889 56.888889V839.111111a56.888889 56.888889 0 0 0 56.888889 56.888889h796.444444a56.888889 56.888889 0 0 0 56.888889-56.888889v-910.222222a56.888889 56.888889 0 0 0-56.888889-56.888889zM853.333333 782.222222H170.666667v-796.444444h682.666666V782.222222zM398.222222 725.333333l113.777778-341.333333H455.111111l-18.944 56.888889H303.388444L284.444444 384H227.555556l113.777777 341.333333h56.888889z m18.944-227.555555L369.777778 640 322.389333 497.777778h94.776889zM568.888889 213.33333300000004H227.555556v56.888889h341.333333v-56.888889z m227.555555-113.777777H227.555556v56.888888h568.888888v-56.888888z m-113.777777 455.111111h-56.888889V611.555556h-56.888889V668.444444h56.888889V725.333333h56.888889v-56.888889h56.888889v-56.888888h-56.888889v-56.888889z"  horiz-adv-x="1024" />

    
    <glyph glyph-name="hndx-kcb" unicode="&#58948;" d="M967.111111-71.11111100000005H56.888889a56.888889 56.888889 0 0 0-56.888889 56.888889V725.333333a56.888889 56.888889 0 0 0 56.888889 56.888889h170.666667V839.111111h113.777777v-56.888889h341.333334V839.111111h113.777777v-56.888889h170.666667a56.888889 56.888889 0 0 0 56.888889-56.888889v-739.555555a56.888889 56.888889 0 0 0-56.888889-56.888889zM910.222222 668.444444h-113.777778v-56.888888h-113.777777V668.444444H341.333333v-56.888888H227.555556V668.444444H113.777778v-113.777777h796.444444V668.444444z m0-227.555555H113.777778v-398.222222h796.444444V440.888889z m-56.888889-341.333333H170.666667v113.777777h682.666666v-113.777777zM512 384h341.333333v-113.777778H512V384z"  horiz-adv-x="1024" />

    
    <glyph glyph-name="hndx-pfgl" unicode="&#58950;" d="M910.222222-128H113.777778a56.888889 56.888889 0 0 0-56.888889 56.888889V839.111111a56.888889 56.888889 0 0 0 56.888889 56.888889h796.444444a56.888889 56.888889 0 0 0 56.888889-56.888889v-910.222222a56.888889 56.888889 0 0 0-56.888889-56.888889zM853.333333 782.222222H170.666667v-796.444444h682.666666V782.222222zM284.444444 384H227.555556V668.444444h56.888888v-284.444444z m284.444445-170.666667H227.555556v56.888889h341.333333v-56.888889z m227.555555-113.777777H227.555556v56.888888h568.888888v-56.888888z m-113.777777 284.444444h-56.888889a56.888889 56.888889 0 0 0-56.888889 56.888889V611.555556a56.888889 56.888889 0 0 0 56.888889 56.888888h56.888889a56.888889 56.888889 0 0 0 56.888889-56.888888v-170.666667a56.888889 56.888889 0 0 0-56.888889-56.888889z m0 227.555556h-56.888889v-170.666667h56.888889V611.555556zM455.111111 384H398.222222a56.888889 56.888889 0 0 0-56.888889 56.888889V611.555556a56.888889 56.888889 0 0 0 56.888889 56.888888h56.888889a56.888889 56.888889 0 0 0 56.888889-56.888888v-170.666667a56.888889 56.888889 0 0 0-56.888889-56.888889z m0 227.555556H398.222222v-170.666667h56.888889V611.555556z"  horiz-adv-x="1024" />

    
    <glyph glyph-name="hndx-bkbk" unicode="&#58949;" d="M967.111111-71.11111100000005H56.888889a56.888889 56.888889 0 0 0-56.888889 56.888889V782.222222a56.888889 56.888889 0 0 0 56.888889 56.888889h910.222222a56.888889 56.888889 0 0 0 56.888889-56.888889v-796.444444a56.888889 56.888889 0 0 0-56.888889-56.888889zM455.111111 725.333333H113.777778v-682.666666h341.333333V725.333333z m455.111111 0h-341.333333v-682.666666h341.333333V725.333333z m-56.888889-341.333333h-227.555555V440.888889h227.555555v-56.888889z m-113.777777-170.666667h-113.777778v56.888889h113.777778v-56.888889zM341.333333 554.666667H170.666667V611.555556h170.666666v-56.888889z m56.888889-170.666667H170.666667V440.888889h227.555555v-56.888889z m0-170.666667H170.666667v56.888889h227.555555v-56.888889z"  horiz-adv-x="1024" />

    
    <glyph glyph-name="hndx-pzxx" unicode="&#58951;" d="M963.015111 513.024l-49.265778-28.444444-3.527111-2.048v-197.063112l52.792889-30.492444a56.888889 56.888889 0 0 0 20.821333-77.710222l-56.888888-98.531556a56.888889 56.888889 0 0 0-77.710223-20.821333L796.444444 88.177778l-170.666666-98.531556V-71.111111a56.888889 56.888889 0 0 0-56.888889-56.888889H455.111111a56.888889 56.888889 0 0 0-56.888889 56.888889v60.984889L227.555556 88.177778l-3.527112-2.048-49.265777-28.444445a56.888889 56.888889 0 0 0-77.710223 20.821334l-56.888888 98.531555a56.888889 56.888889 0 0 0 20.821333 77.710222l49.265778 28.444445 3.527111 2.275555V482.531556l-52.792889 30.492444a56.888889 56.888889 0 0 0-20.821333 77.710222l56.888888 98.531556a56.888889 56.888889 0 0 0 77.710223 20.821333L227.555556 679.822222l170.666666 98.304V839.111111a56.888889 56.888889 0 0 0 56.888889 56.888889h113.777778a56.888889 56.888889 0 0 0 56.888889-56.888889v-60.984889L796.444444 679.822222l3.527112 2.048 49.265777 28.444445a56.888889 56.888889 0 0 0 77.710223-20.821334l56.888888-98.531555a56.888889 56.888889 0 0 0-20.821333-77.937778zM796.444444 482.531556l88.860445 51.2-56.888889 98.531555-88.860444-51.2L568.888889 679.822222V782.222222H455.111111v-102.4L284.444444 581.063111l-88.860444 51.2-56.888889-98.531555 88.860445-51.2v-197.063112l-88.860445-51.2 56.888889-98.531555 88.860444 51.2L455.111111 88.177778V-14.222222h113.777778v102.4l170.666667 98.531555 88.860444-51.2 56.888889 98.531556L796.444444 285.468444V482.531556zM512 270.222222a113.777778 113.777778 0 1 0 113.777778 113.777778 113.777778 113.777778 0 0 0-113.777778-113.777778z"  horiz-adv-x="1024" />

    
    <glyph glyph-name="pz-jysj" unicode="&#59009;" d="M539.80893-127.998863a484.019456 484.019456 0 0 0-476.228283 398.771522H62.955078a56.869869 56.869869 0 0 0 56.869869 56.869869h448.475788V776.232056a56.869869 56.869869 0 0 0 56.869869 56.869869v-0.625569A484.019456 484.019456 0 0 0 539.80893-127.998863z m142.174673 824.954321v-426.239669a56.869869 56.869869 0 0 0-56.869869-56.869869H199.101545a369.654149 369.654149 0 1 1 483.109538 483.109538z m-227.650086-312.215581H57.268091a56.869869 56.869869 0 0 0-56.869869 56.869869h-0.398089a483.393887 483.393887 0 0 0 454.333384 454.390254V895.658781a56.869869 56.869869 0 0 0 56.869869-56.869869v-397.122296a56.869869 56.869869 0 0 0-56.869869-56.926739z m-56.869869 386.260151a367.948053 367.948053 0 0 1-272.975371-272.349803h272.975371V771.000028z"  horiz-adv-x="1025" />

    
    <glyph glyph-name="kq-gzz" unicode="&#59010;" d="M967.111111 156.444444h-398.222222v-113.777777h170.666667v-113.777778H284.444444v113.777778h170.666667v113.777777H56.888889a56.888889 56.888889 0 0 0-56.888889 56.888889V839.111111a56.888889 56.888889 0 0 0 56.888889 56.888889h910.222222a56.888889 56.888889 0 0 0 56.888889-56.888889v-625.777778a56.888889 56.888889 0 0 0-56.888889-56.888889zM910.222222 782.222222H113.777778v-512h796.444444V782.222222z"  horiz-adv-x="1024" />

    
    <glyph glyph-name="ty-jykb" unicode="&#59011;" d="M0-71.111111v113.777778h1024v-113.777778H0z m967.111111 170.666667H56.888889a56.888889 56.888889 0 0 0-56.888889 56.888888V839.111111a56.888889 56.888889 0 0 0 56.888889 56.888889h910.222222a56.888889 56.888889 0 0 0 56.888889-56.888889v-682.666667a56.888889 56.888889 0 0 0-56.888889-56.888888zM910.222222 782.222222H113.777778v-568.888889h796.444444V782.222222z m-341.333333-113.777778h227.555555v-113.777777h-178.801777L455.111111 327.111111H227.555556V440.888889h178.801777z"  horiz-adv-x="1024" />

    
    <glyph glyph-name="ty-rcpd" unicode="&#59012;" d="M1007.82097-111.817306a54.510127 54.510127 0 0 0-77.109118 0l-194.476236 194.476236a455.216346 455.216346 0 1 0 77.109118 77.109118l194.476236-194.476236a54.510127 54.510127 0 0 0 0-77.109118zM456.189836 780.502125a340.688297 340.688297 0 1 1 340.688297-340.688297 340.688297 340.688297 0 0 1-340.688297 340.688297z"  horiz-adv-x="1025" />

    
    <glyph glyph-name="ty-rlzb" unicode="&#59013;" d="M1024 213.333333v-113.777777h-455.111111v-56.888889h170.666667v-113.777778H284.444444v113.777778h170.666667v56.888889H0v113.777777h56.888889V725.333333H0V839.111111h1024v-113.777778h-56.888889v-512h56.888889z m-170.666667 512H170.666667v-512h682.666666V725.333333z m-512-455.111111H227.555556V497.777778h113.777777v-227.555556z m227.555556 0H455.111111V611.555556h113.777778v-341.333334z m227.555555 0h-113.777777V440.888889h113.777777v-170.666667z"  horiz-adv-x="1024" />

    
    <glyph glyph-name="ty-rxkb" unicode="&#59014;" d="M0-71.111111v113.777778h1024v-113.777778H0z m967.111111 170.666667H56.888889a56.888889 56.888889 0 0 0-56.888889 56.888888V839.111111a56.888889 56.888889 0 0 0 56.888889 56.888889h910.222222a56.888889 56.888889 0 0 0 56.888889-56.888889v-682.666667a56.888889 56.888889 0 0 0-56.888889-56.888888zM910.222222 782.222222H113.777778v-568.888889h796.444444V782.222222zM512 497.777778H227.555556V611.555556h284.444444v-113.777778z m284.444444-170.666667H227.555556V440.888889h568.888888v-113.777778z"  horiz-adv-x="1024" />

    
    <glyph glyph-name="ty-tdkb" unicode="&#59015;" d="M0-71.111111v113.777778h1024v-113.777778H0z m967.111111 170.666667H56.888889a56.888889 56.888889 0 0 0-56.888889 56.888888V839.111111a56.888889 56.888889 0 0 0 56.888889 56.888889h910.222222a56.888889 56.888889 0 0 0 56.888889-56.888889v-682.666667a56.888889 56.888889 0 0 0-56.888889-56.888888zM910.222222 782.222222H113.777778v-568.888889h796.444444V782.222222zM341.333333 327.111111H227.555556V554.666667h113.777777v-227.555556z m227.555556 0H455.111111V668.444444h113.777778v-341.333333z m227.555555 0h-113.777777V497.777778h113.777777v-170.666667z"  horiz-adv-x="1024" />

    
    <glyph glyph-name="ty-rgcb" unicode="&#59016;" d="M910.222222-128H113.777778a56.888889 56.888889 0 0 0-56.888889 56.888889V839.111111a56.888889 56.888889 0 0 0 56.888889 56.888889h796.444444a56.888889 56.888889 0 0 0 56.888889-56.888889v-910.222222a56.888889 56.888889 0 0 0-56.888889-56.888889zM853.333333 782.222222H170.666667v-796.444444h682.666666V782.222222z m-56.888889-284.444444H227.555556V725.333333h568.888888v-227.555555z m-455.111111-227.555556H227.555556V384h113.777777v-113.777778z m0-170.666666H227.555556v113.777777h113.777777v-113.777777z m227.555556 170.666666H455.111111V384h113.777778v-113.777778z m0-170.666666H455.111111v113.777777h113.777778v-113.777777z m227.555555 170.666666h-113.777777V384h113.777777v-113.777778z m0-170.666666h-113.777777v113.777777h113.777777v-113.777777z"  horiz-adv-x="1024" />

    
    <glyph glyph-name="kq-jcpb" unicode="&#59008;" d="M967.111111-128H56.888889a56.888889 56.888889 0 0 0-56.888889 56.888889V725.333333a56.888889 56.888889 0 0 0 56.888889 56.888889h170.666667V839.111111h113.777777v-56.888889h341.333334V839.111111h113.777777v-56.888889h170.666667a56.888889 56.888889 0 0 0 56.888889-56.888889v-796.444444a56.888889 56.888889 0 0 0-56.888889-56.888889zM910.222222 668.444444h-113.777778v-56.888888h-113.777777V668.444444H341.333333v-56.888888H227.555556V668.444444H113.777778v-113.777777h796.444444V668.444444z m0-227.555555H113.777778v-455.111111h796.444444V440.888889zM341.333333 241.777778H227.555556v113.777778h113.777777v-113.777778z m0-170.666667H227.555556v113.777778h113.777777v-113.777778z m227.555556 170.666667H455.111111v113.777778h113.777778v-113.777778z m0-170.666667H455.111111v113.777778h113.777778v-113.777778z m227.555555 170.666667h-113.777777v113.777778h113.777777v-113.777778z m0-170.666667h-113.777777v113.777778h113.777777v-113.777778z"  horiz-adv-x="1024" />

    
    <glyph glyph-name="kq-znpb" unicode="&#59017;" d="M901.688889 498.574222L853.902222 589.539556 977.578667 668.444444l47.502222-91.022222zM512.568889 99.55555600000002a284.444444 284.444444 0 1 0 284.444444 284.444444 284.444444 284.444444 0 0 0-284.444444-284.444444z m0 455.111111a170.666667 170.666667 0 1 1 170.666667-170.666667 170.666667 170.666667 0 0 1-170.666667 170.666667zM455.68 896h113.777778v-170.666667H455.68V896zM0.056889 577.0808890000001l47.502222 91.022222 123.335111-78.848-47.502222-91.022222zM683.235556-14.222221999999988H341.902222v56.888889h341.333334v-56.888889z m0-113.777778H341.902222v56.888889h341.333334v-56.888889z"  horiz-adv-x="1025" />

    
    <glyph glyph-name="kq-pbgz" unicode="&#59018;" d="M512-128a512 512 0 1 0 512 512 512 512 0 0 0-512-512zM512 782.222222a398.222222 398.222222 0 1 1 398.222222-398.222222 398.222222 398.222222 0 0 1-398.222222 398.222222z m-56.888889-512V611.555556h113.777778v-227.555556h170.666667v-113.777778H455.111111z"  horiz-adv-x="1024" />

    
    <glyph glyph-name="yy-gys" unicode="&#59019;" d="M625.777778 384h398.222222v-113.777778h-398.222222V384z m284.444444 113.777778h-284.444444V611.555556h284.444444v-113.777778z m-341.333333 56.888889v-398.222223h113.777778v-113.777777H455.111111V440.888889H341.333333l-227.555555-227.555556v-170.666666H0v227.555555l284.444444 284.444445h170.666667V839.111111h512v-113.777778h-398.222222v-170.666666zM312.888889-71.11111100000005A142.222222 142.222222 0 1 0 455.111111 71.11111100000005 142.222222 142.222222 0 0 0 312.888889-71.11111100000005z m0 170.666667a28.444444 28.444444 0 1 1 28.444444-28.444445 28.444444 28.444444 0 0 1-28.444444 28.444445z m568.888889 113.777777a142.222222 142.222222 0 1 0-142.222222-142.222222 142.222222 142.222222 0 0 0 142.222222 142.222222z m0-170.666666a28.444444 28.444444 0 1 1-28.444445 28.444444 28.444444 28.444444 0 0 1 28.444445-28.444444z"  horiz-adv-x="1024" />

    
    <glyph glyph-name="yy-xm" unicode="&#59020;" d="M967.111111-14.222221999999988a56.888889 56.888889 0 0 0-56.888889 56.888889V782.222222H227.555556a56.888889 56.888889 0 0 0 0 113.777778h739.555555a56.888889 56.888889 0 0 0 56.888889-56.888889v-796.444444a56.888889 56.888889 0 0 0-56.888889-56.888889zM853.333333 668.444444v-739.555555a56.888889 56.888889 0 0 0-56.888889-56.888889H56.888889a56.888889 56.888889 0 0 0-56.888889 56.888889V668.444444a56.888889 56.888889 0 0 0 56.888889 56.888889h739.555555a56.888889 56.888889 0 0 0 56.888889-56.888889z m-113.777777-56.888888H113.777778v-625.777778h625.777778V611.555556z m-56.888889-284.444445H170.666667V440.888889h512v-113.777778z m0-170.666667H170.666667v113.777778h512v-113.777778z"  horiz-adv-x="1024" />

    
    <glyph glyph-name="yy-kqbb" unicode="&#59021;" d="M1023.999 213.334v-113.778H568.888v-56.889h170.667v-113.778H284.444V42.667h170.667v56.889H0V213.334h56.889v512H0V839.112h1024v-113.778h-56.889v-512H1024z m-170.667 512H170.665v-512h682.667v512z m-512-455.111H227.554V497.779h113.778v-227.556z m227.556 0H455.11V611.556h113.778v-341.333z m227.555 0H682.665V440.89h113.778v-170.667z"  horiz-adv-x="1024" />

    
    <glyph glyph-name="rs-jqgl" unicode="&#59022;" d="M910.222222-71.11111100000005h-113.777778v-56.888889h-113.777777v56.888889H341.333333v-56.888889H227.555556v56.888889H113.777778a56.888889 56.888889 0 0 0-56.888889 56.888889V782.222222a56.888889 56.888889 0 0 0 56.888889 56.888889h227.555555V896h341.333334v-56.888889h227.555555a56.888889 56.888889 0 0 0 56.888889-56.888889v-796.444444a56.888889 56.888889 0 0 0-56.888889-56.888889zM853.333333 725.333333H170.666667v-682.666666h682.666666V725.333333zM455.111111 156.44444399999998H341.333333V611.555556h113.777778v-455.111112z m227.555556 0h-113.777778V611.555556h113.777778v-455.111112z"  horiz-adv-x="1024" />

    
    <glyph glyph-name="pb-bb" unicode="&#59026;" d="M1023.999 213.334v-113.778H568.888v-56.889h170.667v-113.778H284.444V42.667h170.667v56.889H0V213.334h56.889v512H0V839.112h1024v-113.778h-56.889v-512H1024z m-170.667 512H170.665v-512h682.667v512z m-512-455.111H227.554V497.779h113.778v-227.556z m227.556 0H455.11V611.556h113.778v-341.333z m227.555 0H682.665V440.89h113.778v-170.667z"  horiz-adv-x="1024" />

    
    <glyph glyph-name="zhpb-bb" unicode="&#59027;" d="M1023.999 213.334v-113.778H568.888v-56.889h170.667v-113.778H284.444V42.667h170.667v56.889H0V213.334h56.889v512H0V839.112h1024v-113.778h-56.889v-512H1024z m-170.667 512H170.665v-512h682.667v512z m-512-455.111H227.554V497.779h113.778v-227.556z m227.556 0H455.11V611.556h113.778v-341.333z m227.555 0H682.665V440.89h113.778v-170.667z"  horiz-adv-x="1024" />

    
    <glyph glyph-name="pb-jcpb" unicode="&#59028;" d="M967.111-128H56.89A56.889 56.889 0 0 0 0-71.111V725.333a56.889 56.889 0 0 0 56.889 56.89h170.667V839.11h113.777v-56.889h341.334v56.89h113.777v-56.89h170.667A56.889 56.889 0 0 0 1024 725.333V-71.11A56.889 56.889 0 0 0 967.111-128z m-56.889 796.444H796.444v-56.888H682.667v56.888H341.333v-56.888H227.556v56.888H113.778v-113.777h796.444V668.444z m0-227.555H113.778v-455.111h796.444v455.11zM341.333 241.778H227.556V355.556h113.777v-113.778z m0-170.667H227.556V184.89h113.777V71.11zM568.89 241.778H455.11V355.556H568.89v-113.778z m0-170.667H455.11V184.89H568.89V71.11z m227.555 170.667H682.667V355.556h113.777v-113.778z m0-170.667H682.667V184.89h113.777V71.11z"  horiz-adv-x="1024" />

    
    <glyph glyph-name="pb-jcpz" unicode="&#59032;" d="M963.01456 513.024374L913.749608 484.580402l-3.526997-2.047998v-197.063808l52.792949-30.49197a56.888944 56.888944 0 0 0 20.820979-77.709924l-56.887944-98.531904a56.888944 56.888944 0 0 0-77.709924-20.82098l-52.793949 30.264971-170.665833-98.531904v-60.756941a56.888944 56.888944 0 0 0-56.889945-56.888944H455.112056a56.888944 56.888944 0 0 0-56.888945 56.888944v60.984941l-170.665833 98.303904-3.527997-2.047998-49.264952-28.444972a56.888944 56.888944 0 0 0-77.709924 20.821979l-56.889944 98.530904a56.888944 56.888944 0 0 0 20.821979 77.709924l49.265952 28.444972 3.526997 2.274998V482.532404l-52.792949 30.49197a56.888944 56.888944 0 0 0-20.820979 77.709924l56.887944 98.531904a56.888944 56.888944 0 0 0 77.709924 20.82098l52.793949-30.264971 170.665833 98.303904V839.111056A56.888944 56.888944 0 0 0 455.112056 896h113.776888a56.888944 56.888944 0 0 0 56.888945-56.888944v-60.984941l170.665833-98.303904 3.527997 2.047998 49.264952 28.444972a56.888944 56.888944 0 0 0 77.709924-20.821979l56.889944-98.530904a56.888944 56.888944 0 0 0-20.821979-77.937924z m-166.569838-30.49197l88.859913 51.19995-56.888944 98.530904-88.859913-51.19995-170.666834 98.759903v102.3999H455.110056v-102.3999l-170.666834-98.759903-88.859913 51.19995-56.888944-98.530904 88.859913-51.19995v-197.063808l-88.859913-51.19995 56.888944-98.530904 88.859913 51.19995 170.666834-98.759903v-102.3999H568.889944v102.3999l170.666834 98.531904 88.859913-51.19995 56.888944 98.531903-88.859913 51.42695V482.532404zM512 270.222611A113.777889 113.777889 0 1 0 625.777889 384.0005 113.777889 113.777889 0 0 0 512 270.222611z"  horiz-adv-x="1024" />

    
    <glyph glyph-name="zhpb-jcpz" unicode="&#59033;" d="M963.01456 513.024374L913.749608 484.580402l-3.526997-2.047998v-197.063808l52.792949-30.49197a56.888944 56.888944 0 0 0 20.820979-77.709924l-56.887944-98.531904a56.888944 56.888944 0 0 0-77.709924-20.82098l-52.793949 30.264971-170.665833-98.531904v-60.756941a56.888944 56.888944 0 0 0-56.889945-56.888944H455.112056a56.888944 56.888944 0 0 0-56.888945 56.888944v60.984941l-170.665833 98.303904-3.527997-2.047998-49.264952-28.444972a56.888944 56.888944 0 0 0-77.709924 20.821979l-56.889944 98.530904a56.888944 56.888944 0 0 0 20.821979 77.709924l49.265952 28.444972 3.526997 2.274998V482.532404l-52.792949 30.49197a56.888944 56.888944 0 0 0-20.820979 77.709924l56.887944 98.531904a56.888944 56.888944 0 0 0 77.709924 20.82098l52.793949-30.264971 170.665833 98.303904V839.111056A56.888944 56.888944 0 0 0 455.112056 896h113.776888a56.888944 56.888944 0 0 0 56.888945-56.888944v-60.984941l170.665833-98.303904 3.527997 2.047998 49.264952 28.444972a56.888944 56.888944 0 0 0 77.709924-20.821979l56.889944-98.530904a56.888944 56.888944 0 0 0-20.821979-77.937924z m-166.569838-30.49197l88.859913 51.19995-56.888944 98.530904-88.859913-51.19995-170.666834 98.759903v102.3999H455.110056v-102.3999l-170.666834-98.759903-88.859913 51.19995-56.888944-98.530904 88.859913-51.19995v-197.063808l-88.859913-51.19995 56.888944-98.530904 88.859913 51.19995 170.666834-98.759903v-102.3999H568.889944v102.3999l170.666834 98.531904 88.859913-51.19995 56.888944 98.531903-88.859913 51.42695V482.532404zM512 270.222611A113.777889 113.777889 0 1 0 625.777889 384.0005 113.777889 113.777889 0 0 0 512 270.222611z"  horiz-adv-x="1024" />

    
    <glyph glyph-name="zhpb-jxpb" unicode="&#59029;" d="M901.689 498.574l-47.787 90.966 123.677 78.904 47.502-91.022z m-389.12-399.018A284.444 284.444 0 1 0 797.013 384 284.444 284.444 0 0 0 512.57 99.556z m0 455.11A170.667 170.667 0 1 1 683.236 384a170.667 170.667 0 0 1-170.667 170.667zM455.68 896h113.778v-170.667H455.68V896zM0.057 577.08l47.502 91.023 123.335-78.848-47.502-91.022z m683.179-591.302H341.902v56.889h341.334v-56.89z m0-113.778H341.902v56.889h341.334V-128z"  horiz-adv-x="1025" />

    
    <glyph glyph-name="zhpb-znpb" unicode="&#59030;" d="M901.689 498.574l-47.787 90.966 123.677 78.904 47.502-91.022z m-389.12-399.018A284.444 284.444 0 1 0 797.013 384 284.444 284.444 0 0 0 512.57 99.556z m0 455.11A170.667 170.667 0 1 1 683.236 384a170.667 170.667 0 0 1-170.667 170.667zM455.68 896h113.778v-170.667H455.68V896zM0.057 577.08l47.502 91.023 123.335-78.848-47.502-91.022z m683.179-591.302H341.902v56.889h341.334v-56.89z m0-113.778H341.902v56.889h341.334V-128z"  horiz-adv-x="1025" />

    
    <glyph glyph-name="zhpb-zdpb" unicode="&#59031;" d="M901.689 498.574l-47.787 90.966 123.677 78.904 47.502-91.022z m-389.12-399.018A284.444 284.444 0 1 0 797.013 384 284.444 284.444 0 0 0 512.57 99.556z m0 455.11A170.667 170.667 0 1 1 683.236 384a170.667 170.667 0 0 1-170.667 170.667zM455.68 896h113.778v-170.667H455.68V896zM0.057 577.08l47.502 91.023 123.335-78.848-47.502-91.022z m683.179-591.302H341.902v56.889h341.334v-56.89z m0-113.778H341.902v56.889h341.334V-128z"  horiz-adv-x="1025" />

    
    <glyph glyph-name="zhpb-mbpb" unicode="&#59034;" d="M901.689 498.574l-47.787 90.966 123.677 78.904 47.502-91.022z m-389.12-399.018A284.444 284.444 0 1 0 797.013 384 284.444 284.444 0 0 0 512.57 99.556z m0 455.11A170.667 170.667 0 1 1 683.236 384a170.667 170.667 0 0 1-170.667 170.667zM455.68 896h113.778v-170.667H455.68V896zM0.057 577.08l47.502 91.023 123.335-78.848-47.502-91.022z m683.179-591.302H341.902v56.889h341.334v-56.89z m0-113.778H341.902v56.889h341.334V-128z"  horiz-adv-x="1025" />

    
    <glyph glyph-name="zhpb-jcpb" unicode="&#59035;" d="M967.111-128H56.89A56.889 56.889 0 0 0 0-71.111V725.333a56.889 56.889 0 0 0 56.889 56.89h170.667V839.11h113.777v-56.889h341.334v56.89h113.777v-56.89h170.667A56.889 56.889 0 0 0 1024 725.333V-71.11a56.889 56.889 0 0 0-56.889-56.89z m-56.889 796.444H796.444v-56.888H682.667v56.888H341.333v-56.888H227.556v56.888H113.778v-113.777h796.444V668.444z m0-227.555H113.778v-455.111h796.444v455.11zM341.333 241.778H227.556V355.556h113.777v-113.778z m0-170.667H227.556V184.89h113.777v-113.78zM568.89 241.778H455.11V355.556h113.78v-113.778z m0-170.667H455.11V184.89h113.78v-113.78z m227.555 170.667H682.667V355.556h113.777v-113.778z m0-170.667H682.667V184.89h113.777v-113.78z"  horiz-adv-x="1024" />

    
    <glyph glyph-name="yy-dtgl" unicode="&#59036;" d="M0-71.111111v113.777778h56.888889V839.111111h910.222222v-796.444444h56.888889v-113.777778H0zM170.666667 725.333333v-682.666666h284.444444V725.333333H170.666667z m682.666666 0h-284.444444v-682.666666h284.444444V725.333333z"  horiz-adv-x="1024" />

    
    <glyph glyph-name="xc-qnlj" unicode="&#58891;" d="M739.555556 725.333333c62.577778 0 113.777778-51.2 113.777777-113.777777s-51.2-113.777778-113.777777-113.777778-113.777778 51.2-113.777778 113.777778 51.2 113.777778 113.777778 113.777777zM898.844444 770.844444v-278.755555L455.111111 48.355556l-273.066667 273.066666 438.044445 449.422222h278.755555M967.111111 896h-375.466667c-17.066667 0-28.444444-5.688889-39.822222-17.066667L45.511111 361.244444c-22.755556-22.755556-22.755556-56.888889 0-79.644444l369.777778-369.777778c11.377778-11.377778 28.444444-17.066667 39.822222-17.066666s28.444444 5.688889 39.822222 17.066666l512 512c11.377778 11.377778 17.066667 22.755556 17.066667 39.822222V839.111111c0 34.133333-22.755556 56.888889-56.888889 56.888889z"  horiz-adv-x="1024" />

    
    <glyph glyph-name="xc-zxfj" unicode="&#58892;" d="M341.333333 440.888889h341.333334v-113.777778H341.333333zM341.333333 213.333333h341.333334v-113.777777H341.333333zM887.466667 685.511111c-62.577778 68.266667-108.088889 113.777778-187.733334 193.422222L682.666667 896H56.888889v-1024h910.222222V611.555556l-79.644444 73.955555zM807.822222 611.555556H682.666667V742.4c45.511111-45.511111 79.644444-85.333333 125.155555-130.844444z m45.511111-625.777778H170.666667V787.911111h398.222222V486.4h284.444444V-14.222222z"  horiz-adv-x="1024" />

    
    <glyph glyph-name="yy-hy" unicode="&#59023;" d="M967.111111-71.11111100000005H455.111111a56.888889 56.888889 0 0 0-56.888889 56.888889H0v113.777778h56.888889V725.333333h455.111111v-113.777777H170.666667v-512h227.555555v56.888888a227.555556 227.555556 0 0 0 227.555556 227.555556h170.666666a227.555556 227.555556 0 0 0 227.555556-227.555556v-170.666666a56.888889 56.888889 0 0 0-56.888889-56.888889z m-56.888889 170.666667a170.666667 170.666667 0 0 1-170.666666 170.666666h-56.888889a170.666667 170.666667 0 0 1-170.666667-170.666666v-56.888889h398.222222v56.888889zM711.111111 839.111111A199.111111 199.111111 0 1 0 512 640 199.111111 199.111111 0 0 0 711.111111 839.111111z m0-284.444444A85.333333 85.333333 0 1 1 625.777778 640 85.333333 85.333333 0 0 1 711.111111 554.666667z"  horiz-adv-x="1024" />

    
    <glyph glyph-name="xc-tcgl" unicode="&#58899;" d="M910.222222 725.333333H170.666667V839.111111h853.333333v-398.222222h-113.777778V725.333333zM284.444444 270.222222v-170.666666H170.666667v170.666666h113.777777z m170.666667 0v-170.666666H341.333333v170.666666h113.777778z m398.222222 398.222222v-227.555555h-113.777777V554.666667H113.777778v-512h568.888889v-113.777778H0V668.444444h853.333333z m-170.666666-512l170.666666 227.555556 170.666667-227.555556h-113.777778v-170.666666a56.888889 56.888889 0 0 0-113.777778 0v170.666666h-113.777777z"  horiz-adv-x="1024" />

    
    <glyph glyph-name="pz-ybdrdc" unicode="&#58900;" d="M385.856 448h-128l256 256v-128h384v-128h-512z m384-129.408h128l-256-256v128h-384v128h512zM832 768a64 64 0 1 0 0 128h256a64 64 0 0 0 64-64v-896a64 64 0 0 0-64-64H64a64 64 0 0 0-64 64V832a64 64 0 0 0 64 64h256a64 64 0 1 0 0-128H128v-768h896V768h-192z"  horiz-adv-x="1152" />

    
    <glyph glyph-name="pz-tyxxj" unicode="&#58901;" d="M1054.492444-101.60355600000003a56.888889 56.888889 0 0 0-80.497777 0l-45.909334 45.966223a227.555556 227.555556 0 1 0 80.440889 80.440889l45.966222-45.909334a56.888889 56.888889 0 0 0 0-80.497778z m-160.938666 321.820445a113.777778 113.777778 0 1 1 0-160.881778 113.777778 113.777778 0 0 1 0 160.881778zM967.111111 440.888889h-341.333333a56.888889 56.888889 0 0 0-56.888889 56.888889V839.111111a56.888889 56.888889 0 0 0 56.888889 56.888889h341.333333a56.888889 56.888889 0 0 0 56.888889-56.888889v-341.333333a56.888889 56.888889 0 0 0-56.888889-56.888889z m-56.888889 341.333333h-227.555555v-227.555555h227.555555V782.222222zM398.222222-128H56.888889a56.888889 56.888889 0 0 0-56.888889 56.888889v341.333333a56.888889 56.888889 0 0 0 56.888889 56.888889h341.333333a56.888889 56.888889 0 0 0 56.888889-56.888889v-341.333333a56.888889 56.888889 0 0 0-56.888889-56.888889z m-56.888889 341.333333H113.777778v-227.555555h227.555555v227.555555z m56.888889 227.555556H56.888889a56.888889 56.888889 0 0 0-56.888889 56.888889V839.111111a56.888889 56.888889 0 0 0 56.888889 56.888889h341.333333a56.888889 56.888889 0 0 0 56.888889-56.888889v-341.333333a56.888889 56.888889 0 0 0-56.888889-56.888889zM341.333333 782.222222H113.777778v-227.555555h227.555555V782.222222z"  horiz-adv-x="1072" />

    
    <glyph glyph-name="pz-yhzx" unicode="&#58902;" d="M597.333333 384A256 256 0 1 1 341.333333 640a238.933333 238.933333 0 0 1 68.266667-170.666667A568.888889 568.888889 0 0 1 0-71.11111100000005v-56.888889h682.666667a62.577778 62.577778 0 0 1 56.888889 56.888889 56.888889 56.888889 0 0 1-56.888889 56.888889H119.466667a466.488889 466.488889 0 0 0 466.488889 398.222222z m0 386.844444a130.844444 130.844444 0 0 0 125.155556-130.844444 125.155556 125.155556 0 0 0-125.155556-125.155556 130.844444 130.844444 0 0 0-130.844444 125.155556 136.533333 136.533333 0 0 0 130.844444 130.844444zM568.888889 327.11111100000005m56.888889 0l227.555555 0q56.888889 0 56.888889-56.888889l0 0q0-56.888889-56.888889-56.888889l-227.555555 0q-56.888889 0-56.888889 56.888889l0 0q0 56.888889 56.888889 56.888889ZM568.888889 156.44444399999998m56.888889 0l341.333333 0q56.888889 0 56.888889-56.888888l0 0q0-56.888889-56.888889-56.888889l-341.333333 0q-56.888889 0-56.888889 56.888889l0 0q0 56.888889 56.888889 56.888888Z"  horiz-adv-x="1024" />

    
    <glyph glyph-name="pz-xtcs" unicode="&#58904;" d="M909.943441 429.478966V838.792219a56.849063 56.849063 0 0 1-113.698126 0v-409.313253a170.547189 170.547189 0 0 1 0-318.354752V-70.79278799999997a56.849063 56.849063 0 0 1 113.698126 0v181.917002a170.547189 170.547189 0 0 1 0 318.354752zM853.094378 213.45252700000003a51.164157 51.164157 0 0 0-56.849063 56.849063 56.849063 56.849063 0 0 0 113.698126 0 51.164157 51.164157 0 0 0-56.849063-56.849063zM568.849063 656.875218V838.792219a51.164157 51.164157 0 0 1-56.849063 56.849063 51.164157 51.164157 0 0 1-56.849063-56.849063v-181.917001a170.547189 170.547189 0 0 1 0-318.354753V-70.79278799999997a51.164157 51.164157 0 0 1 56.849063-56.849063 51.164157 51.164157 0 0 1 56.849063 56.849063V338.52046499999994a170.547189 170.547189 0 0 1 0 318.354753zM512 440.848779a51.164157 51.164157 0 0 0-56.849063 56.849063 51.164157 51.164157 0 0 0 56.849063 56.849063 51.164157 51.164157 0 0 0 56.849063-56.849063 51.164157 51.164157 0 0 0-56.849063-56.849063zM227.754685 429.478966V838.792219a51.164157 51.164157 0 0 1-56.849063 56.849063 51.164157 51.164157 0 0 1-56.849063-56.849063v-409.313253a170.547189 170.547189 0 0 1 0-318.354752V-70.79278799999997a51.164157 51.164157 0 0 1 56.849063-56.849063 51.164157 51.164157 0 0 1 56.849063 56.849063v181.917002a170.547189 170.547189 0 0 1 0 318.354752zM170.905622 213.45252700000003a51.164157 51.164157 0 0 0-56.849063 56.849063 51.164157 51.164157 0 0 0 56.849063 56.849063 51.164157 51.164157 0 0 0 56.849063-56.849063 51.164157 51.164157 0 0 0-56.849063-56.849063z"  horiz-adv-x="1024" />

    
    <glyph glyph-name="yy-dzq" unicode="&#58905;" d="M906.858558 38.129434999999944l30.200181-165.78819L796.238307-46.271825000000035l-140.592935-81.38693 30.200181 165.78819L568.741648 153.58398999999997l159.247661 21.043441L796.238307 327.448312l68.248998-152.764007 159.247661-21.043441zM636.990646 478.506093L703.988412 366.80523400000004l-76.836997-61.480972-83.093155 138.659213A225.278567 225.278567 0 0 0 511.867483 440.741648a225.278567 225.278567 0 0 0-32.190777 3.241827L375.369488 270.119154h207.590701L511.867483 213.24498900000003v-56.874165H284.370824c-94.240491 0-170.622494-170.622494-170.622494-170.622494h398.119153v-113.74833H56.874165a56.874165 56.874165 0 0 0-56.874165 56.874165v56.874165a283.460837 283.460837 0 0 0 260.14243 281.925235L386.744321 478.506093a227.496659 227.496659 0 1 0 250.246325 0zM511.867483 781.986637a113.74833 113.74833 0 1 1 113.74833-113.74833 113.74833 113.74833 0 0 1-113.74833 113.74833z"  horiz-adv-x="1024" />

    


  </font>
</defs>
</svg>
