<?xml version="1.0" standalone="no"?>
<!DOCTYPE svg PUBLIC "-//W3C//DTD SVG 1.1//EN" "http://www.w3.org/Graphics/SVG/1.1/DTD/svg11.dtd" >
<svg xmlns="http://www.w3.org/2000/svg">
<metadata>
Created by FontForge 20120731 at Tue Feb 21 18:08:25 2017
 By admin
</metadata>
<defs>
<font id="woqu" horiz-adv-x="1024" >
  <font-face 
    font-family="woqu"
    font-weight="500"
    font-stretch="normal"
    units-per-em="1024"
    panose-1="2 0 6 3 0 0 0 0 0 0"
    ascent="896"
    descent="-128"
    x-height="792"
    bbox="-157098 -128 8025 136283"
    underline-thickness="0"
    underline-position="0"
    unicode-range="U+0078-E65E"
  />
<missing-glyph 
 />
    <glyph glyph-name=".notdef" 
 />
    <glyph glyph-name=".notdef" 
 />
    <glyph glyph-name=".null" horiz-adv-x="0" 
 />
    <glyph glyph-name="nonmarkingreturn" horiz-adv-x="341" 
 />
    <glyph glyph-name="x" unicode="x" horiz-adv-x="1001" 
d="M281 543q-27 -1 -53 -1h-83q-18 0 -36.5 -6t-32.5 -18.5t-23 -32t-9 -45.5v-76h912v41q0 16 -0.5 30t-0.5 18q0 13 -5 29t-17 29.5t-31.5 22.5t-49.5 9h-133v-97h-438v97zM955 310v-52q0 -23 0.5 -52t0.5 -58t-10.5 -47.5t-26 -30t-33 -16t-31.5 -4.5q-14 -1 -29.5 -0.5
t-29.5 0.5h-32l-45 128h-439l-44 -128h-29h-34q-20 0 -45 1q-25 0 -41 9.5t-25.5 23t-13.5 29.5t-4 30v167h911zM163 247q-12 0 -21 -8.5t-9 -21.5t9 -21.5t21 -8.5q13 0 22 8.5t9 21.5t-9 21.5t-22 8.5zM316 123q-8 -26 -14 -48q-5 -19 -10.5 -37t-7.5 -25t-3 -15t1 -14.5
t9.5 -10.5t21.5 -4h37h67h81h80h64h36q23 0 34 12t2 38q-5 13 -9.5 30.5t-9.5 34.5q-5 19 -11 39h-368zM336 498v228q0 11 2.5 23t10 21.5t20.5 15.5t34 6h188q31 0 51.5 -14.5t20.5 -52.5v-227h-327z" />
    <glyph glyph-name="add_device" unicode="&#xe601;" horiz-adv-x="1280" 
d="M1203 -128h-1126q-32 0 -54.5 22.5t-22.5 54.5v870q0 32 22.5 54.5t54.5 22.5h1126q32 0 54.5 -22.5t22.5 -54.5v-870q0 -32 -22.5 -54.5t-54.5 -22.5zM639 -102h1q27 0 45.5 18.5t18.5 45t-18.5 45.5t-45.5 19h-1q-26 0 -45 -19t-19 -45.5t19 -45t45 -18.5zM1178 769
q0 10 -7.5 17.5t-18.5 7.5h-1024q-11 0 -18.5 -7.5t-7.5 -17.5v-667q0 -10 7.5 -17.5t18.5 -7.5h1024q11 0 18.5 7.5t7.5 17.5v667z" />
    <glyph glyph-name="apple" unicode="&#xe603;" 
d="M942 153q-31 -71 -63 -121q-19 -29 -35 -50t-38 -44.5t-47 -36t-50 -12.5q-26 -1 -49.5 9.5t-51.5 21.5t-65 10q-46 0 -92 -21t-76 -21q-48 1 -88 38.5t-79 97.5q-55 87 -80 183t-18 178t43 138q37 58 92 91.5t111 33.5q40 0 98 -21.5t88 -21.5q27 0 82.5 21.5
t102.5 21.5q50 0 99.5 -26.5t87.5 -74.5q-48 -26 -76 -69.5t-32.5 -91t8 -93.5t46.5 -84t82 -56zM512 642q-8 40 6.5 81.5t41.5 75t68 56t80 25.5q12 -83 -47 -161q-26 -35 -67 -57t-82 -20z" />
    <glyph glyph-name="add_shopping_point" unicode="&#xe604;" 
d="M512 896q106 0 199.5 -40t162.5 -110t109 -163t40 -199.5t-40 -199t-109 -162.5t-162.5 -110t-199.5 -40t-199 40t-162.5 110t-109.5 162.5t-40 199t40 199.5t109.5 163t162.5 110t199 40zM812 151q6 17 10 39t6 46q-17 7 -33.5 13.5t-34.5 14.5q-1 -15 -3.5 -33.5
t-6.5 -42.5q-6 -37 -54 -37h-37q-49 -4 -46 42v167l94 2l43 -43l56 50q-48 43 -95.5 85t-94.5 81l-48 -37q6 -6 15 -14t22 -20q27 -24 38 -39l-292 -7q67 56 159 147h310v68h-261q-1 4 -3 11l-4 17q-7 20 -11 32.5t-6 19.5l-81 -8q2 -7 6 -19l10 -30t7 -23h-286v-68h222
q-58 -64 -118 -112q-28 -28 -65 -44l36 -68q10 3 29 5.5t51 4.5h30q0 -92 -41 -133q-35 -43 -153 -80q3 -5 6.5 -10.5t9.5 -14.5q10 -14 17 -23.5t10 -17.5q240 74 225 285l90 3v-188q-2 -86 89 -83h81q87 -3 102 62v0z" />
    <glyph glyph-name="brokenHeart" unicode="&#xe605;" 
d="M650 686q5 2 13.5 5.5t34.5 9.5t51 6.5t58.5 -8t61.5 -28t56 -60.5t45 -100q2 -4 3.5 -12.5t2.5 -30t-1 -44t-12.5 -53t-28.5 -58.5t-51.5 -59t-78.5 -56q-12 -6 -26 -14.5t-53 -35.5t-71.5 -54.5t-69.5 -69t-59 -83.5q-2 6 -8 17.5t-30.5 44t-54.5 63.5t-84.5 70
t-118.5 70q-5 3 -14 8.5t-30.5 22t-39.5 36.5t-36 52t-26 67t-3.5 83t26.5 98q2 5 8 16t22.5 32.5t36.5 40.5t51 33.5t64.5 17.5t77.5 -12.5t91 -52.5l19 -20l-106 -159l178 -121l-82 -109l82 -166l-23 155l125 128l-163 127z" />
    <glyph glyph-name="calendar" unicode="&#xe606;" 
d="M976 -128h-928q-20 0 -34 14t-14 34v832q0 20 14 34t34 14h80v-48q0 -46 33 -79t79 -33t79 33t33 79v48h320v-48q0 -46 33 -79t79 -33t79 33t33 79v48h80q20 0 34 -14t14 -34v-832q0 -20 -14 -34t-34 -14zM256 576h-160v-160h160v160zM256 352h-160v-160h160v160z
M256 128h-160v-160h160v160zM320 -32h160v160h-160v-160zM320 192h160v160h-160v-160zM320 576v-160h160v160h-160zM704 576h-160v-160h160v160zM704 352h-160v-160h160v160zM704 128h-160v-160h160v160zM928 576h-160v-160h160v160zM928 352h-160v-160h160v160zM928 128
h-160v-160h160v160zM784 704q-20 0 -34 14t-14 34v96q0 20 14 34t34 14t34 -14t14 -34v-96q0 -20 -14 -34t-34 -14zM240 704q-20 0 -34 14t-14 34v96q0 20 14 34t34 14t34 -14t14 -34v-96q0 -20 -14 -34t-34 -14z" />
    <glyph glyph-name="bumen" unicode="&#xe607;" 
d="M529 321q69 33 111.5 99t42.5 146q0 113 -80 193t-193.5 80t-193 -80t-79.5 -193q0 -80 42 -146t111 -99q-119 -37 -199 -135.5t-89 -225.5q-2 -4 -2 -8v0q0 -10 6.5 -16.5t16 -6.5t16.5 6.5t7 16.5h1q9 143 113.5 242t249 99t249.5 -99t114 -242h1q0 -10 6.5 -16.5
t16 -6.5t16 6.5t6.5 16.5q0 4 -2 8q-9 127 -88.5 225.5t-199.5 135.5zM182 566q0 94 66.5 161t161 67t161 -67t66.5 -161t-66.5 -161t-161 -67t-161 67t-66.5 161zM1022 -40q-9 127 -89 225.5t-199 135.5q69 33 111 99t42 146q0 113 -79.5 193t-193.5 80q-16 0 -36 -3
q31 -19 55 -43q88 -8 148.5 -73t60.5 -154t-60 -154t-147 -72q2 -6 2 -13v0q0 -1 -0.5 -2.5l-0.5 -1.5q33 -19 58 -39q117 -26 196.5 -118.5t86.5 -213.5h1q0 -10 7 -16.5t16.5 -6.5t16 6.5t6.5 16.5q0 4 -2 8v0z" />
    <glyph glyph-name="camera" unicode="&#xe608;" horiz-adv-x="1365" 
d="M1263 -128h-1161q-42 0 -72 30t-30 73v682q0 42 30 72t72 30h239l73 118q20 19 43 19h454q8 0 17.5 -4.5t15.5 -8.5l5 -4l75 -120h239q42 0 72 -30t30 -72v-682q0 -43 -30 -73t-72 -30zM681 584q-118 0 -201.5 -83.5t-83.5 -201t83.5 -201t201.5 -83.5t201 83.5t83 201
t-83 201t-201 83.5zM682.5 71q-94.5 0 -161 66.5t-66.5 161t66.5 161t161 66.5t161 -66.5t66.5 -161t-66.5 -161t-161 -66.5z" />
    <glyph glyph-name="checkBill" unicode="&#xe60a;" 
d="M320 896q-27 0 -45.5 -18.5t-18.5 -45.5v-64h491q26 0 45 -18.5t19 -45.5v-661h64q26 0 45 18.5t19 45.5v725q0 27 -19 45.5t-45 18.5h-555zM149 725q-26 0 -45 -18.5t-19 -45.5v-725q0 -27 19 -45.5t45 -18.5h555q27 0 45.5 18.5t18.5 45.5v725q0 27 -18.5 45.5
t-45.5 18.5h-555zM171 491h512v-43h-512v43zM171 320h512v-43h-512v43zM171 149h341v-42h-341v42z" />
    <glyph glyph-name="chexiao" unicode="&#xe60b;" 
d="M512 -128q-167 0 -300 98t-185 252q-11 17 -11 34q0 26 18.5 45t45 19t45.5 -19t19 -45h1q33 -116 118 -186t206 -70q79 0 156.5 30.5t137 81.5t96.5 123t37 149q0 159 -112.5 271.5t-271.5 112.5q-98 0 -181.5 -46t-136.5 -125h147q18 0 30.5 -12.5t12.5 -29.5v-43
q0 -18 -12.5 -30.5t-30.5 -12.5h-333q0 3 1 8t2 7q-5 6 -8 13t-3 15v299q0 17 12.5 29.5t30.5 12.5h42q18 0 30.5 -12.5t12.5 -29.5v-90q72 82 171.5 128.5t212.5 46.5q104 0 199 -40.5t163.5 -109t109 -163.5t40.5 -199t-40.5 -199t-109 -163.5t-163.5 -109t-199 -40.5z
" />
    <glyph glyph-name="chk" unicode="&#xe60c;" 
d="M512 853q95 0 182 -37t150 -100t100 -150t37 -182t-37 -182t-100 -150t-150 -100t-182 -37t-182 37t-150 100t-100 150t-37 182t37 182t100 150t150 100t182 37zM512 896q-139 0 -257 -68.5t-186.5 -186.5t-68.5 -257t68.5 -257t186.5 -186.5t257 -68.5t257 68.5
t186.5 186.5t68.5 257t-68.5 257t-186.5 186.5t-257 68.5z" />
    <glyph glyph-name="clear_leave" unicode="&#xe60d;" 
d="M512 896q-139 0 -257 -68.5t-186.5 -186.5t-68.5 -257t68.5 -257t186.5 -186.5t257 -68.5t257 68.5t186.5 186.5t68.5 257t-68.5 257t-186.5 186.5t-257 68.5zM256 427h512q18 0 30.5 -12.5t12.5 -30.5t-12.5 -30.5t-30.5 -12.5h-512q-18 0 -30.5 12.5t-12.5 30.5
t12.5 30.5t30.5 12.5z" />
    <glyph glyph-name="clock" unicode="&#xe60e;" 
d="M512 -128q-139 0 -257 68.5t-186.5 186.5t-68.5 257t68.5 257t186.5 186.5t257 68.5t257 -68.5t186.5 -186.5t68.5 -257t-68.5 -257t-186.5 -186.5t-257 -68.5zM512 794q-111 0 -205.5 -55t-149.5 -149.5t-55 -205.5t55 -205.5t149.5 -149.5t205.5 -55t205.5 55
t149.5 149.5t55 205.5t-55 205.5t-149.5 149.5t-205.5 55zM768 282h-273q-21 0 -36 15t-15 36v307q0 21 15 36t36 15t36 -15t15 -36v-256h222q21 0 36 -15t15 -36t-15 -36t-36 -15z" />
    <glyph glyph-name="credit_card_payment" unicode="&#xe60f;" 
d="M878 774h-732q-60 0 -103 -43t-43 -103v-35h1024v35q0 60 -43 103t-103 43zM0 140q0 -60 43 -103t103 -43h732q60 0 103 43t43 103v355h-1024v-355v0zM690 274h244l-99 -170h-243z" />
    <glyph glyph-name="department" unicode="&#xe610;" horiz-adv-x="1280" 
d="M1195 -128h-86q-35 0 -60 25t-25 60v171q0 35 25 60t60 25v171h-426v-171q35 0 60 -25t25 -60v-171q0 -35 -25 -60t-60 -25h-86q-35 0 -60 25t-25 60v171q0 35 25 60t60 25v171h-426v-171q35 0 60 -25t25 -60v-171q0 -35 -25 -60t-60 -25h-86q-35 0 -60 25t-25 60v171
q0 35 25 60t60 25v171q0 35 25 60t61 25h426v171h-256q-35 0 -60 25t-25 60v86q0 35 25 60t60 25h598q35 0 60 -25t25 -60v-86q0 -35 -25 -60t-60 -25h-256v-171h426q36 0 61 -25t25 -60v-171q35 0 60 -25t25 -60v-171q0 -35 -25 -60t-60 -25z" />
    <glyph glyph-name="backtop" unicode="&#xe611;" 
d="M933 409l-421 423l-420 -423v64l420 423l421 -423v-64zM180 -123v280h-104v37h251v-37h-105v-280h-42zM349 32q0 79 42.5 123.5t109.5 44.5q44 0 79 -21t53.5 -58.5t18.5 -85.5t-19.5 -86t-55 -57.5t-76.5 -19.5q-45 0 -80.5 21.5t-53.5 59t-18 79.5zM392 31
q0 -57 31 -90t78 -33t77.5 33.5t30.5 94.5q0 38 -13 67t-38 45t-57 16q-44 0 -76.5 -30.5t-32.5 -102.5v0zM706 -123v317h120q31 0 48 -3q24 -3 39.5 -14t25 -31t9.5 -43q0 -41 -25.5 -69t-92.5 -28h-82v-129h-42zM748 44h82q41 0 58 15t17 42q0 20 -10 34.5t-26 18.5
q-11 3 -40 3h-81v-113v0z" />
    <glyph glyph-name="device" unicode="&#xe612;" horiz-adv-x="1229" 
d="M717 743q0 22 -15 37t-36 15h-512q-22 0 -36.5 -15t-14.5 -37v-666q0 -21 14.5 -36t36.5 -15h512q21 0 36 15t15 36v666zM1101 742h-256q-11 0 -18.5 -7.5t-7.5 -18t7.5 -18t18.5 -7.5h256q11 0 18 7.5t7 18t-7 18t-18 7.5zM1101 640h-256q-11 0 -18.5 -7.5t-7.5 -18
t7.5 -18t18.5 -7.5h256q11 0 18 7.5t7 18t-7 18t-18 7.5zM1101 538h-256q-11 0 -18.5 -7.5t-7.5 -18.5t7.5 -18.5t18.5 -7.5h256q11 0 18 7.5t7 18.5t-7 18.5t-18 7.5zM1126 230q0 22 -14.5 37t-36.5 15h-205q-21 0 -36 -15t-15 -37v-153q0 -21 15 -36t36 -15h205
q22 0 36.5 15t14.5 36v153zM168 262q8 9 17 16q6 5 13 10q36 22 79 24q22 4 37.5 10.5t21.5 13.5t8.5 13.5t3 10.5l0.5 4q0 3 -0.5 9.5t-0.5 9.5v18l-8 5q-24 18 -36 46q-24 6 -25 30l-1 13q-2 6 -2 12q0 17 13 27q9 0 7 12q-1 15 -1 31q0 21 2 42q1 18 12 32.5t28 21.5
q8 2 17 2q6 0 11 -1q10 8 24 10l36 7q14 -1 23 -12q7 -8 16 -14l4 0.5t6 0.5q12 0 23 -2q10 -2 16 -10t7.5 -15t2.5 -19t2 -13q1 -14 1 -28v-1q0 -18 -2 -36q-2 -4 0 -6t4 -2h2q13 -8 13 -24v-7v-15v-1q0 -3 -1 -6q-8 -21 -29 -27q-9 -26 -28 -44l-6 -6l-6 -5l-1 -33v-3
q0 -6 1 -11t6.5 -14t20 -15.5t38.5 -9.5q66 -2 110 -51q11 -16 13 -35l6 -48h-512q-2 9 -2 19q0 34 17 64h-1zM102 896h1024q43 0 73 -30t30 -72v-820q0 -42 -30 -72t-73 -30h-1024q-42 0 -72 30t-30 72v820q0 42 30 72t72 30z" />
    <glyph glyph-name="contactus" unicode="&#xe613;" 
d="M744 -122q-79 0 -209 80q-123 76 -240 190v1l-25 24q-114 117 -190 240q-80 130 -80 209q0 78 71 173q14 18 30 35.5t44.5 38.5t51.5 21q29 0 71 -43q31 -32 66 -83q34 -48 56 -91q27 -50 27 -75q0 -32 -33 -55q-15 -10 -49 -25q-30 -13 -37 -18q6 -24 42 -77
q42 -62 92 -113q51 -50 113 -92q53 -36 77 -42q6 7 18 37q15 34 25 49q23 33 55 33q25 0 75 -27q44 -22 91 -56q51 -35 83 -66q43 -42 43 -72q0 -22 -20.5 -51t-38.5 -44.5t-36 -29.5q-95 -71 -173 -71zM337 191q112 -110 230 -182q115 -71 177 -71q56 0 134 57q33 24 55 49
q16 19 19 29q-5 11 -31.5 36t-73.5 58q-43 29 -80 49q-33 17 -46 19q-4 -3 -9.5 -12t-16.5 -34q-13 -30 -21 -43q-20 -30 -48 -30h-1q-38 1 -113 52q-67 46 -122 99l-1 1q-53 55 -98 121q-52 76 -53 113q0 29 30 50q13 8 43 21q25 11 34 16.5t12 9.5q-2 13 -19 46
q-20 37 -49 80q-33 47 -58 73.5t-35 31.5q-11 -3 -29 -19q-25 -22 -50 -55q-57 -78 -57 -134q0 -62 71 -177q72 -118 182 -231l24 -23v0zM692 405q-8 0 -14 5.5t-7 13.5q-8 47 -50 74q-42 28 -93 19q-9 -2 -16 3t-9 14t3.5 16.5t14.5 9.5q68 12 124 -26q57 -37 69 -103
q2 -9 -3.5 -16.5t-14.5 -8.5q-2 -1 -4 -1zM824 462q-8 0 -14 5t-7 13q-16 92 -96 144q-81 53 -179 36q-9 -1 -16 4t-9 14t3.5 16.5t14.5 8.5q115 21 210 -42t115 -173q1 -9 -4 -16.5t-14 -9.5h-4zM1000 478q-8 0 -14 5.5t-7 12.5q-14 76 -56 139.5t-108 106.5
q-66 44 -144 60t-159 1q-9 -1 -16.5 4t-9 14t4 16.5t14.5 8.5q88 16 174.5 -1.5t159.5 -65.5q74 -49 121 -119.5t62 -155.5q1 -9 -4 -16.5t-14 -8.5q-2 -1 -4 -1z" />
    <glyph glyph-name="down" unicode="&#xe614;" horiz-adv-x="1593" 
d="M75 892h1438q35 0 53.5 -30.5t-0.5 -66.5q-9 -16 -353 -427.5t-365 -447.5q-18 -33 -53.5 -32.5t-53.5 32.5q-12 21 -357.5 434t-361.5 443q-17 31 -0.5 63t53.5 32z" />
    <glyph glyph-name="error" unicode="&#xe615;" 
d="M512 896q-104 0 -199 -40.5t-163.5 -109t-109 -163.5t-40.5 -199t40.5 -199t109 -163.5t163.5 -109t199 -40.5t199 40.5t163.5 109t109 163.5t40.5 199t-40.5 199t-109 163.5t-163.5 109t-199 40.5zM569 71h-114v114h114v-114zM540 242h-56l-29 426h114z" />
    <glyph glyph-name="fanhui" unicode="&#xe616;" 
d="M512 -128q139 0 257 68.5t186.5 186.5t68.5 257t-68.5 257t-186.5 186.5t-257 68.5t-257 -68.5t-186.5 -186.5t-68.5 -257t68.5 -257t186.5 -186.5t257 -68.5zM736 352h-339l132 -132q10 -9 10 -22.5t-9.5 -23t-23 -9.5t-22.5 10l-181 181q-11 11 -8 28q-3 17 8 28
l181 181q9 10 22.5 10t23 -9.5t9.5 -23t-10 -22.5l-132 -132h339q13 0 22.5 -9.5t9.5 -22.5t-9.5 -22.5t-22.5 -9.5z" />
    <glyph glyph-name="gps" unicode="&#xe617;" 
d="M512 -128q-18 0 -66.5 39.5t-109 106t-117.5 143.5t-95.5 162t-38.5 151q0 115 57.5 212t155.5 153.5t214 56.5t214 -56.5t155.5 -153.5t57.5 -212q0 -66 -38.5 -151t-95.5 -162t-117.5 -143.5t-109 -106t-66.5 -39.5zM512 811q-93 0 -171.5 -46t-124 -124.5
t-45.5 -171.5q0 -53 31 -122.5t76.5 -131.5t94 -116.5t87.5 -86.5t52 -32t52 32t87.5 86.5t94 116.5t76.5 131.5t31 122.5q0 93 -45.5 171.5t-124 124.5t-171.5 46zM512 256q-88 0 -150.5 62.5t-62.5 151t62.5 151t150.5 62.5t150.5 -62.5t62.5 -151t-62.5 -151
t-150.5 -62.5zM512 597q-53 0 -90.5 -37.5t-37.5 -90.5t37.5 -90.5t90.5 -37.5t90.5 37.5t37.5 90.5t-37.5 90.5t-90.5 37.5z" />
    <glyph glyph-name="del" unicode="&#xe618;" horiz-adv-x="1063" 
d="M1024 660h-985q-16 0 -27.5 11.5t-11.5 27.5t11.5 27.5t27.5 11.5h237v118q0 17 11.5 28.5t27.5 11.5h433q16 0 27.5 -11.5t11.5 -28.5v-118h237q16 0 27.5 -11.5t11.5 -27.5t-11.5 -27.5t-27.5 -11.5zM709 817h-355v-79h355v79zM394 108v433q0 17 11.5 28.5t27.5 11.5
t27.5 -11.5t11.5 -28.5v-433q0 -16 -11.5 -27.5t-27.5 -11.5t-27.5 11.5t-11.5 27.5zM591 108v433q0 17 11.5 28.5t27.5 11.5t27.5 -11.5t11.5 -28.5v-433q0 -16 -11.5 -27.5t-27.5 -11.5t-27.5 11.5t-11.5 27.5zM197 620q16 0 27.5 -11.5t11.5 -27.5v-630h591v630
q0 16 11.5 27.5t27.5 11.5t28 -11.5t12 -27.5v-669q0 -17 -12 -28.5t-28 -11.5h-669q-16 0 -28 11.5t-12 28.5v669q0 16 12 27.5t28 11.5v0z" />
    <glyph glyph-name="goout" unicode="&#xe619;" horiz-adv-x="1229" 
d="M1075.5 -128q-63.5 0 -108.5 45t-45 109v51h-615v-51q0 -64 -45 -109t-108.5 -45t-108.5 45t-45 109v384q0 41 20.5 75.5t54.5 54.5q-24 27 -24 62q0 37 26.5 63t63.5 26v0q13 0 25 -4l65 158q0 21 14.5 36t36.5 15h665q22 0 37 -15t15 -36l65 -158q11 4 24 4v0
q37 0 63.5 -26t26.5 -63q0 -36 -25 -61q35 -21 55.5 -55.5t20.5 -75.5v-384q0 -64 -45 -109t-108.5 -45zM269 179q37 0 63 26.5t26 63.5t-26 63t-63 26t-63.5 -26t-26.5 -63t26.5 -63.5t63.5 -26.5zM1023 540q-24 26 -25 62l0.5 1t0.5 2l-52 137q-14 35 -31 56t-46 21h-512
q-29 0 -46.5 -20.5t-29.5 -56.5l-52 -137v-2v-1q0 -36 -24 -62l-1 -2h819zM960 358q-37 0 -63.5 -26t-26.5 -63t26.5 -63.5t63.5 -26.5t63.5 26.5t26.5 63.5t-26.5 63t-63.5 26z" />
    <glyph glyph-name="good" unicode="&#xe61a;" 
d="M287 454q-32 -20 -32 -50v-478h2q4 -23 22.5 -38.5t43.5 -15.5h567q28 0 48 19.5t20 47.5t-20 48t-48 20h41q34 0 57.5 23.5t23.5 57t-24 57t-57 23.5q34 0 57.5 24t23.5 57.5t-24 57t-57 23.5h-47q31 0 52.5 21.5t21.5 52.5v-13q0 31 -22 53.5t-52 23.5q-122 5 -253 8
q39 145 16 272q-8 42 -30 68.5t-48.5 30.5t-51.5 -4t-42 -34t-17 -61q-4 -33 -6 -62.5t-2.5 -41.5t-4.5 -29.5t-14 -41.5q-23 -59 -130 -112q-7 -2 -13 -6l-2 -1h1zM71 438q-24 0 -41.5 -17t-17.5 -42v-394q0 -25 17.5 -42t41.5 -17h130v512h-130z" />
    <glyph glyph-name="gpsTwo" unicode="&#xe61b;" 
d="M512 -46q-12 0 -53.5 39t-94.5 104t-103.5 138.5t-85 153t-34.5 136.5q0 101 49.5 186.5t135 135t186.5 49.5t186.5 -49.5t135 -135t49.5 -186.5q0 -57 -34.5 -136.5t-85 -153t-103.5 -138.5t-94.5 -104t-53.5 -39zM512 831h-2q-127 0 -217 -89.5t-90 -216.5
q0 -48 30 -115.5t73 -130.5t88 -119.5t78.5 -90.5t39.5 -34t39.5 34t78.5 90.5t88 119.5t73 130.5t30 115.5q0 127 -90 216.5t-217 89.5h-2v0zM512 341q-76 1 -129 54.5t-53 129.5t54 130t130 54t130 -54t54 -130v0q-1 -76 -55 -130t-130 -54h-1v0zM512 648
q-50 -1 -85.5 -37t-35.5 -86q0 -51 35.5 -86.5t86.5 -35.5t87 35.5t36 86.5v0q0 51 -36.5 87t-86.5 36h-1v0zM300 88l51 -45q-107 -18 -107 -49q0 -25 79 -45t189 -20t189 20t79 45q0 31 -107 49l51 45q55 -17 86.5 -41.5t31.5 -52.5q0 -33 -44 -61t-120 -44.5t-166 -16.5
t-166 16.5t-120 44.5t-44 61q0 28 31.5 52.5t86.5 41.5z" />
    <glyph glyph-name="email" unicode="&#xe61c;" 
d="M933 768h-842q-37 0 -64 -27t-27 -64v-586q0 -37 27 -64t64 -27h842q37 0 64 27t27 64v586q0 37 -27 64t-64 27zM654 407l331 279l0.5 0.5l0.5 0.5q1 -5 1 -10v-586q0 -6 -2 -15zM933 731q20 0 36 -14q-4 -1 -7 -3l-450 -379l-110 92v0.5v0.5q-1 1 -2 1.5l-1 0.5
l-337 284q-3 2 -7 3q16 14 36 14h842zM37 91v586q0 5 1 10l0.5 -0.5l0.5 -0.5l323 -272l-325 -325v1.5v0.5v0zM91 37q-25 0 -42 20q8 0 13 5l328 328l110 -93q1 0 2 -1h1q0 -1 1 -1t1 -1q4 -1 7 -1t7 1q0 1 1 1h1l3 2l102 86l336 -336h1t1 -1q-14 -9 -31 -9h-842v0z" />
    <glyph glyph-name="homeGPS" unicode="&#xe61d;" 
d="M994 -128h-377q-3 0 -7 1q-4 -1 -8 -1h-572q-12 0 -21 9t-9 21v964q0 12 9 21t21 9h572q13 0 21.5 -9t8.5 -21v-346h362q12 0 21 -9t9 -22v-587q0 -12 -9 -21t-21 -9zM587 489v347q0 6 -4.5 10.5t-10.5 4.5h-512q-6 0 -10.5 -4.5t-4.5 -10.5v-904q0 -6 4.5 -10.5
t10.5 -4.5h136v196q0 12 8.5 21t21.5 9h181q12 0 21 -9t9 -21v-196h135q6 0 10.5 4.5t4.5 10.5v557zM979 459q0 7 -4.5 11t-10.5 4h-316q-7 0 -11.5 -4t-4.5 -11v-527q0 -6 4.5 -10.5t11.5 -4.5h30v166q0 12 8.5 21t21.5 9h180q13 0 22 -9t9 -21v-166h45q6 0 10.5 4.5
t4.5 10.5v527zM896 203h-196q-9 0 -15.5 7t-6.5 16t6.5 15.5t15.5 6.5h196q9 0 16 -6.5t7 -15.5t-7 -16t-16 -7zM896 339h-196q-9 0 -15.5 6.5t-6.5 16t6.5 16t15.5 6.5h196q9 0 16 -6.5t7 -16t-7 -16t-16 -6.5zM414 264q-9 0 -15.5 6.5t-6.5 15.5v422q0 9 6.5 15.5
t15.5 6.5t16 -6.5t7 -15.5v-422q0 -9 -7 -15.5t-16 -6.5zM218.5 264q-9.5 0 -16 6.5t-6.5 15.5v422q0 9 6.5 15.5t16 6.5t16 -6.5t6.5 -15.5v-422q0 -9 -6.5 -15.5t-16 -6.5z" />
    <glyph glyph-name="join_company" unicode="&#xe61e;" 
d="M1010 6q2 -6 2 -11t-1 -9v-0.5v-0.5q0 -22 -38 -36q-5 -1 -15 -5q-46 -17 -75.5 -26t-85.5 -21.5t-127.5 -18.5t-160.5 -6q-57 0 -112.5 4t-99.5 11t-84 15t-68.5 16.5t-49.5 15t-32 11t-10 4.5q-2 0 -5 2q-25 3 -33 27q-3 6 -3 12q0 57 13.5 96.5t35.5 58t50 30.5t58 14
t58.5 8.5t51.5 15t37.5 31.5t16.5 60q-54 46 -87.5 118t-33.5 121l36 109l-2 162l80 21q2 2 6.5 6t20 15t34 19t49.5 14.5t65 6.5q111 0 181.5 -70.5t70.5 -173.5l39 -109q0 -48 -31 -126t-72 -114q-1 -32 12 -53.5t34.5 -30.5t50 -16.5t58 -11.5t58 -16t52 -30t39 -53.5
t17.5 -85.5v0z" />
    <glyph glyph-name="jd" unicode="&#xe61f;" horiz-adv-x="2539" 
d="M1142 369v294h-1102v-295h469v-281q0 -70 -27 -94t-82 -25v-87q142 4 208 61q66 58 66 176v250h468v1zM983 460h-784v112h784v-112zM674 887h-165v-70h-509v-91h1182v91h-508v70zM0 -117h94q157 138 233 357l20 67h-181q-29 -228 -166 -424v0zM836 307q2 -10 7 -28
t24.5 -70t45.5 -101.5t72.5 -112.5t103.5 -111h93q-137 195 -165 423h-181zM1356 -117h94q56 49 102.5 111t73 115t45 99t25.5 73l6 26h-181q-28 -228 -165 -424zM2192 307q3 -10 7.5 -28t24.5 -70t45.5 -101.5t72.5 -112.5t103 -111h94q-137 195 -166 423h-181zM1772 817
l32 70h-166l-32 -70h-250v-91h207l-167 -358h480v-281q0 -70 -27 -94q-27 -23 -82 -25v-87q142 4 208 61.5t66 175.5v250h458v92h-458v198h-165v-198h-269l123 266h809v91h-767z" />
    <glyph glyph-name="homeWIFI" unicode="&#xe620;" 
d="M999 367h-112v-465q0 -12 -9 -21t-21 -9h-240v0h-210v0h-240q-12 0 -21 9t-9 21v465h-112q-10 0 -16.5 6.5t-6.5 15.5q1 0 1.5 0.5l0.5 0.5h-2l478 488q13 14 32 14t32 -14l477 -489h0.5h0.5q0 -9 -6.5 -15.5t-16.5 -6.5zM523 836q-11 11 -22 0l-414 -424h73
q9 0 15.5 -6.5t6.5 -16.5v-2t-1 -1h1v-469h195v210q0 12 9 21t21 9h210q12 0 21 -9t9 -21v-210h195v469h1q-1 0 -1 1v2q0 10 6.5 16.5t15.5 6.5h72zM512 247q-62 0 -106 44t-44 106t44 106t106 44t106 -44t44 -106t-44 -106t-106 -44zM512 502q-43 0 -74 -31t-31 -74.5
t31 -74t74 -30.5t74 30.5t31 74t-31 74.5t-74 31z" />
    <glyph glyph-name="jinzhi" unicode="&#xe621;" 
d="M513.5 836q-91.5 0 -174.5 -35.5t-143.5 -96t-96 -143.5t-35.5 -174.5t35.5 -175t96 -143.5t143.5 -95.5t174.5 -35.5t175 35.5t143.5 95.5t95.5 143.5t35.5 175t-35.5 174.5t-95.5 143.5t-143.5 96t-175 35.5zM735 345h-443q-17 0 -29 12t-12 29t12 29t29 12h443
q17 0 29.5 -12t12.5 -29t-12.5 -29t-29.5 -12z" />
    <glyph glyph-name="leave" unicode="&#xe622;" 
d="M512 -128q-139 0 -257 68.5t-186.5 186.5t-68.5 257t68.5 257t186.5 186.5t257 68.5t257 -68.5t186.5 -186.5t68.5 -257t-68.5 -257t-186.5 -186.5t-257 -68.5zM731 277l-198 118v330q0 18 -12.5 30.5t-30 12.5t-30 -12.5t-12.5 -30.5v-362q0 -19 14 -31q1 -2 2 -3l4 -2
l0.5 -0.5l0.5 -0.5l215 -128q9 -5 19 -5q26 0 38 23q7 11 7 25q0 22 -17 36v0z" />
    <glyph glyph-name="legwork_sign" unicode="&#xe623;" 
d="M512 -47q12 0 54 39.5t95 104t103.5 138t85 153t34.5 136.5q0 101 -49.5 186.5t-135.5 135.5t-187 50t-187 -50t-135.5 -135.5t-49.5 -186.5q0 -57 34.5 -136.5t85 -153t103.5 -138t95 -104t54 -39.5zM512 341q-75 1 -128 54.5t-53 128.5q0 76 54 129.5t130 53.5
t129.5 -53.5t53.5 -129.5q-1 -76 -54.5 -129.5t-130.5 -53.5h-1v0zM299 88l51 -45q-107 -18 -107 -49q0 -25 79.5 -45t189.5 -20t189.5 20t79.5 45q0 31 -107 49l51 45q55 -17 86.5 -41.5t31.5 -52.5q0 -33 -44.5 -61t-120.5 -44.5t-166 -16.5t-166 16.5t-120.5 44.5
t-44.5 61q0 28 31.5 52.5t86.5 41.5z" />
    <glyph glyph-name="list" unicode="&#xe624;" 
d="M114 896q-36 0 -61 -25t-25 -60v-854q0 -35 25 -60t61 -25h796q36 0 61 25t25 60v854q0 35 -25 60t-61 25h-796zM120 832h784q12 0 20 -8.5t8 -19.5v-840q0 -11 -8 -19.5t-20 -8.5h-784q-12 0 -20 8.5t-8 19.5v840q0 11 8 19.5t20 8.5zM355 640h440q14 0 23 -9.5t9 -22.5
t-9 -22.5t-23 -9.5h-440q-13 0 -22.5 9.5t-9.5 22.5t9.5 22.5t22.5 9.5zM228 640q13 0 22.5 -9.5t9.5 -22.5v0v-1q0 -13 -9.5 -22.5t-22.5 -9.5t-22 9.5t-9 22.5v1v0q0 13 9 22.5t22 9.5v0zM355 427h440q14 0 23 -9.5t9 -23t-9 -22.5t-23 -9h-440q-13 0 -22.5 9t-9.5 22.5
t9.5 23t22.5 9.5zM228 427q13 0 22.5 -9.5t9.5 -22.5v-1v-1q0 -13 -9.5 -22t-22.5 -9t-22 9t-9 22v1v1q0 13 9 22.5t22 9.5v0zM355 213h440q14 0 23 -9t9 -22.5t-9 -23t-23 -9.5h-440q-13 0 -22.5 9.5t-9.5 23t9.5 22.5t22.5 9zM228 213q13 0 22.5 -9t9.5 -22v-1v-1
q0 -13 -9.5 -22.5t-22.5 -9.5t-22 9.5t-9 22.5v1v1q0 13 9 22t22 9v0z" />
    <glyph glyph-name="more" unicode="&#xe625;" horiz-adv-x="1913" 
d="M1883 743l-892 -847q-18 -18 -44.5 -18t-44.5 18l-45 43q-1 1 -2 2.5t-1 2.5l-824 796q-19 18 -19 43.5t19 42.5l44 43q19 18 45 18t45 -18l784 -757l801 760q19 18 45 18t45 -18l44 -43q19 -18 19 -43t-19 -43z" />
    <glyph glyph-name="jdjzzz" unicode="&#xe626;" horiz-adv-x="8025" 
d="M7949 120q76 -66 76 -136l-10 -11q-26 0 -81 87q-16 0 -127 60l-31 5l-96 -76q-40 5 -71 51v15h26q30 0 55 36v10q0 25 -106 106q0 5 -26 11h-5q-30 -41 -81 -158q-81 -152 -182 -152h-5q-51 0 -97 71v5q0 26 132 163v15q0 10 -20 15q-10 -10 -86 -15q-31 0 -71 66l5 15
h10q35 -31 56 -31h25q101 0 112 117l5 25q-5 21 -26 21q-66 -36 -81 -36q-56 15 -56 46q5 40 158 198v10l-11 10h-5l-30 -5q-117 35 -117 66v15l102 -25q71 0 172 50h5l36 -30q0 -36 -132 -152q-35 -15 -66 -66v-20h5q25 0 96 35l87 25q30 0 65 -50q0 -41 -116 -142v-15
q25 -31 25 -46l-86 -132v-15q0 -31 25 -31q76 81 112 173l35 20h21l121 -76h26q10 0 61 157l50 117v5q0 10 -20 15l-46 -15q-131 10 -131 127v45q15 112 30 112q20 0 30 -21l-5 -25v-96q5 -76 31 -76h5l157 25l35 -61q-136 -268 -136 -314v-10q0 -46 167 -107zM7305 90
q-25 0 -46 -30v-11l16 -15h5q50 0 50 31q-5 10 -25 25zM7417 450h20l20 20v10h-5q-25 0 -35 -20v-10zM6763 14l-82 35q-40 0 -182 66l-51 10q-30 -65 -81 -81q-66 0 -91 76l15 5l56 -5q15 0 25 26v30q0 10 -66 36q-40 50 -66 50q-15 -15 -30 -81q-10 0 -41 -101l-25 -31h-10
q-51 41 -51 56q61 96 61 112q0 20 -76 91q-20 0 -30 -238l15 -31l5 -101q-10 -36 -41 -36q0 16 -45 76l-5 16l5 45l-5 61l10 61v10l-10 41q15 0 20 111l-5 15h-15q-71 -101 -71 -172l-56 -51q-30 21 -41 46q0 56 46 76l51 96l35 112v25q0 10 -15 10l-46 -10q-30 0 -45 46
l15 10h30q51 0 152 91v137q0 25 -76 101l11 11q40 0 111 -102q15 -81 25 -81h16l15 10h10l61 -56q0 -30 -91 -55q-21 -21 -46 -122l5 -35v-41q71 -66 106 -66q26 0 41 137v5q0 10 -56 25q-45 26 -45 51l5 5h5l71 -20h5q35 0 56 81h10l30 -35h5q31 0 102 81q10 -6 45 -51
l-40 -188q0 -20 50 -60l46 -77l-5 -76q66 -40 203 -71q60 -45 81 -96l-5 -15h-10v0zM6423 288l-86 81v10q0 51 20 101l-15 21h-10q-71 -31 -71 -117l-5 -20v-41q55 -66 137 -91h10q20 5 20 35v21zM4867 65q-132 0 -365 -61q-26 0 -36 35q0 36 46 61l51 -5q0 10 50 25v16
l-15 15l-30 -5v20l50 46v50l-20 21l-56 -16q-40 11 -45 31v5q126 15 126 71l10 142l-15 10h-5l-132 -51h-15l-30 26v5q0 10 40 15q16 15 203 91q0 10 46 15q45 0 45 -60q-40 -11 -60.5 -31t-20.5 -51l-10 -116q0 -15 91 -56v-15q0 -36 -86 -117v-5q5 -51 26 -51l35 6l36 -6
q0 11 20 16q30 -21 56 -21h40l41 -60v-11h-41l-30 16v0zM4578 637l-10 16q0 20 40 71v10q0 15 -66 81v5l15 15h6q86 -51 126 -91l5 -30q-50 -77 -116 -77zM4289 9q-26 -76 -41 -76h-10q-40 20 -40 61l35 172l-61 228l15 56h5q11 0 26 -86q10 0 61 -122l5 -5h15q25 15 86 147
l41 41v-6q0 -35 -87 -207q-35 -106 -50 -203v0zM4334 556q-20 10 -20 71q-20 26 -56 112q147 -76 147 -132q-20 -51 -71 -51zM3741 450h-30q-249 -51 -249 -96v-36q0 -56 61 -56l81 -5l21 5q66 -35 66 -76q0 -20 -127 -137l-25 -55v-5q15 -21 15 -36q-5 -25 -41 -25
q-177 56 -177 96v5q0 25 20 36h15q31 -31 46 -31q46 0 91 56q91 66 91 96q0 10 -15 10l-30 -10q-97 0 -132 86q0 56 -36 66l-192 -81l-122 -35h-5q-111 5 -111 35v5l15 16l15 -6q127 0 350 107q71 0 86 91l5 61l-20 15h-5l-51 -5q-61 66 -61 86v5h5l122 -25h10l20 20v5
q-66 92 -66 142q0 46 46 76h5q71 0 86 -121l-5 -81q76 -21 76 -41v-10l-25 -30v-6q0 -15 91 -40l102 5q30 0 60 -61l-20 -25q-20 10 -56 10zM3447 800h-10q-25 -15 -25 -41q25 -81 35 -81h10q16 0 21 56q-11 66 -31 66zM3584 506q-20 30 -66 45q-30 0 -45 -91l15 -10
q91 30 96 46v10zM1977 262h-71q-192 -30 -192 -81l-5 -45l5 -21q-11 -20 -11 -55v-26l6 -20l-6 -20v-46q0 -15 26 -56l-15 -15v-5q-16 0 -56 56l5 5l-5 61v66l-10 81v30l-10 10h-6q-45 0 -258 -76l-30 -5q-31 0 -66 41v10l15 15h5l15 -10h15q41 0 284 86q36 10 36 20v56
q0 36 -46 36l-10 -21l5 -25l-15 -10h-5q-56 0 -107 147l-116 162v5l10 10h10q56 -50 177 -218l5 -5h21q91 0 91 46q0 35 -96 81h-26l-5 -5q-20 5 -20 15v5q81 66 81 76q0 15 -30 56q-21 45 -21 76q-10 0 -20 30q5 26 20 26q41 -21 107 -127h5q96 101 96 172l-10 41l5 5h5
q46 0 76 -61q0 -50 -71 -127v-15q0 -10 15 -10q46 15 102 15h25q41 0 81 -66q0 -15 -182 -223q0 -15 -56 -101v-15h20l71 35l86 15l31 -5l5 5h5l51 -45h10v-20l-15 -21zM1653 567h-5l-10 -11v-10h15l10 10zM1759 440q46 40 76 106q56 46 56 81v5l-15 16q-162 -21 -162 -51
q0 -41 55 -101v-11q0 -15 -15 -15l-5 -5v-15zM674 -98h-25q-30 26 -81 41q-56 30 -71 61v5h5q71 -56 142 -56l10 15q-76 335 -76 411l5 86q0 36 -71 36l-35 5l-81 -41h-11q-20 10 -20 25q0 26 147 71q0 11 20 16q76 -46 107 -107l-5 -61v-116q0 -82 81 -360v-15
q-5 -16 -41 -16zM482 678v15l61 56v5q-112 66 -127 66q-26 0 -46 -157q-10 0 -45 -137l-26 -20h-25q-15 0 -91 71l-16 10h-15q-81 -92 -121 -117h-6q-25 10 -25 41q25 66 91 66q112 157 127 207l5 26l-5 45l15 11q21 -6 41 -51q-10 -61 -81 -178v-15q30 -45 76 -45h20
q81 121 81 202q26 82 36 82q116 -41 228 -66q20 -26 20 -41q-157 -76 -172 -76zM137 313v-5l-10 -127v-45q0 -16 20 -16q15 0 56 76h10q-76 -212 -96 -212h-5q-31 20 -31 50v41l-5 71q0 121 56 167h5zM254 425l-41 35l-5 5v5q10 20 15 20h10l26 -20l20 5q25 -10 41 -35v-15
q0 -61 -77 -61l-20 15v5l31 35v6zM264 283q0 35 56 35q35 71 81 81q71 -35 101 -127l5 -15l-5 -5v-5l5 -30q0 -41 -96 -107l-46 -15l-40 36h-5l-26 -21h-5q-25 15 -35 46q10 41 10 111v16zM441 217q26 0 26 71q-11 35 -51 61h-26q-45 -31 -65 -92q0 -40 116 -40zM360 151h30
v15q-10 20 -35 20h-25l-10 -10q15 -25 40 -25z" />
    <glyph glyph-name="Mood" unicode="&#xe627;" 
d="M516 -128q-105 0 -200.5 41t-164.5 110t-110 164.5t-41 200.5q0 125 55.5 233.5t152 180.5t215.5 94q-68 -107 -68 -233q0 -89 34.5 -169.5t93 -139t139 -93t169.5 -34.5q126 0 233 68q-22 -119 -94 -215.5t-180.5 -152t-233.5 -55.5zM775 162q-99 0 -188.5 38.5
t-154.5 103.5t-103.5 154.5t-38.5 188.5q0 77 25 152q-113 -57 -181.5 -166t-68.5 -241q0 -92 36 -176.5t97 -145.5t145.5 -97t176.5 -36q132 0 241 68.5t166 181.5q-75 -25 -152 -25z" />
    <glyph glyph-name="jujue" unicode="&#xe628;" 
d="M618 382l372 -371q22 -22 22 -53.5t-22.5 -53.5t-53.5 -22t-53 22l-372 371l-373 -373q-23 -23 -54.5 -23t-54 22.5t-22.5 54t23 54.5l373 373l-371 372q-22 22 -22 53t22 53.5t53.5 22.5t53.5 -22l371 -372l376 376q23 23 54.5 23t54 -22.5t22.5 -54t-23 -54.5z" />
    <glyph glyph-name="late_early" unicode="&#xe629;" horiz-adv-x="1052" 
d="M1052 642v-1q0 -13 -9.5 -22.5t-22.5 -9.5t-22.5 9.5t-9.5 22.5q0 6 2 12l-15 -1q-73 107 -184 169l-2 10q-2 -1 -5 -1q-13 0 -22.5 9.5t-9.5 22.5t9.5 22.5t22.5 9.5q3 0 5 -1v2q1 0 3.5 -1.5t3.5 -1.5q2 -1 3 -2q160 -82 250 -235l1 -3q2 -5 2 -10v0zM267 830
q-3 0 -7 1l1 -10q-112 -63 -182 -167l-17 -2q2 -5 2 -10q0 -14 -9.5 -23t-22.5 -9t-22.5 9t-9.5 23v0q0 5 2 11l-1 -1q91 154 246 235q7 4 9 5q1 0 2.5 1t2.5 1v-1q3 1 6 1v0q13 0 22.5 -9.5t9.5 -22.5t-9.5 -22.5t-22.5 -9.5zM855 5l73 -73q9 -10 9 -24v0q0 -14 -10 -24.5
t-24 -10.5t-24 10l-78 77q-122 -87 -275 -87q-155 0 -280 91q1 -3 -1 -6l-77 -76q-9 -9 -22 -9v0q-14 0 -23.5 9.5t-9.5 22.5t9 23l76 76q-70 66 -109 155.5t-39 190.5q0 97 37.5 185t101.5 152t152 101.5t185 37.5t185.5 -37.5t152 -101.5t101.5 -152t38 -185
q0 -100 -39 -189t-109 -156v0zM797 349h-271v314q0 14 -9.5 23.5t-23 9.5t-23 -9.5t-9.5 -23.5v-346q0 -14 9.5 -23.5t23.5 -9.5h303q13 0 22.5 9.5t9.5 23t-9.5 23t-22.5 9.5z" />
    <glyph glyph-name="night" unicode="&#xe62a;" 
d="M887 317l-41 21l-41 -21l5 48l-31 35l45 9l22 42l22 -42l45 -9l-31 -35zM795 540l-83 41l-82 -41l11 95l-62 70l89 18l44 84l44 -84l90 -18l-62 -70zM791 227q126 0 233 68q-22 -119 -94 -215.5t-180.5 -152t-233.5 -55.5q-105 0 -200.5 41t-164.5 110t-110 164.5
t-41 200.5q0 125 55.5 233.5t152 180.5t215.5 94q-68 -107 -68 -233q0 -89 34.5 -169.5t93 -139t139 -93t169.5 -34.5zM290 647q0 77 25 152q-113 -57 -181.5 -166t-68.5 -241q0 -92 36 -176.5t97 -145.5t145.5 -97t176.5 -36q132 0 241 68.5t166 181.5q-75 -24 -152 -24
q-99 0 -188.5 38t-154.5 103t-103.5 154.5t-38.5 188.5z" />
    <glyph glyph-name="no_sign" unicode="&#xe62b;" 
d="M512 -128q-13 0 -59 41t-105 109t-115.5 146t-95.5 164t-39 150q0 113 55.5 208t151 150.5t207.5 55.5t207.5 -55.5t151 -150.5t55.5 -208q0 -64 -39 -150t-95.5 -164t-115.5 -146t-105 -109t-59 -41zM512 699q-90 0 -153.5 -63.5t-63.5 -153t63.5 -153t153.5 -63.5
t153.5 63.5t63.5 153t-63.5 153t-153.5 63.5z" />
    <glyph glyph-name="neigou" unicode="&#xe62c;" 
d="M3 541l491 -609l-197 609h-294v0zM350 541l174 -610l150 610h-324zM550 -68l473 609h-292zM1024 581l-142 242l-141 -242h283zM838 837h-283l141 -250zM653 581l-142 242l-142 -242h284zM469 837h-283l142 -250zM142 823l-142 -242h283z" />
    <glyph glyph-name="morning" unicode="&#xe62d;" horiz-adv-x="1388" 
d="M1343 160h-145q-18 0 -30.5 12.5t-12.5 30.5t12.5 30.5t30.5 12.5h145q18 0 30.5 -12.5t12.5 -30.5t-12.5 -30.5t-30.5 -12.5zM1081 530q-13 -13 -31 -13t-30.5 12.5t-12.5 30.5t13 31l102 102q12 13 30 13t31 -13t13 -31t-13 -30zM1094 145h-87q5 30 5 58q0 132 -93 225
t-224.5 93t-224.5 -93t-93 -225q0 -28 6 -58h-88q-4 33 -4 58q0 110 54 203t147 147t203 54t203 -54t147 -147t54 -203q0 -26 -5 -58zM693 665q-18 0 -30.5 12.5t-12.5 30.5v145q0 18 12.5 30.5t30.5 12.5t30.5 -12.5t12.5 -30.5v-145q0 -18 -12.5 -30.5t-30.5 -12.5z
M305 530l-102 102q-13 12 -13 30t13 31t31 13t30 -13l102 -102q13 -13 13 -31t-12.5 -30.5t-30.5 -12.5t-31 13zM231 203q0 -18 -12.5 -30.5t-30.5 -12.5h-144q-18 0 -31 12.5t-13 30.5t13 30.5t31 12.5h144q18 0 30.5 -12.5t12.5 -30.5zM45 -41h1299q18 0 31 -13t13 -31
t-13 -30.5t-31 -12.5h-1299q-18 0 -30.5 12.5t-12.5 30.5t12.5 31t30.5 13z" />
    <glyph glyph-name="new" unicode="&#xe62e;" horiz-adv-x="2048" 
d="M1890 -128h-1496q-65 0 -111.5 46t-46.5 112v157l-236 197l236 197v157q0 66 46.5 112t111.5 46h1496q66 0 112 -46t46 -112v-708q0 -66 -46 -112t-112 -46v0zM866 266v315h-78v-236h-79v78h-79v79h-79v79h-78v-394h78v236h79v-78h79v-79h79v-79h78v79zM1339 266h-315v79
h315v78h-315v79h315v79h-394v-394h394v79zM1812 345v236h-79v-315h-79v315h-79v-315h-78v315h-79v-315h79v-79h78v79h79v-79h79v79h79v79z" />
    <glyph glyph-name="normal" unicode="&#xe62f;" 
d="M235 896q-53 0 -90.5 -37.5t-37.5 -90.5v-768q0 -53 37.5 -90.5t90.5 -37.5h554q53 0 90.5 37.5t37.5 90.5v640l-256 255zM853 640h-128q-26 0 -45 18.5t-19 45.5v128zM693 128h-362q-14 0 -23 9.5t-9 22.5t9 22.5t23 9.5h362q14 0 23 -9.5t9 -22.5t-9 -22.5t-23 -9.5z
M693 320h-362q-14 0 -23 9.5t-9 22.5t9 22.5t23 9.5h362q14 0 23 -9.5t9 -22.5t-9 -22.5t-23 -9.5z" />
    <glyph glyph-name="next" unicode="&#xe630;" 
d="M782 338q-1 -1 -3 -2.5t-3 -2.5l-445 -445q-19 -16 -43 -16q-27 0 -46 19t-19 45q0 25 17 43l404 405l-404 405q-17 18 -17 43q0 26 19 45t46 19q24 0 43 -17l445 -444q1 -1 3 -2.5t3 -2.5q19 -19 19 -46t-19 -46v0z" />
    <glyph glyph-name="oil_card_recharge" unicode="&#xe631;" 
d="M896 424h-73v232l-148 79v113q0 17 -11.5 28.5t-27.5 11.5h-530q-16 0 -27.5 -11.5t-11.5 -28.5v-885h-67v-77h742v77h-67v406h93v-360q0 -54 37.5 -91.5t90.5 -37.5t90.5 37.5t37.5 91.5v287q0 53 -37.5 90.5t-90.5 37.5zM134 815h466v-351h-466v351zM503 213v-48h-108
v-121h-48v121h-108v48h108v47h-108v48h59l-24 72h56l24 -72h34l24 72h56l-24 -72h59v-48h-108v-47h108zM768 424h-93v248l93 -49v-199zM968 9q0 -30 -21 -51.5t-51 -21.5t-51.5 21.5t-21.5 51.5v360h73q30 0 51 -21.5t21 -51.5v-287z" />
    <glyph glyph-name="noon" unicode="&#xe632;" 
d="M992 352h-107q-13 0 -22.5 9.5t-9.5 22.5t9.5 22.5t22.5 9.5h107q13 0 22.5 -9.5t9.5 -22.5t-9.5 -22.5t-22.5 -9.5zM799 625q-10 -9 -23 -9t-22.5 9.5t-9.5 22.5t9 23l76 75q9 9 22.5 9t22.5 -9t9 -22.5t-9 -22.5zM513.5 85q-123.5 0 -211 87.5t-87.5 211.5t87.5 211.5
t211 87.5t211 -87.5t87.5 -211.5t-87.5 -211.5t-211 -87.5zM513.5 619q-97.5 0 -166 -69t-68.5 -166t68.5 -166t166 -69t166 69t68.5 166t-68.5 166t-166 69zM512 725q-13 0 -22.5 9.5t-9.5 22.5v107q0 13 9.5 22.5t22.5 9.5t22.5 -9.5t9.5 -22.5v-107q0 -13 -9.5 -22.5
t-22.5 -9.5zM225 625l-75 76q-9 9 -9 22.5t9 22.5t22.5 9t22.5 -9l76 -75q9 -10 9 -23t-9.5 -22.5t-22.5 -9.5t-23 9zM171 384q0 -13 -9.5 -22.5t-22.5 -9.5h-107q-13 0 -22.5 9.5t-9.5 22.5t9.5 22.5t22.5 9.5h107q13 0 22.5 -9.5t9.5 -22.5zM225 143q10 9 23 9t22.5 -9.5
t9.5 -22.5t-9 -23l-76 -75q-9 -9 -22.5 -9t-22.5 9t-9 22.5t9 22.5zM512 43q13 0 22.5 -9.5t9.5 -22.5v-107q0 -13 -9.5 -22.5t-22.5 -9.5t-22.5 9.5t-9.5 22.5v107q0 13 9.5 22.5t22.5 9.5zM799 143l75 -76q9 -9 9 -22.5t-9 -22.5t-22.5 -9t-22.5 9l-76 75q-9 10 -9 23
t9.5 22.5t22.5 9.5t23 -9z" />
    <glyph glyph-name="overtime" unicode="&#xe633;" 
d="M515 -127q-104 0 -199.5 41t-164.5 110t-110 164.5t-41 200.5q0 123 55 231.5t150.5 180.5t213.5 94q-65 -108 -65 -233q0 -88 34.5 -168.5t92.5 -139t138.5 -92.5t169.5 -34q128 0 235 69q-23 -121 -95.5 -217.5t-181 -151.5t-232.5 -55v0z" />
    <glyph glyph-name="play" unicode="&#xe634;" 
d="M410 157q-4 0 -8 2q-10 5 -10 16v418q0 11 10 16t19 -1l292 -204q8 -5 8 -14v-1q0 -9 -7 -14l-293 -215q-5 -3 -11 -3zM512 861q97 0 185.5 -38t152 -101.5t101.5 -152t38 -185.5t-38 -185.5t-101.5 -152t-152 -101.5t-185.5 -38t-185.5 38t-152 101.5t-101.5 152
t-38 185.5t38 185.5t101.5 152t152 101.5t185.5 38zM512 896q-139 0 -257 -68.5t-186.5 -186.5t-68.5 -257t68.5 -257t186.5 -186.5t257 -68.5q104 0 199 40.5t163.5 109t109 163.5t40.5 199t-40.5 199t-109 163.5t-163.5 109t-199 40.5z" />
    <glyph glyph-name="prev" unicode="&#xe635;" 
d="M243 343l6 -4l451 -450q17 -17 40.5 -17t40 16.5t16.5 40.5t-16 41l-416 414l416 415q16 17 16 40.5t-16.5 40t-40 16.5t-40.5 -17l-451 -450l-6 -4q-16 -17 -16 -41t16 -41v0z" />
    <glyph glyph-name="refresh" unicode="&#xe636;" horiz-adv-x="1169" 
d="M1160 583l-73 -143v0v0v-0.5v-0.5v0q-6 -9 -17 -15q-18 -9 -34 -1l-143 74q-14 7 -19 22t2.5 29t22.5 19t29 -2l63 -33q-46 127 -157.5 206.5t-250.5 79.5q-120 0 -221.5 -60.5t-158.5 -162.5l-74 13q63 128 185 205.5t269 77.5q163 0 293.5 -94t183.5 -243l32 64
q8 14 22.5 18.5t28.5 -2.5t19 -22t-2 -29zM281 224.5q-7 -13.5 -21.5 -18t-27.5 2.5l-58 29q46 -128 158 -208t251 -80q119 0 219 59t158 158l75 -13q-64 -125 -185 -201t-267 -76q-164 0 -295 95.5t-183 246.5l-31 -60q-7 -14 -21.5 -18.5t-27.5 2.5t-18 21t2 27l69 137
q7 13 22 18q14 5 28 -2l137 -70q14 -7 18.5 -21.5t-2.5 -28z" />
    <glyph glyph-name="renyuan" unicode="&#xe637;" 
d="M1010 6q2 -6 2 -11t-1 -9v-0.5v-0.5q0 -22 -38 -36q-5 -1 -15 -5q-46 -17 -75.5 -26t-85.5 -21.5t-127.5 -18.5t-160.5 -6q-57 0 -112.5 4t-99.5 11t-84 15t-68.5 16.5t-49.5 15t-32 11t-10 4.5q-2 0 -5 2q-25 3 -33 27q-3 6 -3 12q0 57 13.5 96.5t35.5 58t50 30.5t58 14
t58.5 8.5t51.5 15t37.5 31.5t16.5 60q-54 46 -87.5 118t-33.5 121l36 109l-2 162l80 21q2 2 6.5 6t20 15t34 19t49.5 14.5t65 6.5q111 0 181.5 -70.5t70.5 -173.5l39 -109q0 -48 -31 -126t-72 -114q-1 -32 12 -53.5t34.5 -30.5t50 -16.5t58 -11.5t58 -16t52 -30t39 -53.5
t17.5 -85.5v0z" />
    <glyph glyph-name="phone_recharge" unicode="&#xe638;" 
d="M423 105q0 32 8 64h-289v606h485v-400q29 9 60 10v420q0 38 -26.5 64.5t-64.5 26.5h-424q-37 0 -64 -26.5t-27 -64.5v-787q0 -38 27 -64.5t64 -26.5h315q-64 77 -64 178v0zM263 851h242v-31h-242v31zM705 346q-98 0 -167.5 -69.5t-69.5 -167.5t69.5 -167.5t167.5 -69.5
t167.5 69.5t69.5 167.5q1 98 -69 167.5t-168 69.5zM813 13q-6 -4 -15 -4h-65v-18q0 -9 -7 -16.5t-18 -6.5q-11 0 -18.5 5t-7.5 18v18h-63q-10 0 -15.5 5t-5.5 13t6 13t15 5h63v33h-63q-9 0 -15 5.5t-6 12.5t6 13.5t15 6.5h63v20q-16 16 -30 31t-22 24l-14 13q-5 5 -8.5 15
t3.5 20q9 9 21 5t19 -11l13 -13l44 -45q19 18 29 27t22 20q12 10 16 13q8 8 18 8t17 -9q12 -14 -9 -32q-7 -5 -17 -16q-11 -11 -22 -23q-13 -13 -29 -28v-18h60q13 0 19 -6t6 -13q0 -8 -5.5 -14.5t-18.5 -5.5h-60l-1 -32h59q26 0 26 -19q1 -9 -5 -14v0z" />
    <glyph glyph-name="qq" unicode="&#xe639;" 
d="M518.5 886q64.5 0 117.5 -16.5t86 -43t58.5 -58.5t37.5 -64t20 -58.5t9 -42.5l2 -17q21 -28 26.5 -58t0.5 -46l-5 -16q31 -49 50.5 -92.5t26.5 -74.5t6 -56.5t-7.5 -42t-16 -28t-18 -16.5t-14.5 -6q-12 -2 -25.5 5.5t-20.5 15.5l-7 9q-9 -35 -31 -53q66 -31 66 -84
q-1 -3 -2 -8t-9.5 -17.5t-21.5 -23t-40 -20t-62 -12t-91 4t-124 24.5l-28 6q-65 -24 -120 -34t-91 -9t-64.5 10.5t-43 20t-25 24.5t-12.5 19t-3 9v0q0 2 -0.5 6.5t0.5 17t5 23.5t15.5 23t28.5 19q-16 9 -28 26.5t-16.5 28.5t-4.5 13q-1 -1 -2 -3t-5 -7t-8.5 -9.5t-11.5 -9
t-14 -7t-16 -2.5t-18 4q-13 6 -22 28t-9.5 56t9.5 72t39.5 81t74.5 78q-1 3 -2.5 8t-2.5 20.5t1 29t10.5 30.5t23.5 29q0 7 1 17.5t9 41t20 58t37 61.5t58 58.5t86 41t117.5 16.5zM239 576q-20 -17 -29.5 -35.5t-9 -32.5t3.5 -26t7 -19l4 -6q-119 -73 -127 -203
q-2 -26 1 -43q25 12 42 47q9 16 19 14.5t18 -10.5l7 -9q2 -10 6.5 -24t22 -44.5t40.5 -44.5q14 -9 19 -18t2 -15t-8 -10.5t-11 -6.5l-5 -3h-6t-13.5 -2.5t-16.5 -6t-12 -11.5t-3 -19q1 -11 21.5 -23t53.5 -18.5t70.5 -7t78.5 11.5t72 36l58 -8q54 -19 103 -25.5t81 -4t57 10
t36.5 15t14.5 12.5q4 8 -15.5 22.5t-46.5 25.5q-50 21 -12 47q9 5 15.5 12.5t12.5 19t9.5 18.5t10.5 23.5t9 22.5q8 18 18.5 21.5t17.5 -1.5t9 -11q2 -5 8.5 -17t12.5 -21l6 -10q3 3 6.5 8.5t7 27.5t-0.5 49t-24 74t-56 102q1 2 2.5 6t4 17t1.5 25t-7.5 28t-19.5 29
q-1 6 -2 16t-7.5 38.5t-17 54t-33 57t-52 54.5t-76.5 38.5t-104 15.5t-103 -15t-74 -37t-48.5 -52t-29.5 -55t-14 -52.5t-5.5 -37t0.5 -14.5v0z" />
    <glyph glyph-name="repaymentHistory" unicode="&#xe63a;" 
d="M866 473l118 -86l-122 -89l122 -89l-460 -337l-484 337l128 89l-128 89l124 86l-124 86l484 337l460 -337zM214 438l-74 -52l381 -265l362 265l-68 50l-291 -214zM218 263l-78 -55l381 -265l362 265l-71 53l-288 -211z" />
    <glyph glyph-name="rightMore" unicode="&#xe63b;" 
d="M795 383q1 -19 -12 -31l-29 -30q-6 -7 -15 -10l-407 -423q-13 -12 -30 -12t-29 12l-29 30q-12 13 -12 30.5t12 29.5l390 406l-389 404q-12 12 -12 30t12 30l30 30q12 12 29 12t29 -12l405 -420q10 -4 16 -10l30 -30q14 -14 11 -36z" />
    <glyph glyph-name="rili" unicode="&#xe63c;" 
d="M960 -128h-896q-26 0 -45 18.5t-19 45.5v811q0 26 19 45t45 19h192v53q0 13 9.5 22.5t22.5 9.5t22.5 -9.5t9.5 -22.5v-53h384v53q0 13 9.5 22.5t22.5 9.5t22.5 -9.5t9.5 -22.5v-53h192q26 0 45 -19t19 -45v-811q0 -27 -19 -45.5t-45 -18.5zM960 725q0 9 -6.5 15.5
t-14.5 6.5h-171v-32q0 -14 -9.5 -23t-22.5 -9t-22.5 9t-9.5 23v32h-384v-32q0 -14 -9.5 -23t-22.5 -9t-22.5 9t-9.5 23v32h-171q-8 0 -14.5 -6.5t-6.5 -15.5v-106h896v106zM960 555h-896v-598q0 -8 6.5 -14.5t14.5 -6.5h854q8 0 14.5 6t6.5 15v598zM768 21q-35 0 -60 25
t-25 60.5t25 60.5t60 25t60 -25t25 -60.5t-25 -60.5t-60 -25zM768 149q-18 0 -30.5 -12.5t-12.5 -30t12.5 -30t30.5 -12.5t30.5 12.5t12.5 30t-12.5 30t-30.5 12.5zM768 277q-35 0 -60 25t-25 60.5t25 60.5t60 25t60 -25t25 -60.5t-25 -60.5t-60 -25zM768 405
q-18 0 -30.5 -12.5t-12.5 -30t12.5 -30t30.5 -12.5t30.5 12.5t12.5 30t-12.5 30t-30.5 12.5zM512 21q-35 0 -60 25t-25 60.5t25 60.5t60 25t60 -25t25 -60.5t-25 -60.5t-60 -25zM512 149q-18 0 -30.5 -12.5t-12.5 -30t12.5 -30t30.5 -12.5t30.5 12.5t12.5 30t-12.5 30
t-30.5 12.5zM512 277q-35 0 -60 25t-25 60.5t25 60.5t60 25t60 -25t25 -60.5t-25 -60.5t-60 -25zM512 405q-18 0 -30.5 -12.5t-12.5 -30t12.5 -30t30.5 -12.5t30.5 12.5t12.5 30t-12.5 30t-30.5 12.5zM256 21q-35 0 -60 25t-25 60.5t25 60.5t60 25t60 -25t25 -60.5
t-25 -60.5t-60 -25zM256 149q-18 0 -30.5 -12.5t-12.5 -30t12.5 -30t30.5 -12.5t30.5 12.5t12.5 30t-12.5 30t-30.5 12.5zM256 277q-35 0 -60 25t-25 60.5t25 60.5t60 25t60 -25t25 -60.5t-25 -60.5t-60 -25zM256 405q-18 0 -30.5 -12.5t-12.5 -30t12.5 -30t30.5 -12.5
t30.5 12.5t12.5 30t-12.5 30t-30.5 12.5z" />
    <glyph glyph-name="shopping" unicode="&#xe63d;" 
d="M767 638q0 21 -15 36t-36 15t-36 -15t-15 -36v-102q0 -63 -45 -108t-108 -45t-107.5 45t-44.5 108v102q0 21 -15 36t-36 15t-36 -15t-15 -36v-102q0 -106 74.5 -180.5t180 -74.5t180 74.5t74.5 180.5v102zM995.5 -40.5q-30.5 -33.5 -75.5 -33.5h-816q-45 0 -75.5 33.5
t-25.5 78.5l50 713q4 39 33 65t68 26h715q40 0 68.5 -26t33.5 -65l50 -713q5 -45 -25.5 -78.5z" />
    <glyph glyph-name="return_shopping_point" unicode="&#xe63e;" 
d="M512 896q-104 0 -199 -40.5t-163.5 -109t-109 -163.5t-40.5 -199t40.5 -199t109 -163.5t163.5 -109t199 -40.5t199 40.5t163.5 109t109 163.5t40.5 199t-40.5 199t-109 163.5t-163.5 109t-199 40.5zM387 618q0 17 2.5 30t9.5 22t19.5 13t33.5 4l46 -1q59 0 134 5
q77 4 132 10q5 1 13 1h15h1q16 0 25.5 -9.5t9.5 -28.5q0 -18 -9.5 -28.5t-28.5 -14.5q-21 -4 -118 -8q-99 -5 -189 -5q-7 0 -10.5 -3.5t-3.5 -16.5v-13q0 -11 10 -11h232q51 0 72 -11t21 -38q0 -28 -28 -89q-14 -30 -27 -52.5t-25 -36.5q-2 -3 2 -7q64 -51 84 -72
q21 -20 21 -39q0 -18 -18 -31q-8 -6 -15.5 -9.5t-14 -3t-14 5t-18.5 13.5q-26 22 -42 36.5t-24 20.5l-17 13q-5 5 -13 -1q-33 -28 -74 -54q-41 -27 -55 -32q-16 -6 -28 -6q-24 0 -34.5 15t-10.5 26.5t7 19.5q7 7 37 21q29 13 63 38q34 24 34 29q0 1 -2 2q0 1 -26 19
q-24 17 -48 31q-23 14 -23 31q0 11 14 27q13 15 29 15t45 -16.5t68 -44.5q0 -2 2 -2t5 3.5t8.5 11.5t14.5 22q10 18 17 35.5t7 22.5q0 6 -3.5 7t-12.5 1h-211q-11 0 -11 -9q-3 -99 -17 -172q-12 -72 -26 -91t-30 -19q-15 0 -29 8q-13 9 -13 21q0 14 11 59q25 97 25 271v31
q0 16 -1 34zM192 685q12 16 26 16t27 -6q7 -3 20.5 -11t35.5 -21q43 -27 52 -38t9 -25t-13 -30q-15 -14 -29 -14q-12 0 -25 8q-29 20 -51.5 34.5t-38.5 23.5q-24 13 -24 33q0 14 11 30zM844 86q-9 -10 -21 -12q-6 0 -26 -1t-54 -1q-67 -3 -151 -3q-42 0 -76 1q-34 2 -59 3
q-52 3 -78 15t-63 49q-12 13 -24 13t-19 -15q-18 -41 -30.5 -57t-24.5 -16q-11 0 -32 10t-21 33q0 30 32 63q34 34 51 43q6 5 6 9v170q0 14 -11 14h-32q-20 0 -31 11t-11 30t11 30.5t31 11.5h77q17 0 27 -4t15 -13t7 -24.5t2 -36.5v-191q0 -7 4 -9q2 -2 6.5 -6t11.5 -11
t13.5 -12t11.5 -8q12 -7 32.5 -11.5t53.5 -6.5q35 -3 93.5 -3t126.5 2l115 3q24 0 34.5 -11t10.5 -30t-8 -29v0z" />
    <glyph glyph-name="Sun" unicode="&#xe63f;" 
d="M864 352v64h160v-64h-160zM738 656l113 113l46 -46l-113 -113zM480 896h64v-160h-64v160zM832 384q0 -133 -93.5 -226.5t-226.5 -93.5t-226.5 93.5t-93.5 226.5t93.5 226.5t226.5 93.5t226.5 -93.5t93.5 -226.5zM256 384q0 -106 75 -181t181 -75t181 75t75 181t-75 181
t-181 75t-181 -75t-75 -181zM127 723l46 46l113 -113l-46 -46zM160 352h-160v64h160v-64zM286 112l-113 -113l-46 46l113 113zM544 -128h-64v160h64v-160zM897 45l-46 -46l-113 113l46 46z" />
    <glyph glyph-name="switch_shift" unicode="&#xe641;" horiz-adv-x="1122" 
d="M1049 -128h-976q-30 0 -51.5 21.5t-21.5 51.5v805q0 30 21.5 51.5t51.5 21.5h195v24q0 20 14.5 34.5t34.5 14.5t34.5 -14.5t14.5 -34.5v-24h390v24q0 20 14.5 34.5t34.5 14.5t34.5 -14.5t14.5 -34.5v-24h195q30 0 51.5 -21.5t21.5 -51.5v-805q0 -30 -21.5 -51.5
t-51.5 -21.5zM272 127l3 -2l2 -2l119 -121l1 -1l1 -1h1q6 -6 15 -6v0q9 0 15.5 5.5t8.5 14.5v0v77h390q11 0 18 7.5t7 17.5v24q0 10 -7 17.5t-18 7.5h-539v-1q-9 -2 -14.5 -8.5t-6.5 -14.5q1 -7 5 -13zM268 286q0 -10 7.5 -17t17.5 -7h539l1 1q8 1 14 7.5t6 15.5q0 7 -4 13
v0l-2 3l-2 2l-122 123v0q-7 6 -16 6v0q-9 0 -15.5 -6t-7.5 -14l-1 -1v-77h-390q-10 0 -17.5 -7t-7.5 -17v-25zM1024 701q0 10 -7 17t-17 7h-146v-48q0 -21 -14.5 -35t-34.5 -14t-34.5 14t-14.5 35v48h-390v-48q0 -21 -14.5 -35t-34.5 -14t-34.5 14t-14.5 35v48h-146
q-10 0 -17 -7t-7 -17v-122q0 -10 7 -17t17 -7h878q10 0 17 7t7 17v122z" />
    <glyph glyph-name="tianjiaBold" unicode="&#xe642;" 
d="M939 299h-854q-35 0 -60 25t-25 60t25 60t60 25h854q35 0 60 -25t25 -60t-25 -60t-60 -25zM512 -128q-35 0 -60 25t-25 60v854q0 35 25 60t60 25t60 -25t25 -60v-854q0 -35 -25 -60t-60 -25z" />
    <glyph glyph-name="tiaoban" unicode="&#xe643;" 
d="M957 -83h-890q-28 0 -47.5 19.5t-19.5 46.5v735q0 28 19.5 47.5t47.5 19.5h178v22q0 18 13 31t31.5 13t31.5 -13t13 -31v-22h356v22q0 18 13 31t31.5 13t31.5 -13t13 -31v-22h178q28 0 47.5 -19.5t19.5 -47.5v-735q0 -27 -19.5 -46.5t-47.5 -19.5zM248 150l3 -3
q0 -1 1 -1l110 -111q0 -1 1 -1v-1h1q6 -5 14 -5t14 5t7 13l1 1v70h356q9 0 15.5 6.5t6.5 15.5v22q0 10 -6.5 16.5t-15.5 6.5h-492l-1 -1q-8 -1 -13 -7t-5 -14q0 -6 4 -12h-1zM245 295q0 -9 6.5 -15.5t15.5 -6.5h423v0h66h1v0h3v0q8 2 13 8t5 14q0 5 -3 11v1l-2 2l-2 2
l-109 110l-1 1l-1 1v0q-7 6 -14 6q-9 0 -15 -5.5t-7 -13.5h-1v-71h-356q-9 0 -15.5 -6.5t-6.5 -15.5v-22zM935 673q0 10 -6.5 16.5t-15.5 6.5h-134v-45q0 -18 -13 -31t-31.5 -13t-31.5 13t-13 31v45h-356v-45q0 -18 -13 -31t-31.5 -13t-31.5 13t-13 31v45h-134
q-9 0 -15.5 -6.5t-6.5 -16.5v-111q0 -9 6.5 -15.5t15.5 -6.5h802q9 0 15.5 6.5t6.5 15.5v111z" />
    <glyph glyph-name="time" unicode="&#xe644;" 
d="M512 -128q-139 0 -257 68.5t-186.5 186.5t-68.5 257t68.5 257t186.5 186.5t257 68.5t257 -68.5t186.5 -186.5t68.5 -257t-68.5 -257t-186.5 -186.5t-257 -68.5zM512 794q-111 0 -205.5 -55t-149.5 -149.5t-55 -205.5t55 -205.5t149.5 -149.5t205.5 -55t205.5 55
t149.5 149.5t55 205.5t-55 205.5t-149.5 149.5t-205.5 55zM512 145q-99 0 -169 70t-70 169t70 169t169 70t169 -70t70 -169t-70 -169t-169 -70z" />
    <glyph glyph-name="tongyi" unicode="&#xe645;" 
d="M1005 693q14 24 7 51.5t-32 42t-52.5 7t-41.5 -32.5l-469 -613l-291 260q-19 20 -47.5 21t-49.5 -18.5t-22 -47.5t19 -49l359 -322q20 -21 48.5 -22t48.5 19q4 3 134.5 179t259.5 350.5z" />
    <glyph glyph-name="kqhz" unicode="&#xe646;" 
d="M910 -128h-796q-36 0 -61 25t-25 60v854q0 35 25 60t61 25h796q36 0 61 -25t25 -60v-854q0 -35 -25 -60t-61 -25zM932 804q0 11 -8 19.5t-20 8.5h-784q-12 0 -20 -8.5t-8 -19.5v-840q0 -11 8 -19.5t20 -8.5h784q12 0 20 8.5t8 19.5v840zM796 149h-568q-13 0 -22.5 9.5
t-9.5 23t9.5 22.5t22.5 9h568q13 0 22.5 -9t9.5 -22.5t-9.5 -23t-22.5 -9.5zM796 363h-568q-13 0 -22.5 9t-9.5 22.5t9.5 23t22.5 9.5h568q13 0 22.5 -9.5t9.5 -23t-9.5 -22.5t-22.5 -9zM796 576h-568q-13 0 -22.5 9.5t-9.5 22.5t9.5 22.5t22.5 9.5h568q13 0 22.5 -9.5
t9.5 -22.5t-9.5 -22.5t-22.5 -9.5z" />
    <glyph glyph-name="pjgs" unicode="&#xe647;" 
d="M32 868v0q-13 0 -22.5 -9.5t-9.5 -22.5v-903q0 -14 9.5 -23t22.5 -9t22.5 9t9.5 23v903q0 13 -9.5 22.5t-22.5 9.5v0v0zM32 -36h960q13 0 22.5 -9t9.5 -22.5t-9.5 -23t-22.5 -9.5h-960q-13 0 -22.5 9.5t-9.5 23t9.5 22.5t22.5 9zM896 519q0 9 -6.5 15t-14.5 6h-43
q-9 0 -15 -6t-6 -15v-555h-64v598q0 17 12.5 29.5t29.5 12.5h128q18 0 30.5 -12.5t12.5 -29.5v-598h-64v555zM597 -36v384q0 9 -6 15.5t-15 6.5h-43q-8 0 -14.5 -6.5t-6.5 -15.5v-384h-64v427q0 18 12.5 30.5t30.5 12.5h128q17 0 29.5 -12.5t12.5 -30.5v-427h-64zM299 -36
v214q0 9 -6.5 15t-15.5 6h-42q-9 0 -15.5 -6t-6.5 -15v-214h-64v256q0 18 12.5 30.5t30.5 12.5h128q18 0 30.5 -12.5t12.5 -30.5v-256h-64z" />
    <glyph glyph-name="roundDel" unicode="&#xe648;" 
d="M512 896q-139 0 -257 -68.5t-186.5 -186.5t-68.5 -257t68.5 -257t186.5 -186.5t257 -68.5t257 68.5t186.5 186.5t68.5 257t-68.5 257t-186.5 186.5t-257 68.5zM201 438h619q17 0 29 -12t12 -29v-26q0 -17 -12 -29t-29 -12h-619q-16 0 -28 12t-12 29v26q0 17 12 29t28 12z
" />
    <glyph glyph-name="scan" unicode="&#xe649;" 
d="M884 -128h-232v93h232q20 0 33.5 13.5t13.5 33.5v232h93v-232q0 -58 -41 -99t-99 -41zM977 337h-930q-20 0 -33.5 14t-13.5 33t13.5 33t33.5 14h930q20 0 33.5 -14t13.5 -33t-13.5 -33t-33.5 -14zM931 756q0 20 -13.5 33.5t-33.5 13.5h-232v93h232q58 0 99 -41t41 -99
v-232h-93v232zM93 756v-232h-93v232q0 58 41 99t99 41h232v-93h-232q-20 0 -33.5 -13.5t-13.5 -33.5zM93 12q0 -20 13.5 -33.5t33.5 -13.5h232v-93h-232q-58 0 -99 41t-41 99v232h93v-232z" />
    <glyph glyph-name="up" unicode="&#xe64a;" horiz-adv-x="1593" 
d="M75 -124h1438q35 0 53.5 30.5t-0.5 66.5q-9 16 -353 427.5t-365 448.5q-18 32 -53.5 31.5t-53.5 -31.5q-12 -22 -357.5 -435t-361.5 -443q-17 -31 -0.5 -63t53.5 -32z" />
    <glyph glyph-name="warning" unicode="&#xe64b;" 
d="M512 -128q-33 0 -56.5 23.5t-23.5 57t23.5 57t56.5 23.5t56.5 -23.5t23.5 -57t-23.5 -57t-56.5 -23.5zM512 153q-25 0 -42.5 17.5t-17.5 42.5v623q0 25 17.5 42.5t42.5 17.5t42.5 -17.5t17.5 -42.5v-623q0 -25 -17.5 -42.5t-42.5 -17.5z" />
    <glyph glyph-name="trip" unicode="&#xe64c;" 
d="M971 708l-195 -197l134 -366q5 -20 6.5 -28t2 -25t-7.5 -31.5t-23 -30.5q-10 -9 -16.5 -15t-21 -13.5t-27.5 -7.5t-32 8.5t-39 27.5l-203 251l-161 -162l35 -152q5 -17 4 -28t-13 -23q-15 -14 -25 -21t-21 -7t-22 10l-136 178l-176 137q-8 9 -10 18t2.5 17.5t9 14.5
t10.5 12l7 7q13 14 33 14v0q8 0 16 -3l151 -38l162 163l-249 205q-19 20 -27.5 39t-8.5 32.5t7.5 28t13 21t15.5 16.5q15 16 29.5 24t31 7.5t24.5 -2t28 -6.5l362 -137l196 197q30 30 72 33.5t72 -24.5q27 -30 23.5 -72t-33.5 -72z" />
    <glyph glyph-name="weixin" unicode="&#xe64d;" 
d="M499 551q20 0 32 12t12 32t-12 32t-32 12q-21 0 -37 -12.5t-16 -31.5t16 -31.5t37 -12.5zM253 639q-21 0 -37 -12.5t-16 -31.5t16 -31.5t37 -12.5q20 0 32 12t12 32t-12 32t-32 12zM1024 270q0 104 -84 182t-203 87v6q-24 111 -130 185t-240 74q-99 0 -184 -42
t-134 -114.5t-49 -158.5q0 -142 138 -243l-32 -94q-3 -10 5 -17q4 -4 10 -4q4 0 8 2l117 59l15 -3q68 -14 106 -14q17 0 34 1q7 1 11 6q33 -81 114.5 -132t183.5 -51q37 0 103 17l91 -50q3 -2 7 -2q6 0 11 4q8 6 5 17l-23 77q120 95 120 208zM399 208q-16 -1 -32 -1
q-35 0 -100 13l-20 4h-3q-4 0 -7 -1l-88 -45l23 69v5q0 9 -6 14q-134 93 -134 223q0 77 45 142t122 103t168 38q123 0 219.5 -66t118.5 -166q-129 -1 -219.5 -80t-90.5 -190q0 -31 9 -63q-3 1 -5 1zM875 80q-6 -4 -6 -12q0 -3 1 -5l15 -50l-62 34q-4 2 -8 2q-2 0 -4 -1
q-67 -17 -101 -17q-117 0 -200 70t-83 169t83 169t200 70q115 0 198.5 -71t83.5 -168q0 -49 -30 -98t-87 -92zM613 384q-13 0 -24 -11t-11 -24t11 -24t24 -11q19 0 31.5 10.5t12.5 24.5t-12.5 24.5t-31.5 10.5zM806 384q-13 0 -24 -11t-11 -24t11 -24t24 -11q19 0 31.5 10.5
t12.5 24.5t-12.5 24.5t-31.5 10.5z" />
    <glyph glyph-name="unbind" unicode="&#xe64e;" 
d="M276 896q-41 0 -70 -29t-29 -69v-828q0 -40 29 -69t70 -29h472q41 0 70 29t29 69v828q0 40 -29 69t-70 29h-472zM276 778h472q8 0 14 -6t6 -14v-669q0 -9 -6 -14.5t-14 -5.5h-472q-8 0 -14 5.5t-6 14.5v669q0 8 6 14t14 6zM511.5 19q20.5 0 35 -14.5t14.5 -35
t-14.5 -34.5t-35 -14t-35 14t-14.5 34.5t14.5 35t35 14.5z" />
    <glyph glyph-name="wifi" unicode="&#xe64f;" horiz-adv-x="1333" 
d="M1333 589q0 -22 -15 -37t-36 -15q-19 1 -32 13l-1 -1q-113 115 -264 179.5t-319 64.5q-166 0 -314.5 -62.5t-261.5 -175.5q-3 -3 -7 -5l-2 -3v1q-13 -10 -29 -10q-22 0 -37 15t-15 36t15 36l-1 1q127 127 295.5 198.5t356.5 71.5q187 0 355 -71t295 -198v-1
q17 -15 17 -37v0zM666 640v0q138 0 262 -54t216 -150q21 -14 21 -39v-3q-2 -21 -17.5 -35.5t-36.5 -14.5q-17 0 -30 11l-1 -1q-78 86 -185.5 134.5t-228.5 48.5q-122 0 -230 -49t-186 -135l-2 1q-14 -13 -33 -13q-22 0 -37 15t-15 36q1 24 19 39q93 98 218 153.5t266 55.5v0
zM350 235q58 70 140 109.5t176 39.5q92 0 173.5 -39t139.5 -107v-1q16 -15 16 -37q0 -21 -15 -36t-36 -15q-18 0 -32 12l-2 -3q-42 58 -106.5 91t-137.5 33q-75 0 -139.5 -34t-107.5 -92l-2 1q-14 -13 -33 -13q-21 0 -36 15t-15 36q0 24 18 39zM664 128q53 0 90.5 -37.5
t37.5 -90.5t-37.5 -90.5t-90.5 -37.5t-90.5 37.5t-37.5 90.5t37.5 90.5t90.5 37.5z" />
    <glyph glyph-name="shebeiguanli" unicode="&#xe650;" 
d="M963 -26h-902q-25 0 -43 18t-18 44v696q0 26 18 44t43 18h902q25 0 43 -18t18 -44v-696q0 -26 -18 -44t-43 -18zM511 -5h1q21 0 36 15t15 36t-15 36t-36 15h-1q-21 0 -36 -15t-15 -36t15 -36t36 -15zM942 692q0 8 -6 14t-14 6h-820q-8 0 -14 -6t-6 -14v-533q0 -9 6 -15
t14 -6h820q8 0 14 6t6 15v533z" />
    <glyph glyph-name="zhaoxiangji" unicode="&#xe651;" 
d="M512 585q-106 0 -181 -75t-75 -181t75 -181t181 -75t181 75t75 181t-75 181t-181 75zM512 165q-68 0 -116.5 48t-48.5 116t48.5 116.5t116.5 48.5t116.5 -48.5t48.5 -116.5t-48.5 -116t-116.5 -48zM841 585q-15 0 -25.5 -10.5t-10.5 -26t10.5 -26t25.5 -10.5t26 10.5
t11 26t-11 26t-26 10.5zM951 695h-200l-62 93q-11 17 -31 17h-292q-20 0 -31 -17l-62 -93h-200q-30 0 -51.5 -21.5t-21.5 -51.5v-585q0 -31 21.5 -52.5t51.5 -21.5h878q30 0 51.5 21.5t21.5 52.5v585q0 30 -21.5 51.5t-51.5 21.5zM73 37v585h220q19 0 30 16l62 93h254
l62 -93q11 -16 30 -16h220v-585h-878z" />
    <glyph glyph-name="workflow" unicode="&#xe652;" 
d="M858 -128h-692q-50 0 -85.5 35.5t-35.5 84.5v784q0 49 35.5 84.5t85.5 35.5h692q50 0 85.5 -35.5t35.5 -84.5v-784q0 -49 -35.5 -84.5t-85.5 -35.5zM919 745q0 38 -26.5 64.5t-64.5 26.5h-632q-38 0 -64.5 -26.5t-26.5 -64.5v-722q0 -38 26.5 -64.5t64.5 -26.5h632
q38 0 64.5 26.5t26.5 64.5v722zM753 369h-482q-12 0 -21 9t-9 21.5t9 21t21 8.5h482q12 0 21 -8.5t9 -21t-9 -21.5t-21 -9zM753 565h-482q-12 0 -21 8.5t-9 21t9 21.5t21 9h482q12 0 21 -9t9 -21.5t-9 -21t-21 -8.5zM271 233h331q13 0 21.5 -8.5t8.5 -21t-8.5 -21.5
t-21.5 -9h-331q-12 0 -21 9t-9 21.5t9 21t21 8.5z" />
    <glyph glyph-name="zhuanfa" unicode="&#xe653;" 
d="M577 -98q-22 -23 -53.5 -23t-53.5 22.5t-22 53.5t22 53l301 300h-689q-31 0 -53.5 22t-22.5 53.5t22.5 53.5t53.5 22h689l-301 301q-22 22 -22 53t22 53.5t53.5 22.5t53.5 -22l417 -417q26 -27 19 -67q7 -40 -19 -66z" />
    <glyph glyph-name="workflowApprove" unicode="&#xe654;" 
d="M981 14h-938q-18 0 -30.5 12.5t-12.5 30.5q0 50 15 100.5t49 88.5t78 38h228v81q-65 38 -103.5 103.5t-38.5 143.5q0 117 83 200.5t201 83.5t201 -83.5t83 -200.5q0 -78 -38.5 -143.5t-103.5 -103.5v-81h214q48 0 85 -36t54 -87t17 -104q0 -18 -12.5 -30.5t-30.5 -12.5z
M873 228h-219q-6 2 -15.5 7.5t-25.5 20t-16 28.5v72q0 19 6.5 33t12.5 19l6 4q54 30 86 83t32 117q0 94 -67 160.5t-161 66.5t-161 -66.5t-67 -160.5q0 -64 32 -117t86 -83q3 -1 7 -4.5t11 -18t7 -33.5v-72q-3 -6 -8 -15.5t-20 -25t-29 -15.5h-234q-29 0 -53 -58.5
t-24 -98.5h906q0 23 -13.5 59.5t-35.5 67t-43 30.5zM100 -71h824q12 0 20.5 -8.5t8.5 -20t-8.5 -20t-20.5 -8.5h-824q-12 0 -20.5 8.5t-8.5 20t8.5 20t20.5 8.5z" />
    <glyph glyph-name="yhd" unicode="&#xe655;" 
d="M140 753q-136 -95 -138 -96q-1 -2 2 -2q4 0 53 5t51 4t-35 -235l-37 -234q0 -1 96 -1t96 2q0 1 26 321q25 321 25 325q0 6 -1.5 6t-137.5 -95zM415 609q-35 -3 -63.5 -23.5t-44.5 -52.5q-12 -24 -12 -54q-1 -20 2 -32q7 -38 36 -67q26 -27 62 -37q30 -7 61 -1
q35 7 62 30.5t39 57.5q16 45 0 89q-19 54 -71 78q-34 16 -71 12zM447 556q22 -5 39 -21q26 -25 26 -60q0 -19 -9 -38q-5 -11 -16 -21q-10 -10 -20 -15q-38 -19 -76 0q-24 12 -35 35q-19 38 0 77q4 10 15 20q18 18 45 24q4 1 14.5 0.5t16.5 -1.5zM833.5 609
q-1.5 -1 -1.5 -18.5t1.5 -19t32 -1.5t32 1.5t1.5 19t-1.5 18.5t-32 1t-32 -1zM704 563.5q-1 -1.5 -1 -126.5l-1 -124l-12 15q-13 16 -15 16.5t-30 -21.5t-28 -24q-2 -3 8 -16q9 -12 12 -12t13 9l10 8l10 -12q11 -13 21 -26l11 -13l26 -1q26 0 27.5 1.5t1.5 137.5v137h79
v-102v-101l-14 -7q-14 -7 -22 -13q-45 -34 -53 -88q-11 -69 38 -118q34 -34 79.5 -39t85.5 18t58 67q19 46 2 94q-12 36 -40.5 60t-66.5 31l-11 2l-1 38v39h56q55 0 56.5 1.5t1.5 23.5t-2 23.5t-57 1.5h-55v69h64q64 0 67 1q2 1 2 24q0 24 -1 26t-159 2q-159 0 -160 -1.5z
M902 261q22 -6 38 -22q23 -23 25 -55q1 -23 -9 -42q-20 -40 -65 -46q-20 -3 -41 5.5t-34 24.5q-11 15 -16 34q-6 20 0 41q6 22 22 38t38 22q21 5 42 0zM283.5 323.5q-1.5 -2.5 -1.5 -28t1.5 -27.5t29.5 -2h28v-36q0 -35 2 -36q1 -1 24 -2q67 -2 107 -19q46 -20 56 -59
q3 -9 2.5 -27.5t-2.5 -27.5q-7 -27 -24 -45q-14 -15 -34 -24q-31 -15 -82 -16l-29 -1v-24q0 -25 2 -27q2 -1 23.5 -1t35.5 1q66 8 107 41t52 88q8 34 4 61q-10 70 -79 104q-34 17 -79 23q-13 1 -16 1l-4 1v25h91q90 0 91.5 1t1.5 28.5t-1.5 29t-153 1.5t-153 -2.5z" />
    <glyph glyph-name="gouwuche" unicode="&#xe656;" 
d="M338 96q19 0 36 -7t29.5 -19.5t20 -29.5t7.5 -36t-7.5 -36t-20 -29.5t-29.5 -20t-36 -7.5q-20 0 -37 7.5t-29.5 20t-20 29.5t-7.5 36t7.5 36t20 29.5t29.5 19.5t37 7zM754 94q19 0 36.5 -7t30 -19.5t20 -29.5t7.5 -36t-7.5 -36t-20 -29.5t-30 -20t-36.5 -7.5t-36 7.5
t-29.5 20t-20 29.5t-7.5 36t7.5 36t20 29.5t29.5 19.5t36 7zM922 662q28 0 43.5 -7.5t22 -18.5t6 -23.5t-3.5 -21.5t-13 -37t-21.5 -61.5t-23 -66.5t-18.5 -52q-13 -40 -32.5 -55.5t-48.5 -15.5h-525l14 -90h505q48 0 48 -41q0 -20 -9.5 -34.5t-37.5 -14.5h-524
q-20 0 -33.5 9t-22.5 23.5t-14.5 31.5t-8.5 32q-1 6 -5.5 29t-11 57.5t-14.5 77t-16 85.5q-19 101 -43 225h-75q-15 0 -25 7.5t-16.5 18t-9 22.5t-2.5 22q0 20 13.5 33t36.5 13h101q20 0 32 -6t19 -15t10 -19t5 -17q2 -8 4 -22.5t4 -29.5q3 -18 6 -38h684v0zM847 694h-366
l132 132q23 23 50.5 23.5t50.5 -22.5z" />
    <glyph glyph-name="anzhuo" unicode="&#xe657;" 
d="M899.5 575q-26.5 0 -45.5 -18.5t-19 -45.5v-255q0 -27 19 -45.5t45.5 -18.5t45.5 18.5t19 45.5v255q0 27 -19 45.5t-45.5 18.5zM124.5 575q-26.5 0 -45.5 -18.5t-19 -45.5v-255q0 -27 19 -45.5t45.5 -18.5t45.5 18.5t19 45.5v255q0 27 -19 45.5t-45.5 18.5zM221 160
q0 -40 28.5 -68t68.5 -28h32v-128q0 -26 19 -45t46 -19t46 19t19 45v128h64v-128q0 -26 19 -45t46 -19t46 19t19 45v128h32q40 0 68.5 28t28.5 68v351h-582v-351v0zM632 805l41 78q3 7 -4 11t-11 -3l-41 -79q-51 19 -105 19t-105 -19l-41 79q-4 7 -11 3t-4 -11l41 -78
q-69 -31 -114.5 -92t-54.5 -138h578q-9 77 -54.5 138t-114.5 92z" />
    <glyph glyph-name="CMCC" unicode="&#xe658;" 
d="M511 826q-90 0 -172 -35t-141.5 -94.5t-94.5 -141.5t-35 -172t35 -171.5t94.5 -141t141.5 -94.5t172 -35t171.5 35t141 94.5t94.5 141t35 171.5t-35 172t-94.5 141.5t-141 94.5t-171.5 35zM578 54q-53 -38 -97 -24q-23 8 -59 34l-245 200v60l243 -196q44 -27 82 -12
q29 11 71 47l183 158l-42 34l-192 -157q-36 -28 -67 -22q-10 3 -20 8t-23.5 15t-17.5 13l-178 145q-26 20 -40 34v39l216 -172q42 -26 69 -11l24 16l169 139q-18 20 -35 18q-13 -1 -24 -9l-120 -100q-25 -16 -42 -12q-14 3 -27.5 11.5t-31 24t-21.5 19.5l-182 148l254 210
q92 67 186 -3l235 -194q1 -2 1 -15t-0.5 -28l-0.5 -15l-186 152q-3 2 -11 9.5t-14.5 13t-18 14.5t-21 13.5t-22.5 9.5t-23.5 4t-23.5 -4q-8 -3 -16 -7.5t-17.5 -11t-14.5 -10t-16.5 -12.5t-14.5 -11l-182 -153l45 -37l179 149q24 18 52.5 22t56.5 -8q17 -9 24 -16l224 -183
q0 -7 0.5 -13.5t0 -14.5t-1.5 -14l-211 171q-19 13 -47 13t-47 -14q-80 -64 -169 -141q17 -24 44 -15l13 7l116 99q13 8 33 10t34 -5l19 -13l219 -178v-3z" />
    <glyph glyph-name="CUCC" unicode="&#xe659;" 
d="M664 182q-3 6 -6 9q-6 6 -34 35q-9629 9579 -19762 18618.5t-20769.5 17528.5t-21713.5 16384t-22630 15201t-23480.5 13962.5t-24303.5 12685.5t-25063 11355l26540 25445v0q-3 3 -5 1l-30 -30t-30 -31q-7 -7 -21.5 -22t-21.5 -22l-21 -21t-20 -21q-8 -7 -9 -19
q0 -6 4 -17q10 -25 40 -27q10 2 11 3q9 3 13 6l30 30l1 2.5l-1 1.5q-22 23 -40 41q-2 2 0 4q1087 1070 1950.5 2330.5t1467.5 2667.5q-3364 -4944 -3362 -4947l26 -26l14 -14l4 -1q6 7 19 20.5t20 20.5q3 3 6 0q3 -4 13 -14q799 -808 1740.5 -1450t1990.5 -1090
q-3692 2501 -3694 2498l-40 -40q-2 -2 0 -4q20 -19 26 -25q13 -14 33 -14l7 2q13 5 15 6q18 15 16 39l-2 10zM-130563 131524h4.5t6.5 6l6 6l28.5 28.5l34.5 34.5q68 67 68 68q10 10 9 26q0 8 -4 18q-9 20 -35 23l-11 -2q-11 -2 -17 -9q-16 -15 -26 -25q-4 -4 -4 -5t3 -5
q24 -24 37 -38q2 -2 0 -4l-11 -11q-29 -29 -40 -41h-4q-4 4 -18 18.5t-21 21.5q-3 3 -5 0q-8 -7 -21 -20.5t-19 -19.5h-4q-5 6 -15.5 16t-11.5 12q-3 2 -11.5 10.5l-13.5 13.5q-2 2 0 4l20.5 20.5l19.5 19.5q2 3 -1 6q-17 16 -25 25q-11 11 -31 13l-9 -2q-13 -4 -20 -12
t-10 -21q-5 -15 6 -27l18 -18t13 -14q8 -8 29.5 -30t32.5 -34l26.5 -26.5zM-130845 131468l-4 4q-4 4 -10.5 11t-7.5 8q-14 15 -35 16q-4 0 -15 -5q-13 -6 -17 -14q-4 -7 -6 -14q-3 -11 1 -24q5 -11 17 -19q8 -5 14 -5l16 1q8 -1 16 6l6 6l6 6q7 6 19 17q3 3 0 6z
M-130560 131945q-100 0 -191.5 -39.5t-157.5 -105.5t-105 -157.5t-39 -191.5t39 -191.5t105 -157.5t157.5 -105t191.5 -39t191.5 39t157.5 105t105 157.5t39 191.5t-39 191.5t-105 157.5t-157.5 105.5t-191.5 39.5zM-130838 131364q-24 -15 -54 -20l21 6l-2 -1l-7 -0.5
l-4 -1.5l-34 1l-15 2q-8 2 -12 5q-24 11 -42 30l14 -14q-2 1 -5 4q-7 6 -15 16q-6 8 -13 19q-6 10 -9 22q-4 16 -3 37v13.5t3 16.5q2 10 11 25q12 22 31 37q13 11 26 15q2 1 6.5 3l7.5 2q8 2 14 3l41 -1q6 0 16 -4t19 -9q8 -5 18 -13q11 -8 19 -16q5 -4 17 -18
q2 -3 4.5 -0.5t16.5 18.5l23 23h3q642 -652 1398 -1170t1599 -881q-2944 2001 -2944 1998q2 -2 0 -4l-19 -19t-20 -19q-4 -4 0 -7l19 -19l20 -20q2 -2 -1 -5l-48 -48q-4 -3 -5 -3t-4 3l-18.5 18.5l-18.5 18.5l-6 -1q-25 -24 -29 -28q-7 -6 -19 -14zM-130329 131218
q-3 -17 -13 -35q-12 -22 -24 -32q-9 -8 -23 -16q-9 -5 -22 -10l-10 -2.5t-9 -2.5q-7 -3 -22 -2q-10 1 -19 4q-12 3 -26 9q-6 3 -15 8q-14 10 -19 15q-4 3 -21 20l-7 7q-2 3 -4 1q-14 -17 -22 -25q-4 -3 -13 -11q-14 -10 -29 -16q-13 -6 -27 -8q-14 -3 -36 -2q-3 0 -21 5
q-9 2 -23 11q-15 8 -31 25q-11 12 -20 31q-4 9 -6 20q0 2 -3 23h1v14q2 14 4 20q4 9 14 30q7 16 24 32q15 14 87 87q7 6 22 21.5t23 23.5q3 2 0 5l-62 62l-81 81q-3 4 -9 13q-8 14 -12 23q0 1 -6 18q-5 13 -4 46q1 7 5 20q4 9 9 19q8 15 25 31q14 13 29 19q16 7 23 9
q12 3 29 2l23 -2q9 -2 20 -7q13 -6 24 -12q16 -10 29 -24q8 -9 15 -16q1 -3 3 0q15 17 30 29q17 14 35 22q2 1 22 8q13 5 28 4q11 -1 21 -4q13 -3 23 -7q10 -5 20 -12q10 -6 18 -13q10 -10 18 -25t11 -23q7 -20 6 -37q-1 -15 -2 -22q-1 -5 -5 -16q-4 -10 -8 -18
q-8 -17 -19 -28l-52 -52l-24.5 -24.5t-27.5 -26.5q-1173 -1174 -2553.5 -2105.5t-2917.5 -1579.5q5432 3646 5434 3643q2840 -2828 5397.5 -5916t4810 -6407t4191.5 -6875t3520 -7282l-17773 26334q4 -4 12 -18q5 -8 9 -19q1 -2 2.5 -8l1.5 -6q3 -11 4 -24q1 -12 -2 -24z
M-130107 131424q-7 -15 -14 -24q-8 -12 -17 -21q-6 -6 -23 -17q-7 -5 -15 -8q-7 -3 -17 -5l-18 -2l-30 1q-20 3 -37 13q-17 12 -19 13q-5 5 -23 21q-1 2 -11 12h-5q-1 -1 -16.5 -16t-23.5 -23q-2 -3 -4 0l-50 50q-3 3 0 6l20 20l19 19q2 2 0 5q-6 6 -19.5 19t-20.5 20
q-2 2 0 5q883 875 1584 1905t1190 2179q-2672 -3960 -2710 -4024q-6 -10 -5 -11q8 -9 38 -40h1q12 14 13 15q15 14 25 22q12 9 24 15q8 5 22 9t39 2l21 -2q10 -2 19 -7q14 -7 21.5 -13t18.5 -19q11 -12 18 -27q3 -6 7 -17q5 -14 3 -45q-1 -20 -5 -30zM-130191 131494
q-12 12 -30 13l-10 -2q-10 -2 -17 -10q-6 -5 -16.5 -15.5t-11.5 -12.5q-2 -2 0 -4l4 -3t5 -5q2 -1 10 -9.5t13 -12.5q4 -3 13 -6l10 -1q12 1 16 2.5t13 7.5q11 9 13 26q0 3 -2 13q-2 12 -10 19z" />
    <glyph glyph-name="CTCC" unicode="&#xe65b;" 
d="M512 871q-100 0 -191.5 -39t-157.5 -105t-105 -157.5t-39 -191.5t39 -191.5t105 -157.5t157.5 -105t191.5 -39t191.5 39t157.5 105t105 157.5t39 191.5t-39 191.5t-105 157.5t-157.5 105t-191.5 39zM768 422q-81 -57 -213 -93q-13 -4 -38.5 -10t-37.5 -9q-3 -1 -6 -4
t-3 -5q0 -107 22 -163q9 -24 30 -44q13 -11 25 -9t20 16q14 24 26 63q4 11 8.5 32.5t5.5 27.5q2 8 8 10q8 2 52 14q-7 -67 -27 -128q-23 -69 -58 -111q-35 -40 -73 -46q-40 -5 -75 20q-45 33 -76 111q-34 85 -38 181q-1 15 -3.5 17.5t-17.5 4.5q-93 11 -145 38
q-59 30 -66 86l-2 4v21q16 70 62 114t122 84q3 2 69 30l4 -5q5 -18 3 -22t-19 -13q-64 -34 -93 -67q-12 -15 -25 -39q-20 -39 18 -69q15 -12 44.5 -20.5t49.5 -7.5q19 89 20 95q26 102 72 152q42 46 92 42q27 -2 52 -22q35 -27 67 -90q-3 -1 -11.5 -3.5t-12 -3t-10 0.5
t-12.5 5q-20 14 -42 -6q-39 -36 -56 -106q-1 -2 -10 -52q57 13 60 14q103 30 164 82q23 19 39 47q13 22 6 45t-30 36q-14 8 -19 9q-22 1 -28.5 13t-7.5 36q44 3 88 -8q77 -20 115 -64q37 -43 19 -96q-27 -79 -108 -135z" />
    <glyph glyph-name="roundCheck" unicode="&#xe65a;" horiz-adv-x="1389" 
d="M1351 691l-779 -781q-1 -2 -2 -3q-14 -14 -39 -24.5t-45 -10.5t-45 10.5t-39 24.5l-366 366q-15 14 -25.5 39t-10.5 46q0 49 35 84t84 35q21 0 46 -11t39 -26l279 -279l698 700q14 14 39 24.5t46 10.5q49 0 84.5 -35t35.5 -85q0 -21 -10.5 -46t-24.5 -39z" />
    <glyph glyph-name="shezhi" unicode="&#xe640;" 
d="M1017 290q2 -12 -1 -29.5t-10.5 -35.5t-17.5 -32.5t-22.5 -20.5t-21.5 -6t-20 4q-11 3 -26 5.5t-31 1t-32 -6.5t-27 -17q-25 -26 -29 -59t9 -62q11 -21 -3 -41q-6 -8 -19 -17t-29 -16t-33.5 -11t-30.5 -4q-9 0 -17.5 7t-11.5 15h-1q-11 32 -38 55t-63 23q-35 0 -63 -23
t-40 -54q-5 -12 -15 -17.5t-23 -5.5q-14 0 -32 5t-36 12.5t-32 18t-21 20.5q-6 7 -6.5 17t8.5 27q11 24 8.5 54t-26.5 56q-14 15 -34.5 19.5t-39.5 3.5q-21 -1 -44 -8q-14 -4 -28 2q-12 4 -21.5 19t-17 33t-12 37t-1.5 31q3 22 20 28q31 13 55.5 41t24.5 63q0 36 -24.5 62.5
t-55.5 38.5q-9 3 -15 15t-6 24q0 13 4 29.5t10.5 32t15 28.5t19.5 19q8 5 15.5 4t16.5 -4q31 -13 64.5 -8t58.5 29q13 13 18.5 30.5t7 35t0 32t-2.5 20.5q-2 6 -3.5 14.5t1.5 14.5q6 14 22 24.5t34.5 18t35.5 11t28 3.5q13 0 20.5 -8.5t10.5 -18.5q12 -27 37.5 -48t60.5 -21
t63 20t39 50q4 9 13 17.5t18 8.5q14 0 31 -4t33.5 -11.5t30 -18.5t21.5 -24q6 -9 4 -18.5t-5 -13.5q-13 -30 -8 -62.5t30 -57t60.5 -27.5t66.5 12q8 5 20 4t20 -9q15 -15 27 -44t16 -59q2 -17 -5.5 -27t-16.5 -13q-31 -11 -53.5 -39t-22.5 -64q0 -35 18.5 -61t49.5 -37
q7 -5 12 -9q12 -9 16 -23zM541 198q46 0 87 17t71 48t47.5 71.5t17.5 86.5t-17.5 86.5t-47.5 70.5t-71 47.5t-87 17.5t-86.5 -17.5t-71 -47.5t-48 -70.5t-17.5 -86.5t17.5 -86.5t48 -71.5t71 -48t86.5 -17z" />
    <glyph glyph-name="reportAdd" unicode="&#xe65c;" 
d="M512 896h26q15 0 26.5 -11.5t11.5 -26.5v-948q0 -15 -11.5 -26.5t-26.5 -11.5h-26q-16 0 -27 11.5t-11 26.5v948q0 15 11 26.5t27 11.5zM38 435h948q15 0 26.5 -11t11.5 -27v-26q0 -16 -11.5 -27t-26.5 -11h-948q-15 0 -26.5 11t-11.5 27v26q0 16 11.5 27t26.5 11z" />
    <glyph glyph-name="rechargeMobile" unicode="&#xe65d;" 
d="M811 772q-1 16 -12.5 27.5t-27.5 11.5v0h-518v0q-16 0 -27.5 -11.5t-12.5 -27.5v-776q1 -16 12.5 -27.5t27.5 -11.5v0h518v0q16 0 27.5 11.5t12.5 27.5v776zM711 74h-398h-1q-16 0 -27.5 11t-11.5 27v582q0 16 11.5 27.5t27.5 11.5h1h398h1q16 0 27.5 -11.5t11.5 -27.5
v-582q0 -16 -11.5 -27t-27.5 -11h-1zM452 772h120v-20h-120v20zM482 35h60v0q10 0 10 -10v-19q0 -10 -10 -10v0h-60v0q-10 0 -10 10v19q0 10 10 10v0z" />
    <glyph glyph-name="CPCC" unicode="&#xe65e;" 
d="M493 810l10 1h32l10 -1h9l10 -2l9 -1l10 -1l9 -2l9 -1l9 -2l13 -3l14 -3l13 -4l12 -3l14 -6l14 -5l14 -7l13 -7l13 -7l13 -7l12 -8l13 -9l12 -9l11 -9l12 -10l10 -10l12 -11l10 -11l11 -11l10 -12l6 -8l5 -7l6 -9l5 -8l4 -8l5 -7l4 -8l4 -8l5 -8l4 -8l3 -7l3 -9l4 -10
l4 -11l3 -11l4 -11l2 -10l3 -11l2 -11l2 -11l2 -12l1 -12l1 -12v-11v-5v-4l1 -5v-5l-1 -11v-12l-1 -12l-1 -12l-3 -14l-3 -16l-3 -14l-4 -14l-5 -14l-5 -13l-5 -14l-5 -14l-3 -6l-3 -6l-3 -5l-3 -5l-7 -12l-7 -11l-2 -3l-2 -3l-2 -3l-2 -3l-5 -6l-5 -7l-5 -7l-6 -6l-3 -5
l-4 -4l-3 -5l-4 -4l-6 -6l-6 -4l-1 -1h-1l-3 2l-2 2l-4 3l-3 3l-4 3l-4 3h-1v1h-1v1h1l2 3l3 3l3 3l2 2l7 8l8 9l6 8l6 8l7 8l5 8l5 8l5 8l7 11l5 11l5 10l4 11l5 12l5 12l3 7l2 6l2 6l1 7l4 14l3 16l1 15l2 16l1 16v16l-1 16l-1 17v10l-2 10l-1 11l-3 9l-2 7l-2 7l-1 8
l-2 7l-2 6l-1 6l-3 5l-1 6l-2 4l-2 4l-1 4l-2 4l-6 13l-5 12l-7 12l-6 11l-4 7l-5 7l-5 6l-5 6l-8 10l-8 10l-8 9l-9 10l-9 9l-10 8l-10 9l-10 7l-10 8l-11 8l-10 7l-11 7l-11 7l-12 6l-10 5l-12 5l-6 3l-5 2l-7 2l-6 2l-10 4l-9 3l-10 2l-9 3l-9 2l-9 2l-10 2l-10 1l-9 2
l-10 1l-9 1h-38l-5 -1h-5l-5 -1h-4l-8 -1h-9l-8 -1l-7 -1l-8 -2l-9 -1l-8 -2l-8 -2l-9 -2l-8 -2l-7 -3l-9 -2l-6 -2l-5 -3l-6 -2l-6 -3l-12 -5l-11 -5l-11 -6l-11 -6l-5 -2l-5 -4l-5 -3l-4 -4h-2v-1h-1h-2l-1 -1l-1 -1l-1 -1l-1 -1l-3 -2l-4 -2l-3 -2l-3 -3l-14 -11l-13 -11
l-12 -12l-13 -12l-4 -4l-5 -6l-4 -5v0v44v0l6 6l4 4l4 4l5 4l4 3l4 4l4 3l4 3l4 4l10 8l10 7l11 7l10 7l6 4l5 2l7 3l5 4l5 2l6 3l5 2l5 3l13 5l12 5l12 5l14 5l5 1l7 2l3 1l3 1l4 1h2l3 1h3l3 1h3l3 1l3 1l4 1h3l3 1l5 1h4h5l2 1l3 1h3l3 1h6l2 1h3l3 1h4h3v0zM220 126
l6 -6l8 -7l7 -6l7 -7l7 -5l7 -6l3 -2l4 -3l3 -2l2 -3v0l1 3v33l-1 1l-2 2l-1 2l-2 2l-5 3l-3 2l-5 4l-5 4l-5 5l-4 5l-6 6l-6 7l-6 7l-4 6v-45v0zM220 641l-4 -6l-10 -12l-9 -13l-8 -13l-9 -13l-7 -15l-8 -14l-6 -15l-5 -15l-5 -16l-5 -15l-4 -16l-3 -17l-2 -16l-2 -17v-8
v-8l-1 -8l1 -9v-8v-8l1 -7l2 -8l1 -8l1 -8l1 -7l1 -8l3 -13v-3l2 -2v-3l1 -3l-1 -2v-2l-2 -2l-1 -2l-3 -3l-3 -3l-3 -5l-4 -5l-1 -1l-1 -2l-2 -2v-1h-1l-1 4l-1 4l-1 4l-1 4l-2 4l-1 3l-2 9l-3 8l-1 9l-2 8l-2 9l-1 9l-1 9v9l-2 10v45l2 18l1 10l1 9l2 8l2 9l1 8l3 9l2 8
l3 9l3 10l4 13l4 11l4 11l3 6l3 7l4 6l4 7l5 11l6 11l7 11l7 11l7 10l8 9l8 10l8 9l5 6l5 6l4 5v-44h1zM220 171v-45l-1 2l-8 7l-8 9l-6 8l-7 8l-6 9l-7 8l-2 5l-4 5l-3 3l-2 3l-1 3l-1 1l1 4l1 2l2 7l3 7l2 6l3 7l2 -1l3 -3l3 -4l3 -5l7 -10l4 -6l10 -15l11 -14zM646 -20
v25h12l1 1l1 101v1l-1 2h-3h-10v45l3 -1l5 -4l8 -6l7 -6l8 -8l8 -6l3 -3l2 -3l2 -2l1 -2l1 -3v-2v-106v-6l-1 -2l-32 -27h-1l-14 12v0zM646 326v13l4 6l5 8l3 7l2 5l3 7l3 6l2 5l1 4l2 6l1 3l1 5l2 5v2l1 2l2 2l2 2l3 1l2 2h1l1 -1h1v-3l-2 -2l-1 -2v-3l-1 -2l-2 -4l-1 -4
l-1 -2v-1l1 -2v-1l1 -1l1 -1h1l1 -1l1 1h1l2 1h3l1 -1l3 -1h3l3 1h3l3 1l4 1l5 4l6 2l2 2h5l1 -1v-1l1 -2v-4l-1 -1l-2 -4l-3 -2l-1 -2l-2 -2l-1 -3l-1 -3l4 -3l6 -2v-1l-1 -2l-1 -1h-1l-2 -1h-1l-4 -1l-4 -1l-4 -2l-3 -2h-5l-1 1h-1h-1v1l-1 2v3l1 1l3 3l3 3l1 3v1v1h-1
l-1 1l-1 1h-4l-5 -1l-5 -1l-3 -1l-1 -1v-4l1 -1v-2v-3v-2l-2 -2l-2 -1l-1 -2h-3h-6h-2l-2 1l-1 4v5h-1l-1 -3l-1 -2l-3 -6l-4 -5l-1 -4l-3 -3l-2 -4l-1 -3l-4 -5l-3 -5v-1v0zM718 441h2l2 -1h1v-1l1 -1v-2l-1 -1l-1 -2l-2 -2l-1 -2l-2 -2l-2 -1l-3 -1l-3 -1h-4l-7 -1l-6 -1
h-7l-2 2l-4 2l-2 1l-1 2v1v1l1 1l3 1l2 1l2 1l2 1l3 1l3 1h6h3h3l4 1h4v1h2l2 1h2v0zM788 437l2 -1h1v-1h1v-3l-1 -1l-2 -2l-2 -1l-3 -3l-3 -1l-2 -2l-2 -5l-3 -3l-1 -4v-1l1 -1l1 -2l1 -1l2 -2l1 -3v-5v-5l1 -5l1 -3v-3l-1 -5v-1l-1 -1l-1 -1l-1 -2l-1 -1l-2 -1l-2 -1
l-2 -1h-2h-7h-1l-1 1v2l2 1l3 1l1 3l1 2l3 4l1 3v5v6v5l-1 2h-2v-1h-1l-1 -1l-1 -1l-3 -3l-2 -3l-1 -1h-2l-2 -1h-5l-3 1h-1l-1 1l-1 1l-1 1l2 2l2 1l5 3l5 2l3 3l3 3l2 3l3 4l2 3l3 4l3 4l2 3l1 2l2 2l1 1l2 1l2 1l2 1h1v1v0zM842 434l-3 -1l-2 -1l-3 -2l-3 -3l-2 -2l-2 -1
l-1 -1l-3 -1h-1l-1 1l-1 1v1l-2 1v1l-1 1h-1l-3 -1l-2 -1l-2 -1l-1 -1l-1 -1l-1 -1v-2v-1v-3v-2v-2l-1 -2l-1 -2l-1 -1l-1 -1l-2 -1l-3 -1l-2 -1h-1v-2l-1 -1h-1v-1l1 -1h7l1 -1l1 -1v-2v-19v-2v-3l1 -1l1 -2l2 -2l3 -1l2 -1l3 -1h3h4h8l4 -1h11l3 1l4 1h2l3 1l5 3l4 2l4 1
l4 4l4 2l3 3l3 4l3 3l2 3l3 2l1 2l1 1v2l1 2v1l-1 1v1l-1 1l-1 3l-2 3v4l-1 4v13v2l-1 1v2h-4l-1 -1v-2l-1 -2v-3l1 -4v-7l-1 -4v-4v-4v-3l1 -4v-5l-1 -1l-2 -3l-1 -2l-3 -2l-3 -3l-7 -4l-5 -3l-2 -1l-2 -1h-3l-2 -1h-17l-3 1l-2 1l-3 1l-3 1l-2 2l-2 1l-1 1l-1 1l-1 2l-1 2
l-1 2v5l1 4v3v3l2 3l2 3l4 2l4 2l3 2l5 4l4 5l4 2l2 2l2 2l1 1l1 1l2 2v1h-2l-1 1l-3 1h-3v0zM763 154l48 -42h1v-1l-61 -2v-38h61v-34h-61v-37h61l-49 -42l-47 40v115l47 41v0zM877 151h2l44 -42l1 -2v-11l1 -9v-9l-1 -8h-27v37h-30v-106l2 -1h8l2 1h18v37h28v-36l-2 -2
l-2 -1l-2 -2l-1 -2l-6 -5l-6 -6l-6 -5l-7 -6l-3 -3l-6 -6l-2 -2l-3 -3l-2 -1l-1 -1h-1l-1 1l-3 2l-1 2l-2 1l-3 4l-4 2l-3 4l-3 2l-6 5l-5 5l-5 4l-4 5l-1 1v6l1 109l1 2l2 2l10 9l10 8l10 9zM646 339v-12l-2 -3l-1 -3l-2 -3l-2 -2l-4 -5l-4 -4l-1 -2l-2 -2l-2 -2v10l1 1
l3 4l2 4l7 8l5 9l2 2v0zM646 156v-45h-14v-105l14 -1v-25l-16 14h-1v-3v-3l-1 -30h-3v181l2 1l9 8l9 8l1 -1v1zM625 349v94h1l1 -1l1 -2l1 -2l2 -2v-4l1 -6v-5v-6l1 -4v-3v-4l1 -4v-3v-4l1 -4l1 -2v-2l1 -1v-2l-1 -2l-1 -2l-1 -3l-1 -3l-1 -5l-2 -4l-1 -4l-1 -5l-3 -4v-1z
M625 443v-94l-1 -1l-1 -1l-2 -1h-1h-4h-1v1l-1 2l-2 3l-1 2l-1 1v3h1h1h2l2 1h2l1 1l1 1l1 1v2l1 1l1 3v2v7l-1 4l-1 3v13v2l-1 2v4l-1 4v9v3l-1 1v3l-1 2l-1 4l-1 1l-2 2h-2h-2h-6v11h2l4 -1h2h10l2 -1h2v0zM625 311v-10l-1 -2l-4 -4l-3 -3h-3v1v1v1l4 5l3 4l3 4l1 3v0z
M625 139v-181h-22v161l2 2l4 3l9 8l7 6v1zM603 353l3 1l1 1l1 3v1l-1 2l-1 2l-1 1l-2 1v-13v1zM603 370v-1l2 -1l1 -1l1 -2l2 -1h1l1 1v0l1 2v1l-2 2l-2 3l-1 3l-1 3l-1 1l-1 2h-1v-13v1zM603 390v0l3 3l2 3l1 3l1 1l1 2v2h-1v0l-2 1v0l-1 -1v0l-2 -2l-1 -1l-1 -1v-11v1z
M603 419l2 -1l1 -1l1 1h2v4l-1 2l-1 1l-1 1v1h-1l-2 1v-9v0zM603 445v-10v0l-6 -1l-4 -1l-5 -2h-1v8h2l3 2l4 2l2 1l4 1h1v0zM603 428v-9l-1 1l-4 3v3l1 1v2l2 -1h2v0zM603 401v-1l-1 -2h-1h-1h-1v1l-1 1v3v3v3v2l1 1v1l-2 2l-3 2l-2 3l-3 4l-1 1h-1v-20h1v0l1 -1h-1v-2
l-1 1v-11l2 2l1 1l2 1h1l1 -1v0l-1 -2l-2 -3l2 -1l2 -2v-3l-1 -1l-1 -3l-2 -4l-2 -3l-2 -3v-17h2l5 -2l4 -1l2 1l3 2v12l-2 1h-2l-2 -1l-1 -1l-2 -1h-2v1h-1l-1 1v1l4 5l4 6v0l1 -2l2 -1l1 -2l1 -3v13v1l-1 2l1 2v2v11v1zM603 120v-162h-6l-1 155l2 3l2 1l3 3v0zM587 379v4
h1h1v-3l-1 -1h-1zM587 439v-8l-5 -2l-3 -1h-3h-2h-2v1l-1 1v1h1v1l3 2l2 1l2 1h2l4 2l2 1v0zM587 426v-21h-1v-1v-1h1v-11h-1l-2 -4l-3 -4l-1 -2h4l2 1h1v-4l-2 -2l-2 -2l-8 -3l-4 -2l-4 -1l-2 1v4h1l1 3l3 2l1 2l3 2l2 2l1 2v2h-1v1l-1 1l-1 2v0l-1 1v1l1 3l2 2v1l-1 1
l-3 1l-1 1h-1h-2v2l1 1l1 2l1 1l2 1l2 1l1 1h2h3l3 1h2l1 1v1v2l-2 2v2v2l1 1h1v1zM587 371l-3 -2l-3 -3l-2 -2l-4 -2l-3 -3l-1 -1v-1l1 -2v0l1 -1h7l4 -1h3v17v1zM549 -16v151l25 -21v-105l-3 -4l-3 -2l-10 -10l-9 -9v0zM549 363v12l2 3l2 3v3l1 3v5v4v4l1 4v3v2l2 1l1 2
l1 1l2 -1v-1l1 -4v-31l-1 -2v-4l-2 -3v-3l-1 -1l-2 -2l-2 -2l-2 -1h-1l-1 1l-1 3v0v1zM549 422v5l1 -2l-1 -2v-1v0zM549 428v-6v0l-1 -2l-2 -2l-1 -2l-1 -1l-3 -1l-2 -1l-4 -2l-3 -1l-3 -3l-2 -3v-3l1 -2l1 -2l1 -2l1 -1v-1v-2v0l-1 -1l-1 -1h-2h-4l-5 -1l-2 -1v22l2 1l1 2
l2 2h-1l-1 1v0l-1 1h-1v15l1 -1h6l2 1h1h2l3 1h4h2l4 -1h4l1 -1l2 -1v-2v1zM549 374v-11v2v7v2v0zM549 135v-151l-6 -6l-7 -7l-7 -6l-5 -5l-3 -1l-5 4v45h22v102h-21v38l8 7l24 -20v0zM517 463zM452 775h1l1 -1v-816v0h-31l-33 313l-2 -312v-1h-1l-30 -1l-2 1l-1 779v2l1 3
l1 1l2 2l5 2l5 2l9 4l6 2l1 1h3l1 -2v-4l33 -306v0l1 321v1v2l2 1h1h1h1l5 2l4 1h2h2l1 1v0l4 1h3l4 2v-1zM517 467v-4h-1v-8l-1 -6v-7v-7v-1l1 -1v-2h1v-15h-2l-1 -1l-1 -1l-1 -2v-2h1v-1v-1h1l1 1h2v-22h-1l-2 -1h-1l-1 -1v-41l-1 -3v-12l1 -4v-6l-1 -3v-2l-1 -1v-1h-4
l-1 1v0l-1 3l-1 2v5l1 4l-1 10v39l1 3v1l-1 1v1h-5l-1 1h-1h-1l-1 2v3l1 1l1 1l1 1l1 2l3 1l2 2l2 3l1 1v2v8v1h-3h-2l-3 -1l-4 -3l-2 -2l-3 -2l-2 -2l-2 -1l-1 -2l-1 -4l-2 -2l-1 -3v-3l-1 -1v0l-1 -1h-4l-1 1v0l-2 2l-1 1l-2 4l-1 2l2 4l1 2l1 5l1 6l2 3l1 2l2 3l2 1l2 2
h3v-1l2 -2v-4v-1v0v-1h2l1 2l2 1l2 2l2 1l3 1l2 2l2 1l2 2l2 1l1 2l1 4v22l-1 2l1 3v4v2l1 2l1 1l1 1l1 1l2 -1h1l1 -1v-1h1v0zM517 148v-38h-8l1 -102h7v-45l-41 38v112l41 35v0zM331 731l1 -1l1 -2v-13l-2 -757h-1h-3l-5 -1h-14l-6 1h-3l-1 46v370l1 45v93v46v153l1 2l2 1
l2 1h1l5 3l4 3l5 3l4 3l4 2zM273 366l1 -1h2v-1l-4 -1l-3 -2l-5 -3l-4 -3l-5 -3l-4 -3l-3 -3l-3 -2l-12 -9l-5 -5l-5 -6l-5 -5l-5 -6l-4 -4l-5 -5l-6 -7l-5 -6l-5 -7l-5 -6l-4 -7l-5 -7l-4 -6l-4 -7l-4 -7l-3 -7l-3 -7l-3 -7l-1 -3l-1 -4l-1 -3l-1 -3v-4l-1 -3v-4v-4l-1 -4
l-1 -3v-4v-3v-7v-8l1 -7l1 -6l2 -8l2 -4l2 -3l2 -3l3 -3l3 -1l2 -3l4 -1l3 -1l6 -2l8 -2l3 -2l4 -1v0l1 -1l4 -2l9 -4l9 -6l4 -4l4 -3l4 -4l3 -3l4 -4l4 -4l3 -3l3 -5l3 -4l3 -4l2 -5l2 -5l1 -4l1 -3l1 -4l1 -4l1 -8v-16l-2 -8l-1 -5l-1 -3l-1 -4l-1 -3l-4 -7l-5 -7l-5 -6
l-5 -6l-5 -5l-5 -4l-2 -2l-2 -1h-18l-7 -1h-8l-7 1l-12 -1h-47l-12 1h-24v0l5 4l4 4l5 4l4 3l9 9l10 8l9 8l9 8l5 4h4h2l2 -1h3h13h2l3 1l3 1l4 3l5 3l4 4l3 3l2 3l2 4l1 4l1 5v4v9l-1 4l-1 3l-2 4l-1 3l-2 3l-2 3l-3 3l-4 4l-5 4l-4 4l-5 3l-4 2l-3 2l-3 3l-4 2l-5 3l-5 3
l-5 3l-6 3l-17 13l-3 4l-3 4l-2 4l-2 5l-1 4v4l-1 6l-2 5v22l2 6v6l1 6l3 5l3 12l6 12l5 12l6 11l3 5l2 5l3 5l4 4l4 6l5 6l5 5l5 6l3 3l3 3l2 3l3 3l9 8l8 8l9 7l10 7l4 3l5 3l7 4l6 3l7 4l6 3l6 2l6 2l3 1l5 1l4 1l4 1h1z" />
  </font>
</defs>
</svg>
