<?xml version="1.0" standalone="no"?>
<!DOCTYPE svg PUBLIC "-//W3C//DTD SVG 1.1//EN" "http://www.w3.org/Graphics/SVG/1.1/DTD/svg11.dtd" >
<svg xmlns="http://www.w3.org/2000/svg">
<metadata>Generated by IcoMoon</metadata>
<defs>
<font id="icomoon" horiz-adv-x="1024">
<font-face units-per-em="1024" ascent="960" descent="-64" />
<missing-glyph horiz-adv-x="1024" />
<glyph unicode="&#x20;" horiz-adv-x="512" d="" />
<glyph unicode="&#xe900;" glyph-name="CUCC" d="M663.518 245.623c-1.412 3.442-3.129 7.064-5.666 9.688-11.256 11.639-22.848 22.953-34.326 34.373-3.323 3.323-27.084 26.959-50.847 50.593-34.087 33.881-46.306 46.005-58.503 58.151-1.541 1.536-2.762 2.703-4.936 0.496-19.894-20.2-39.934-40.257-59.828-60.46-14.497-14.724-28.771-29.67-43.264-44.4-13.77-13.998-27.736-27.803-41.529-41.776-5.215-5.283-7.524-11.923-8.137-19.225-0.51-6.104 1.621-11.631 3.76-17.142 6.020-15.505 20.854-25.695 39.729-26.768 2.334 0.469 7.064 0.892 11.392 2.444 4.325 1.55 8.925 3.499 12.221 6.551 10.47 9.693 20.427 19.943 30.435 30.122 0.72 0.734 0.906 3.228 0.277 3.877-13.205 13.653-26.499 27.227-39.966 40.621-2.062 2.051-1.749 2.974 0.027 4.72 18.769 18.479 35.52 35.050 52.233 51.657 0.805 0.798 1.833 0.874 3.529-0.866 8.484-8.709 17.113-17.277 25.696-25.894 4.803-4.823 9.584-9.671 14.439-14.437 1.009-0.991 1.952-2.533 3.799-0.61 13.057 13.582 26.251 27.030 39.283 40.632 2.264 2.362 3.568 1.958 5.58-0.262 4.342-4.789 8.937-9.355 13.484-13.953 13.002-13.145 25.004-25.226 37.033-37.28 1.339-1.343 1.28-2.477-0.23-4.009-13.326-13.502-26.6-27.055-39.885-40.596-1.26-1.286-1.638-2.314 0.010-3.879 8.658-8.22 17.436-16.339 25.674-24.967 9.063-9.494 20.068-13.688 32.883-13.641 2.488 0.009 5.058 0.817 7.438 1.673 4.877 1.755 10.436 2.809 14.322 5.9 12.282 9.771 17.972 22.854 16.214 38.712-0.375 3.374-1.060 6.836-2.341 9.955zM509.484 515.984c1.717-1.739 2.637-1.411 4.049 0 4.111 4.11 8.288 8.148 12.404 12.252 20.969 20.906 41.908 41.845 62.896 62.731 22.868 22.758 45.911 45.343 68.597 68.28 6.964 7.040 9.256 16.486 9.030 26.096-0.138 5.879-1.978 11.675-4.45 17.259-6.803 15.379-19.588 21.45-35.156 23.052-3.625 0.374-7.455-0.914-11.149-1.646-6.433-1.273-12.247-3.807-17.003-8.53-8.539-8.485-17.101-16.949-25.773-25.296-5.094-4.905-5.225-4.823-0.48-9.739 12.253-12.698 24.508-25.393 36.826-38.027 1.539-1.579 1.545-2.556-0.075-4.096-3.804-3.614-7.418-7.431-11.103-11.174-13.4-13.623-26.803-27.243-40.182-40.889-1.435-1.464-2.518-1.304-3.904 0.13-12.992 13.368-26.064 26.653-39.008 40.064-2.051 2.126-3.34 2.156-5.43 0.037-13.229-13.425-26.598-26.712-39.852-40.114-1.52-1.537-2.481-1.324-3.852 0.049-9.072 9.072-18.196 18.088-27.291 27.135-8.076 8.032-16.125 16.088-24.211 24.109-1.436 1.42-2.135 2.417-0.244 4.321 13.239 13.306 26.299 26.794 39.507 40.13 2.157 2.177 1.781 3.444-0.28 5.442-8.732 8.453-17.469 16.914-25.838 25.717-8.126 8.544-18.333 11.577-30.449 12.9-2.667-0.613-6.186-1.133-9.509-2.245-7.204-2.409-14.021-5.762-19.116-11.539-5.359-6.078-8.597-13.339-10.836-21.168-2.924-10.212-0.895-19.488 5.949-27.026 10.041-11.056 20.982-21.288 31.439-31.965 20.804-21.239 41.463-42.616 62.324-63.796 17.301-17.57 34.846-34.903 52.17-52.454zM226.66 460.377c-1.363 1.157-2.837 2.212-4.054 3.508-5.88 6.258-11.684 12.589-17.529 18.881-8.742 9.414-19.146 15.417-34.877 15.931-3.806 0.526-9.563-1.643-15.102-4.232-6.89-3.216-13.596-6.947-17.091-14.202-2.236-4.646-4.234-9.453-5.822-14.354-2.598-8.021-1.8-16.017 1.236-23.82 3.16-8.127 9.021-13.988 16.123-18.648 4.233-2.779 8.629-5.334 14.082-5.094 5.449 0.239 10.918 0.225 16.373 0.175 6.411-0.056 11.541 2.936 16.103 6.923 4.021 3.511 7.616 7.504 11.513 11.167 6.332 5.955 12.736 11.836 19.151 17.702 2.763 2.525 2.791 3.599-0.106 6.063zM512 936.515c-272.513 0-493.43-220.917-493.43-493.43 0-272.514 220.917-493.43 493.43-493.43s493.43 220.916 493.43 493.43c0 272.513-220.916 493.43-493.43 493.43zM234.225 356.321c-5.393-3.456-11.663-6.817-18.192-9.698-6.191-2.642-11.901-4.014-17.511-5.468-3.418-0.886-7.001-1.125-10.503-1.716-11.483-1.943-22.978-0.686-34.433 0.12-4.834 0.34-9.637 1.625-14.359 2.847-4.254 1.098-8.535 2.354-12.525 4.162-5.914 2.686-10.857 5.379-15.587 8.376-5.405 3.413-11.408 7.178-16.663 11.742-5.508 4.78-10.561 10.226-15.102 15.942-4.965 6.247-9.408 12.96-13.535 19.798-4.008 6.636-6.832 13.817-8.684 21.468-2.857 11.796-3.71 23.708-3.546 37.099 0 3.582-0.449 8.556 0.122 13.41 0.641 5.459 2.207 10.81 3.363 16.21 1.976 9.236 6.353 17.473 10.935 25.566 8.021 14.174 18.237 26.741 30.79 37.020 7.811 6.397 16.541 11.853 26.336 15.155 4.719 1.589 9.283 3.697 14.070 4.989 4.387 1.185 8.971 2.139 13.486 2.23 13.616 0.276 27.26 0.475 40.859-0.122 5.414-0.237 10.934-2.138 16.051-4.17 6.788-2.693 13.453-5.871 19.756-9.551 6.189-3.615 12.064-7.86 17.705-12.299 6.561-5.161 12.967-10.57 18.973-16.359 6.021-5.802 11.527-12.146 17.118-18.383 1.667-1.861 2.351-2.080 4.229 0.039 5.477 6.18 11.363 11.995 17.098 17.944 7.436 7.715 14.922 15.383 22.289 23.161 1.305 1.377 2.113 1.617 3.506 0.203 13.186-13.404 25.166-25.516 37.18-37.595 4.86-4.884 10.25-10.076 15.609-15.298 1.313-1.278 1.303-2.342-0.039-3.669-13.014-12.886-25.965-25.83-38.979-38.712-3.4-3.365-3.334-3.746 0.092-7.106 12.983-12.749 25.829-25.644 38.848-38.354 2.791-2.724 0.289-3.926-1.104-5.322-15.995-16.021-32.052-31.979-48.082-47.963-4.453-4.44-4.35-4.367-8.754 0.008-12.451 12.369-25.018 24.621-37.455 37.004-2.357 2.35-3.803 1.083-5.551-0.641-9.698-9.559-19.187-19.354-29.267-28.499-5.644-5.127-12.070-9.495-18.544-13.568zM743.292 209.989c-2.484-12.54-7.22-24.155-13.247-35.234-6.465-11.88-13.836-23.371-24.249-32.146-7.078-5.966-15.122-10.93-23.197-15.528-6.995-3.982-14.503-7.178-22.040-10.042-5.944-2.257-12.35-3.261-18.422-5.218-7.455-2.402-15.086-1.896-22.607-1.483-6.352 0.347-12.811 1.437-18.898 3.275-8.862 2.675-17.553 6.036-26.080 9.653-4.94 2.096-9.596 5.006-14.058 8.021-6.792 4.592-13.671 9.176-19.853 14.526-7.324 6.342-13.991 13.454-20.86 20.314-2.282 2.28-4.343 4.783-6.435 7.242-1.313 1.539-2.203 2.056-3.917 0.143-7.282-8.142-14.573-16.292-22.255-24.050-4.131-4.172-8.933-7.722-13.643-11.268-8.861-6.668-18.458-12.205-28.659-16.468-8.749-3.658-17.82-6.294-27.243-8.173-12.057-2.402-24.053-2.035-36.022-1.244-7.077 0.469-14.021 3.1-21.002 4.848-8.227 2.058-15.556 6.123-22.802 10.358-11.561 6.755-21.343 15.597-30.498 25.299-8.699 9.226-15.082 19.906-20.174 31.315-2.814 6.311-4.797 13.124-6.178 19.91-1.502 7.37-1.874 14.97-2.74 22.471l0.957 0.078c0 4.808-0.504 9.682 0.117 14.411 0.881 6.693 1.771 13.588 4.129 19.84 3.934 10.423 8.857 20.489 13.688 30.554 5.748 11.985 14.143 21.912 23.651 31.233 29.406 28.828 58.392 58.085 87.517 87.199 15.066 15.067 30.068 30.204 45.15 45.258 1.896 1.894 1.641 3.184-0.178 4.994-20.805 20.709-41.542 41.486-62.294 62.245-26.995 27-54.063 53.926-80.892 81.092-3.59 3.634-6.244 8.31-8.81 12.802-4.313 7.553-8.511 15.204-12.166 23.085-2.593 5.585-4.184 11.631-6.265 17.454-5.457 15.257-4.089 31.099-3.407 46.743 0.288 6.598 2.677 13.241 4.917 19.576 2.355 6.664 5.332 13.169 8.652 19.417 6.357 11.949 15.547 21.664 25.43 30.778 8.48 7.82 17.799 14.388 28.442 18.855 7.737 3.249 15.513 6.629 23.575 8.829 9.156 2.497 18.748 2.779 28.236 2.268 7.648-0.414 15.396-0.78 22.861-2.33 7.084-1.469 14.061-3.978 20.707-6.889 8.18-3.58 16.225-7.623 23.861-12.236 10.889-6.578 20.623-14.748 29.244-24.151 4.815-5.252 9.563-10.57 14.168-16.006 1.65-1.948 2.564-1.394 3.916 0.173 9.199 10.654 19.072 20.601 29.979 29.556 10.564 8.668 21.966 15.995 34.292 21.738 7.182 3.346 14.866 5.625 22.336 8.354 9.177 3.354 18.737 4.098 28.329 3.334 6.818-0.542 13.684-1.589 20.289-3.315 7.896-2.062 15.758-4.586 23.23-7.837 7.054-3.073 13.842-6.959 20.275-11.204 6.189-4.082 12.203-8.634 17.519-13.782 7.372-7.145 13.311-15.586 18.117-24.683 3.915-7.403 7.933-14.833 10.914-22.629 4.616-12.086 7.438-24.685 6.425-37.782-0.568-7.314-1.197-14.669-2.553-21.862-0.994-5.27-3.029-10.379-4.938-15.431-2.302-6.078-4.769-12.107-7.507-17.998-4.851-10.431-10.9-19.969-19.302-28.123-17.616-17.097-34.817-34.624-52.183-51.982-17.201-17.196-34.393-34.407-51.599-51.601-12.095-12.1-24.145-24.119-36.213-36.121-2.286-2.271-2.288-3.462-0.761-4.983 29.968-29.846 57.222-57.029 84.458-84.23 20.173-20.152 41.323-40.977 61.948-62.308 4.771-4.935 7.987-11.499 11.365-17.617 3.354-6.075 6.287-12.423 8.889-18.861 1.933-4.787 2.983-9.926 4.52-14.878 2.358-7.592 3.378-15.36 3.759-23.292 0.393-8.182-0.114-16.169-1.715-24.256zM964.517 416.432c-3.813-8.461-7.964-16.906-13.122-24.58-5.12-7.622-11.086-14.914-17.785-21.167-6.674-6.233-14.568-11.234-22.227-16.318-4.834-3.21-10.038-6.042-15.407-8.206-5.479-2.206-11.3-3.748-17.106-4.917-5.76-1.159-11.678-1.967-17.539-2.080-10.141-0.195-20.418-0.667-30.404 0.685-13.002 1.759-25.366 6.289-36.5 13.577-6.481 4.241-13.324 8.050-19.294 12.925-7.937 6.483-15.245 13.746-22.698 20.809-4.052 3.839-7.852 7.943-11.743 11.952-1.546 1.594-2.958 1.663-4.586 0.041-13.214-13.174-26.505-26.276-39.653-39.518-1.73-1.743-2.617-1.65-4.246-0.008-16.738 16.876-33.508 33.72-50.367 50.47-2.3 2.284-2.6 3.674-0.080 6.133 13.010 12.696 25.783 25.635 38.759 38.366 2.044 2.007 1.954 3.223 0.021 5.14-13.167 13.063-26.211 26.25-39.403 39.289-1.996 1.977-1.628 3.109 0.162 4.884 16.94 16.787 32.893 32.679 48.804 48.613 5.214 5.218 5.090 5.23 9.844 0.236 12.553-13.177 25.158-26.301 37.75-39.44 0.142-0.147 0.394-0.192 1.131-0.528 4.453 5.063 8.527 10.434 13.354 15.018 8.071 7.662 16.302 15.224 25.055 22.071 7.282 5.693 15.093 10.914 23.271 15.197 7.184 3.763 15.060 6.427 22.883 8.702 12.504 3.635 25.41 3.087 38.242 2.086 7.212-0.561 14.527-0.828 21.559-2.341 6.379-1.374 12.713-3.698 18.563-6.615 7.485-3.734 14.991-7.814 21.52-12.973 7.015-5.543 13.199-12.243 19.209-18.922 7.244-8.053 13.009-17.234 17.506-27.101 2.518-5.525 4.57-11.278 6.609-17.008 5.226-14.688 4.090-30.009 3.314-45.058-0.514-9.876-1.225-20.166-5.396-29.414zM881.213 486.041c-8.227 7.804-18.15 12.095-29.787 13.008-3.545-0.767-7.082-1.599-10.645-2.286-6.774-1.309-12.463-4.725-17.279-9.43-9.397-9.184-18.545-18.621-27.828-27.921-1.463-1.47-1.248-2.768 0.164-3.987 3.203-2.761 6.612-5.301 9.652-8.226 7.559-7.267 14.674-15.020 22.547-21.917 3.5-3.067 8.232-5.028 12.725-6.569 3.16-1.086 6.88-0.989 10.309-0.756 5.388 0.366 11.002 0.518 16.029 2.212 4.557 1.534 8.664 4.735 12.611 7.682 8.582 6.406 12.281 15.637 13.105 25.897 0.354 4.416-0.85 9.002-1.661 13.454-1.326 7.285-4.609 13.782-9.942 18.839z" />
<glyph unicode="&#xe901;" glyph-name="add_device" d="M962.56 38.4h-901.12c-33.932 0-61.44 27.508-61.44 61.44v696.32c0 33.932 27.508 61.44 61.44 61.44h901.12c33.932 0 61.44-27.508 61.44-61.44v-696.32c0-33.932-27.508-61.44-61.44-61.44zM511.365 58.88h0.635c28.277 0 51.2 22.923 51.2 51.2s-22.923 51.2-51.2 51.2h-0.635c-28.277 0-51.2-22.923-51.2-51.2s22.923-51.2 51.2-51.2zM942.080 755.65c0 11.31-9.17 20.48-20.48 20.48h-819.2c-11.31 0-20.48-9.17-20.48-20.48v-532.93c0-11.31 9.17-20.48 20.48-20.48h819.2c11.31 0 20.48 9.17 20.48 20.48v532.93z" />
<glyph unicode="&#xe902;" glyph-name="add_shopping_point" d="M512 960q106.229 0 199.489-40.145t162.432-109.935 109.317-163.049 40.145-199.489-40.145-198.871-109.317-162.432-162.432-109.935-199.489-40.145-198.871 40.145-162.432 109.935-109.935 162.432-40.145 198.871 40.145 199.489 109.935 163.049 162.432 109.935 198.871 40.145zM812.159 215.16q6.176 17.293 9.882 38.91t6.176 46.321q-17.293 6.176-33.969 12.97t-33.969 14.205q-1.235-14.823-3.706-33.351t-6.176-41.998q-6.176-37.057-54.35-37.057h-37.057q-49.409-3.706-45.703 41.998v166.755l93.877 2.47 43.233-43.233 55.585 49.409q-48.174 43.233-95.73 85.23t-94.495 81.525l-48.174-37.057q6.176-6.176 15.44-14.205t21.616-20.381q27.175-23.469 38.292-38.292l-291.513-7.411q66.702 55.585 158.109 146.992h310.041v67.937h-260.632q-1.235 3.706-2.47 11.117l-4.941 17.293q-6.176 19.764-10.499 32.116t-5.559 19.764l-81.525-8.647q2.47-6.176 6.176-18.528t9.882-29.645q6.176-18.528 7.411-23.469h-286.572v-67.937h222.34q-58.055-64.232-118.581-112.405-27.175-27.175-64.232-43.233l35.821-67.937q9.882 2.47 29.028 4.941t51.262 4.941h29.645q0-92.642-40.762-133.404-35.821-43.233-153.168-80.289 2.47-4.941 6.176-10.499t9.882-14.205q9.882-13.587 16.676-23.469t10.499-17.293q239.633 74.113 224.811 285.337l90.171 2.47v-187.754q-2.47-86.466 88.936-82.76h80.289q87.701-3.706 102.524 61.761z" />
<glyph unicode="&#xe903;" glyph-name="anzhuo" d="M899.653 639.215c-35.533 0-64.597-28.758-64.597-63.915v-255.727c0-35.157 29.064-63.932 64.597-63.932s64.614 28.775 64.614 63.932v255.727c0 35.157-29.081 63.915-64.614 63.915zM124.347 639.215c-35.533 0-64.614-28.758-64.614-63.915v-255.727c0-35.157 29.081-63.932 64.614-63.932s64.597 28.775 64.597 63.932v255.727c0 35.157-29.064 63.915-64.597 63.915zM221.253 223.676c0-52.958 43.4-95.88 96.921-95.88h32.307v-127.864c0-35.157 29.064-63.932 64.597-63.932 35.55 0 64.614 28.775 64.614 63.932v127.864h64.614v-127.864c0-35.157 29.064-63.932 64.614-63.932 35.533 0 64.597 28.775 64.597 63.932v127.864h32.307c53.521 0 96.921 42.923 96.921 95.88v351.625h-581.496v-351.625zM631.723 869.479l40.892 77.721c2.065 3.891 0.512 8.738-3.43 10.769s-8.841 0.494-10.889-3.396l-41.506-78.899c-32.512 12.442-67.84 19.269-104.789 19.269s-72.277-6.827-104.789-19.269l-41.506 78.899c-2.048 3.891-6.946 5.427-10.889 3.396s-5.478-6.878-3.43-10.786l40.875-77.721c-91.495-40.96-157.73-127.437-169.216-230.246h577.895c-11.486 102.81-77.721 189.286-169.216 230.263z" />
<glyph unicode="&#xe904;" glyph-name="apple" d="M942.001 216.544c-22.757-51.601-33.673-74.639-62.996-120.252-40.9-63.723-98.553-143.009-169.999-143.72-63.508-0.579-79.814 42.289-165.981 41.777-86.149-0.463-104.143-42.504-167.651-41.908-71.446 0.662-126.090 72.29-167.022 135.98-114.397 178.12-126.354 387.166-55.801 498.288 50.145 78.971 129.248 125.196 203.622 125.196 75.747 0 123.361-42.471 185.959-42.471 60.746 0 97.759 42.537 185.314 42.537 66.17 0 136.277-36.864 186.256-100.571-163.714-91.772-137.104-330.885 28.297-394.856zM511.537 705.521c-10.353 57.702 16.241 117.043 48.458 157.066 35.475 44.075 96.254 77.879 148.218 81.568 8.765-60.283-15.381-119.242-47.2-161.035-34.052-44.72-92.748-79.384-149.475-77.598z" />
<glyph unicode="&#xe905;" glyph-name="backtop" d="M933.138 472.868l-420.706 422.867-420.706-422.867v64.178l420.706 422.954 420.706-422.954zM180.079-58.55v279.549h-104.441v37.453h251.265v-37.453h-104.874v-279.548h-41.95zM349.175 95.841c0 52.588 14.141 93.759 42.382 123.6 28.242 29.753 64.741 44.631 109.415 44.631 29.278 0 55.659-7.006 79.142-21.017 23.482-13.927 41.386-33.474 53.755-58.47 12.283-24.997 18.466-53.367 18.466-85.111 0-32.087-6.487-60.89-19.46-86.233-12.974-25.431-31.356-44.632-55.142-57.607-23.785-13.062-49.431-19.634-76.978-19.634-29.842 0-56.524 7.265-80.008 21.624-23.482 14.445-41.299 34.080-53.41 59.076-12.108 24.909-18.163 51.29-18.163 79.141zM392.422 95.148c0-38.143 10.249-68.243 30.834-90.214 20.5-22.056 46.274-33.040 77.284-33.040 31.57 0 57.561 11.16 77.974 33.301 20.368 22.228 30.575 53.712 30.575 94.538 0 25.774-4.368 48.35-13.105 67.552-8.692 19.288-21.45 34.165-38.23 44.802-16.823 10.554-35.68 15.829-56.566 15.829-29.71 0-55.27-10.207-76.634-30.531-21.451-20.414-32.133-54.493-32.133-102.238zM706.393-58.55v317.001h119.578c21.060 0 37.107-1.038 48.219-3.027 15.57-2.595 28.631-7.524 39.14-14.791 10.508-7.352 18.985-17.558 25.429-30.619 6.4-13.148 9.601-27.591 9.601-43.247 0-26.986-8.563-49.82-25.732-68.416-17.17-18.684-48.136-28.024-92.983-28.024h-81.304v-128.876h-41.95zM748.344 107.691h81.953c27.116 0 46.361 5.102 57.734 15.135 11.373 10.12 17.083 24.304 17.083 42.642 0 13.233-3.374 24.564-10.034 34.077-6.747 9.428-15.569 15.656-26.511 18.684-7.050 1.815-20.109 2.767-39.138 2.767h-81.087v-113.308z" />
<glyph unicode="&#xe906;" glyph-name="brokenHeart" d="M650.434 749.891s233.145 111.186 319.931-174.54c1.507-4.958 53.635-191.352-166.268-312.881-9.779-5.407-201.35-109.896-278.776-257.284 0 0-68.483 154.991-296.145 265.042-4.747 2.295-229.176 117.962-123.196 367.182 2.736 6.432 123.196 253.405 351.045 74.986l18.546-20.684-105.976-159.027 178.834-120.238-82.128-109.899 82.128-165.487-23.107 155.148 125.112 127.996-162.94 126.702 162.94 202.986z" />
<glyph unicode="&#xe907;" glyph-name="bumen" d="M528.896 384.684c90.965 44.316 153.771 137.444 153.771 245.362 0 150.812-122.254 273.067-273.067 273.067s-273.067-122.254-273.067-273.067c0-107.918 62.805-201.045 153.771-245.362-158.322-48.128-275.513-189.554-288.54-360.277-1.115-2.579-1.764-5.582-1.764-8.736 0-0.009 0-0.018 0-0.027 0-12.571 10.183-22.755 22.756-22.755s22.756 10.183 22.756 22.756h1.138c11.833 190.407 169.529 341.333 362.951 341.333 193.365 0 351.118-150.926 362.951-341.333h1.138c0-12.629 10.183-22.756 22.756-22.756s22.756 10.183 22.756 22.756c0 3.129-0.683 5.973-1.764 8.704-13.028 170.78-130.219 312.206-288.54 360.334zM182.044 630.045c0 125.611 101.888 227.556 227.556 227.556 125.611 0 227.499-101.945 227.499-227.556 0-125.724-101.888-227.612-227.499-227.612-125.668 0-227.556 101.888-227.556 227.612zM1022.236 24.406c-13.028 170.724-130.219 312.149-288.484 360.277 90.908 44.316 153.714 137.444 153.714 245.362 0 150.756-122.197 273.067-273.010 273.067-12.572 0-24.804-1.138-36.807-2.788 20.139-12.572 39.026-27.136 55.751-43.748 116.793-9.614 208.612-107.349 208.612-226.532 0-118.841-91.193-216.178-207.417-226.418 1.583-3.697 2.503-7.998 2.503-12.515 0 0 0-0.001 0-0.001 0-1.536-0.626-2.844-0.853-4.21 20.139-11.662 39.538-24.462 57.742-39.026 155.42-34.759 273.237-168.789 283.307-332.231h1.138c0-12.629 10.24-22.756 22.756-22.756 12.629 0 22.756 10.183 22.756 22.756 0.057 3.129-0.626 6.030-1.707 8.761z" />
<glyph unicode="&#xe908;" glyph-name="calendar" d="M976-64h-928c-26.496 0-48 21.472-48 48v832c0 26.496 21.504 48 48 48h80v-48c0-61.856 50.144-112 112-112s112 50.144 112 112v48h320v-48c0-61.856 50.144-112 112-112s112 50.144 112 112v48h80c26.496 0 48-21.504 48-48v-832c0-26.528-21.504-48-48-48zM256 640h-160v-160h160v160zM256 416h-160v-160h160v160zM256 192h-160v-160h160v160zM320 32h160v160h-160v-160zM320 256h160v160h-160v-160zM320 640v-160h160v160h-160zM704 640h-160v-160h160v160zM704 416h-160v-160h160v160zM704 192h-160v-160h160v160zM928 640h-160v-160h160v160zM928 416h-160v-160h160v160zM928 192h-160v-160h160v160zM784 768c-26.496 0-48 21.504-48 48v96c0 26.496 21.504 48 48 48s48-21.504 48-48v-96c0-26.496-21.504-48-48-48zM240 768c-26.496 0-48 21.504-48 48v96c0 26.496 21.504 48 48 48s48-21.504 48-48v-96c0-26.496-21.504-48-48-48z" />
<glyph unicode="&#xe909;" glyph-name="camera" d="M947.211 63.883h-870.411c-42.412 0-76.801 34.389-76.801 76.822v512.006c0 42.412 34.389 76.801 76.801 76.801h179.202l54.934 87.894s14.592 14.507 32.256 14.507h340.015c13.696 0 28.8-12.8 28.8-12.8l56.001-89.601h179.202c42.412 0 76.801-34.389 76.801-76.801v-512.006c0-42.433-34.389-76.822-76.801-76.822zM510.662 597.884c-117.804 0-213.336-95.51-213.336-213.336s95.531-213.336 213.336-213.336c117.825 0 213.336 95.51 213.336 213.336s-95.51 213.336-213.336 213.336zM512.006 213.218c-94.252 0-170.669 76.417-170.669 170.669s76.417 170.669 170.669 170.669c94.252 0 170.669-76.417 170.669-170.669s-76.417-170.669-170.669-170.669z" />
<glyph unicode="&#xe90a;" glyph-name="checkBill" d="M320 960c-35.415 0-63.998-28.589-63.998-63.998v-63.999h490.664c35.415 0 63.999-28.59 63.999-64.005v-661.334h64.004c35.41 0 63.999 28.589 63.999 64.004v725.333c0 35.409-28.589 63.998-63.999 63.998l-554.669 0.001zM149.331 789.331c-35.409 0-63.998-28.584-63.998-63.998v-725.334c0-35.415 28.589-63.999 63.998-63.999h554.67c35.415 0 63.998 28.584 63.998 63.999v725.333c0 35.415-28.583 63.998-63.998 63.998l-554.67 0.001zM170.666 554.667h512.002v-42.665h-512.002v42.665zM170.666 383.996h512.002v-42.665h-512.002v42.665zM170.666 213.333h341.332v-42.671h-341.332v42.671z" />
<glyph unicode="&#xe90b;" glyph-name="chexiao" d="M511.999-64c-226.091 0-417.237 146.859-484.992 350.208-6.357 9.941-11.008 21.077-11.008 33.749 0 35.371 28.672 64.043 64 64.043s64-28.672 64-64.043h1.323c41.557-149.035 156.885-255.957 324.011-255.957 212.096 0 426.667 171.904 426.667 384s-171.947 384-384 384c-132.907 0-249.259-68.053-318.080-170.667h147.413c23.552 0 42.667-19.115 42.667-42.709v-42.667c0-23.552-19.115-42.624-42.667-42.624h-333.653c0.853 5.035 2.219 9.899 3.2 14.891-3.243 3.712-5.973 7.808-7.808 12.501-1.92 4.693-3.072 9.813-3.072 15.232v298.667c0 23.595 19.115 42.709 42.667 42.709h42.667c23.552 0 42.667-19.115 42.667-42.709v-89.131c93.653 106.795 230.699 174.507 384 174.507 282.752 0 512-229.248 512-512 0-282.795-229.248-512-512-512z" />
<glyph unicode="&#xe90c;" glyph-name="chk" d="M512 917.265c258.867 0 469.265-210.534 469.265-469.265 0-258.799-210.398-469.333-469.265-469.333-258.799 0-469.265 210.534-469.265 469.333s210.398 469.265 469.265 469.265zM512 960c-282.761 0-512-229.239-512-512 0-282.692 229.239-512 512-512 282.692 0 512 229.308 512 512 0 282.761-229.308 512-512 512z" />
<glyph unicode="&#xe90d;" glyph-name="clear_leave" d="M512 960c-282.77 0-512-229.23-512-512s229.23-512 512-512 512 229.23 512 512-229.23 512-512 512zM256 490.667h512c23.564 0 42.667-19.103 42.667-42.667s-19.103-42.667-42.667-42.667h-512c-23.564 0-42.667 19.103-42.667 42.667s19.103 42.667 42.667 42.667z" />
<glyph unicode="&#xe90e;" glyph-name="clock" d="M512-64c-282.77 0-512 229.23-512 512s229.23 512 512 512 512-229.23 512-512-229.23-512-512-512zM512 857.6c-226.216 0-409.6-183.384-409.6-409.6s183.384-409.6 409.6-409.6c226.216 0 409.6 183.384 409.6 409.6s-183.384 409.6-409.6 409.6zM768 345.6h-273.067c-28.277 0-51.2 22.923-51.2 51.2v307.2c0 28.277 22.923 51.2 51.2 51.2s51.2-22.923 51.2-51.2v-256h221.867c28.277 0 51.2-22.923 51.2-51.2s-22.923-51.2-51.2-51.2z" />
<glyph unicode="&#xe90f;" glyph-name="contactus" d="M744.28-58.149c-65.311 0-149.622 43.507-208.862 80.013-79.323 48.882-164.78 116.511-240.631 190.413l-0.277 0.27-24.081 24.093c-73.907 75.846-141.53 161.31-190.413 240.633-36.5 59.231-80.016 143.549-80.016 208.858 0 69.89 49.979 144.068 71.463 172.716 16.764 22.359 75.346 95.306 125.116 95.306 20.438 0 42.444-13.375 71.372-43.376 25.582-26.523 50.133-59.498 66.223-82.488 21.605-30.865 41.589-63.181 56.274-91.001 23.773-45.040 26.523-64.358 26.523-74.969 0-21.412-11.185-39.987-33.24-55.203-14.525-10.017-31.956-17.556-48.811-24.848-11.371-4.92-29.526-12.767-36.453-18.29 2.418-10.234 12.98-34.947 41.517-76.847 26.592-39.040 60.979-81.351 92.047-113.252 31.897-31.062 74.2-65.456 113.256-92.047 41.884-28.527 66.593-39.094 76.838-41.514 5.512 6.923 13.37 25.077 18.284 36.444 7.292 16.862 14.834 34.297 24.854 48.82 15.216 22.055 33.789 33.233 55.201 33.233 10.616 0 29.928-2.752 74.973-26.519 27.82-14.684 60.14-34.667 91.001-56.275 22.985-16.093 55.959-40.643 82.488-66.221 29.995-28.93 43.369-50.935 43.369-71.378 0-49.767-72.94-108.347-95.294-125.112-28.65-21.484-102.831-71.459-172.722-71.459zM336.637 254.951c72.768-70.881 154.489-135.583 230.147-182.202 73.346-45.205 138.043-71.131 177.495-71.131 35.144 0 85.245 21.466 134.032 57.408 21.382 15.766 40.845 33.316 54.806 49.425 13.095 15.122 17.884 24.986 19.099 28.967-5.063 10.874-35.127 44.87-105.287 93.271-27.524 18.984-55.98 36.435-80.124 49.129-30.319 15.937-42.956 18.69-45.847 19.143-1.126-0.772-4.426-3.534-9.446-11.946-5.62-9.422-11.019-21.909-16.241-33.983-6.426-14.867-13.078-30.236-21.235-42.642-13.264-20.173-29.552-30.409-48.405-30.419-0.336 0-0.694 0.006-1.062 0.018-9.172 0.193-37.107 0.785-112.94 52.429-41.864 28.524-87.331 65.498-121.602 98.931l-0.537 0.527c-33.422 34.287-70.397 79.742-98.915 121.602-51.652 75.833-52.252 103.768-52.445 112.948-0.41 19.197 9.721 35.765 30.1 49.26 12.463 8.248 27.963 14.953 42.951 21.442 12.073 5.219 24.556 10.62 33.977 16.233 8.414 5.015 11.185 8.321 11.946 9.446-0.454 2.891-3.203 15.528-19.143 45.848-12.694 24.14-30.144 52.601-49.124 80.12-48.405 70.17-82.401 100.227-93.271 105.293-3.983-1.221-13.849-6.010-28.967-19.105-16.112-13.95-33.664-33.422-49.419-54.806-35.948-48.777-57.408-98.881-57.408-134.027 0-39.449 25.921-104.143 71.122-177.493 46.629-75.66 111.325-157.381 182.201-230.147l23.542-23.536zM692.361 469.429c-10.431 0-19.67 7.478-21.543 18.107-5.363 30.399-22.967 56.813-49.568 74.374-26.983 17.806-59.961 24.421-92.872 18.618-11.919-2.106-23.275 5.857-25.375 17.769s5.854 23.275 17.769 25.378c43.988 7.758 88.242-1.193 124.609-25.203 36.753-24.256 61.111-60.949 68.584-103.328 2.1-11.914-5.857-23.275-17.769-25.375-1.291-0.226-2.57-0.338-3.833-0.338zM824.229 525.998c-10.427 0-19.67 7.475-21.543 18.101-10.403 58.996-44.491 110.207-95.984 144.197-51.877 34.239-115.207 46.967-178.326 35.836-11.919-2.1-23.271 5.857-25.375 17.769-2.1 11.914 5.854 23.275 17.769 25.375 74.196 13.082 148.797-1.979 210.063-42.42 61.646-40.686 102.486-102.179 114.997-173.149 2.101-11.912-5.854-23.275-17.769-25.375-1.151-0.209-2.477-0.33-3.83-0.332zM1000.295 542.328c-10.431 0-19.674 7.478-21.547 18.107-17.749 100.676-75.873 188.036-163.655 245.974-88.164 58.191-195.734 79.83-302.89 60.937-11.914-2.1-23.271 5.854-25.37 17.769-2.1 11.912 5.854 23.275 17.769 25.375 118.233 20.847 237.073-3.128 334.629-67.516 97.931-64.639 162.806-162.279 182.669-274.934 2.1-11.914-5.86-23.275-17.773-25.375-1.152-0.213-2.477-0.335-3.831-0.336z" />
<glyph unicode="&#xe910;" glyph-name="CPCC" d="M492.8 874.155l10.667 0.512h31.616l19.2-1.109 9.6-1.067 9.045-1.067 9.6-1.621 27.136-4.864 13.525-3.072 13.525-2.731 25.6-7.595 14.123-5.419 13.909-5.589 14.080-6.571 12.8-6.528 12.8-7.040 12.8-7.595 12.416-8.149 12.416-8.533 23.723-18.432 11.264-9.771 10.709-10.325 11.861-10.496 10.155-10.837 10.709-11.392 9.6-11.392 6.187-8.149 5.632-7.595 5.077-8.533 5.077-8.149 4.011-7.765 5.077-7.68 3.968-7.595 4.523-7.595 4.523-8.149 3.925-8.064 3.371-7.595 3.371-8.533 3.968-10.325 3.968-10.837 2.816-11.008 3.371-10.88 2.816-10.325 2.773-10.837 2.261-10.837 3.413-22.784 1.152-11.947 0.555-11.947v-11.392l0.555-4.864v-4.267l0.597-4.48v-4.864l-1.109-11.392v-11.947l-0.555-11.947-1.152-11.947-2.816-14.635-2.816-15.189-3.371-14.635-3.968-14.123-4.523-13.568-5.077-13.568-5.675-13.525-5.077-14.123-2.816-5.419-2.816-5.973-3.371-5.973-2.816-4.907-6.784-11.947-6.784-10.88-4.523-5.461-1.707-3.243-2.261-2.731-4.523-6.528-5.077-7.040-5.077-6.528-5.632-6.528-3.371-4.907-3.968-3.797-3.371-4.864-3.968-3.797-5.632-5.973-5.632-4.864-1.707-0.555h-1.109l-2.816 1.621-1.707 2.176-3.968 2.773-3.371 3.243-3.968 3.243-3.968 2.731-1.664 1.664v0.469h0.555l2.261 3.243 5.632 5.461 2.261 2.731 14.677 16.299 6.784 8.149 6.187 8.533 6.229 8.149 5.077 7.595 5.547 8.235 5.077 8.149 6.187 10.325 5.077 10.837 5.077 10.88 4.523 10.325 5.077 12.501 5.077 11.947 2.261 6.528 2.261 5.973 2.261 6.528 1.109 6.528 3.371 14.635 2.816 15.189 3.413 31.488 1.109 15.744v16.213l-0.555 16.299-1.109 16.299-0.555 10.325-1.707 10.325-1.579 10.283-2.816 9.771-3.413 14.080-1.707 7.595-1.664 6.955-2.261 5.547-1.109 5.973-2.091 5.547-1.707 5.973-1.707 3.797-3.413 8.533-1.707 3.84-5.632 12.501-5.632 11.947-6.784 11.947-6.187 11.392-3.968 6.528-5.077 7.040-5.12 6.485-4.523 5.973-7.893 10.325-7.979 9.771-17.579 18.987-9.045 8.533-9.6 8.533-10.155 8.533-9.6 7.595-10.155 8.149-10.624 7.509-21.461 14.123-10.709 6.528-11.861 5.973-10.709 5.419-11.307 5.419-6.187 2.731-5.547 2.048-6.229 2.176-6.272 2.091-9.6 3.243-9.045 2.901-10.155 2.731-9.6 2.176-8.533 2.176-9.6 2.176-9.515 1.664-19.2 3.243-9.557 1.024-9.6 1.109h-37.845l-4.523-0.555-10.112-1.109-4.523-0.555-7.893-0.555-8.533-0.555-7.893-0.555-7.851-1.493-7.893-1.067-9.045-1.621-7.893-2.176-8.021-1.707-8.533-1.963-7.893-2.176-7.339-2.731-8.533-2.176-6.101-1.792-11.264-5.461-6.229-2.176-22.613-10.837-10.709-5.419-11.307-5.973-5.077-2.731-4.907-3.243-5.077-3.243-4.523-3.797h-1.109v-1.109h-1.152l-2.261-0.555-1.109-0.555-1.152-1.067-0.555-1.067-1.109-0.555-3.371-2.176-3.413-2.176-3.371-2.176-3.371-2.731-13.568-10.88-12.8-10.837-24.832-23.893-4.693-4.821-4.523-5.419-3.968-5.419h-0.555v44.459h0.555l5.675 5.931 3.925 3.84 4.523 4.267 4.608 3.328 4.267 3.84 4.267 3.243 3.797 3.243 3.968 3.243 3.371 3.797 20.352 15.232 10.667 7.168 10.155 7.040 6.229 3.243 5.461 2.517 6.4 2.816 5.632 3.797 4.523 2.176 5.632 2.731 5.077 2.176 5.077 2.731 12.8 4.907 12.416 5.419 12.416 4.864 13.525 4.907 5.077 1.621 6.997 2.133 5.632 1.109 3.968 1.28h2.816l2.261 0.853 2.816 0.555 3.371 0.555 3.029 0.555 2.816 1.067 3.2 0.683 3.968 0.555 2.816 0.384 3.371 0.555 4.523 1.067 3.925 0.555h5.675l2.261 0.555 2.261 1.067 6.741 1.109h5.077l5.632 1.109 3.2 0.512h3.371l2.816 0.555zM219.733 190.165l6.229-5.973 8.533-7.595 6.613-5.931 6.784-6.571 7.339-5.419 6.784-5.973 2.816-2.176 3.968-2.731 2.816-2.176 2.219-2.688h0.555l0.555 2.731v33.536l-1.109 1.067-1.707 1.621-1.109 2.176-2.219 1.749-4.523 2.731-3.371 2.176-5.077 4.267-4.523 4.267-5.12 4.992-3.968 4.267-6.187 6.528-6.229 6.528-5.632 7.595-4.523 5.504v-44.501zM219.733 704.768l-3.968-5.419-9.643-12.416-9.045-12.501-8.448-13.099-8.533-13.568-7.296-14.635-7.339-14.123-6.187-14.677-5.675-15.189-5.077-15.744-4.48-15.744-3.968-15.787-2.816-16.853-2.261-16.299-1.707-16.299-0.555-8.533v-8.149l-0.469-8.192 0.555-8.533v-7.595l0.555-8.149 2.219-15.189 0.939-8.32 1.28-7.595 1.109-7.595 1.152-7.765 2.816-12.8 0.555-2.731 1.109-2.731 0.512-2.731 0.555-3.243-0.555-1.664-0.555-1.621-1.024-2.347-1.109-1.621-3.371-3.243-2.816-2.731-3.456-5.205-3.968-5.419-1.109-1.067-2.219-3.243v-1.067h-1.152l-1.109 3.797-1.152 3.712-1.109 3.797-1.109 4.267-1.749 3.755-1.109 3.797-2.261 8.149-2.261 8.533-5.12 25.6-1.067 9.387-1.109 9.216-0.555 8.533-1.109 9.771v45.227l1.109 18.432 1.109 9.216 1.707 9.216 1.109 8.533 2.261 8.533 1.707 8.533 2.261 8.533 2.261 8.149 2.816 8.533 3.371 10.837 3.371 12.203 4.523 11.392 3.968 11.392 2.816 5.973 3.371 6.571 3.371 6.485 3.968 6.528 5.632 10.837 6.187 11.392 6.784 10.837 6.784 11.392 7.339 9.216 7.893 9.771 7.893 9.216 7.723 9.301 10.155 11.947 4.523 5.419v-44.501zM219.648 234.667v-44.501l-1.109 1.621-7.339 7.595-7.893 8.149-6.229 8.149-13.568 17.067-6.229 8.533-2.773 4.224-3.84 5.973-2.261 2.731-2.261 3.243-1.109 2.176-0.555 1.621 0.981 3.285 0.555 2.731 2.261 7.040 2.389 6.485 2.816 6.528 2.731 7.083 2.261-1.621 2.816-3.243 2.816-3.669 3.371-4.864 6.229-9.984 4.523-6.485 10.155-14.123 10.709-14.677zM645.76 44.117v24.96h12.416l1.109 1.067 0.555 100.523v1.579l-0.555 1.621-2.816 0.555h-10.709v45.056l2.773-1.664 5.632-3.797 7.339-5.973 7.893-6.528 7.893-7.040 7.339-6.528 3.371-3.243 2.261-2.731 1.707-2.176 1.109-1.621 0.555-2.731v-2.176l0.555-105.856v-6.528l-1.152-1.621-32.171-27.691h-1.024l-14.123 12.501zM645.76 390.443v12.501l4.523 5.973 5.077 8.533 2.816 6.528 2.261 5.419 5.632 13.056 1.707 4.864 1.707 3.797 1.707 5.419 1.109 3.797 1.152 4.864 1.707 4.864v1.835l1.152 2.176 1.707 1.621 2.261 2.176 2.816 1.109 2.261 1.621h0.555l1.024-0.555h1.109v-3.243l-1.707-1.621-1.109-2.176-1.109-5.461-3.413-7.595-0.555-1.621v-1.792l0.555-1.067 0.555-1.621 0.555-1.067 1.109-1.067h1.109l1.152-0.555 1.109 0.555h1.109l1.707 1.067h2.816l1.109-1.067 2.816-0.555h3.371l2.816 0.555h2.816l3.371 1.621 3.371 0.555 5.632 3.797 5.632 2.176 2.475 1.707h4.523l1.152-1.067v-0.555l1.109-2.176v-3.797l-1.109-1.067-2.261-3.797-2.261-1.621-1.707-2.731-1.707-2.176-1.109-2.731-1.152-2.731 4.523-2.688 5.632-2.731v-1.067l-0.555-1.621-2.219-1.109-1.707-1.109h-1.707l-3.968-1.067-3.371-1.109-7.936-3.243h-4.48l-1.024 0.555h-0.683l-1.152 0.469-0.555 0.555-0.555 1.621v3.328l1.109 1.067 5.632 6.485 1.109 2.176 0.555 1.621-0.555 0.555-0.64 0.597-1.109 0.555-1.024 1.067h-3.968l-5.077-1.109-5.077-0.555-2.816-1.067-1.109-1.621v-3.243l0.555-1.067 0.555-2.176v-3.243l-0.555-2.176-3.413-3.243-1.707-1.067-2.261-0.555h-6.144l-2.261 0.555-1.707 0.555-1.109 4.267v4.267h-0.597l-1.152-2.176-1.109-2.731-6.741-10.837-1.707-3.797-2.261-3.243-2.261-3.797-1.707-3.243-3.371-4.864-2.816-4.907-0.555-0.555zM717.995 505.003h2.261l1.707-1.067h1.109v-1.067l0.555-0.555v-2.731l-0.555-1.067-1.109-1.621-1.707-1.621-1.109-2.176-2.261-1.621-2.261-1.109-5.632-2.133-3.968-0.555-6.784-1.109-6.187-0.555h-6.784l-2.261 1.621-3.925 2.731-1.707 1.109-1.109 1.621-0.555 1.067v1.067l1.707 1.067 2.261 1.067 2.816 0.555 1.707 1.067 2.261 1.109 2.816 1.067 2.816 0.555h6.187l2.816 0.555h3.328l3.413 1.195h3.968l0.555 0.555h1.707l2.261 0.555 1.707 0.555zM787.968 500.736l1.707-0.555 1.109-0.555 0.555-0.427h0.555v-2.731l-1.152-1.621-1.707-1.621-1.707-1.109-3.371-2.731-3.371-1.621-1.707-2.176-2.261-4.267-2.816-3.797-1.109-3.243 0.555-1.109 0.555-1.621 1.109-1.109 1.195-1.109 1.707-2.731 1.109-2.176v-5.419l0.555-5.419 0.555-4.267 0.768-3.499v-3.243l-0.555-4.267-0.555-1.109-0.555-1.621-1.109-1.067-0.555-1.067-1.707-1.067-1.707-1.621-1.707-1.067-4.523-1.109h-6.955l-1.152 0.555-0.555 0.555v2.005l1.707 1.621 2.816 1.067 1.109 2.731 1.109 2.176 2.816 3.243 1.109 3.243 0.555 5.419-0.469 5.333v5.589l-1.109 1.621h-1.707l-0.555-1.067h-0.597l-1.109-1.109-1.109-1.067-2.816-2.731-2.261-2.731-1.152-1.067h-1.707l-1.707-0.555h-5.077l-2.816 0.555h-1.109l-1.109 1.067-1.109 0.555-0.469 1.621 1.707 1.621 2.261 1.621 5.077 2.176 4.523 2.688 2.816 2.731 2.816 3.243 2.816 2.731 2.816 3.797 2.261 3.243 2.816 3.797 4.523 7.595 1.152 1.621 1.707 2.176 1.707 1.067 1.707 1.109 1.707 1.067 2.261 0.555h1.109v0.597zM841.6 498.005l-2.816-0.555-1.707-1.067-3.371-2.176-2.816-3.243-1.707-1.621-1.707-1.067-1.707-1.109-2.304-0.768h-1.707l-2.219 1.109v1.749l-1.109 1.067-0.555 1.109-0.555 0.555h-1.152l-2.816-0.555-2.261-1.109-1.707-1.067-1.109-1.067-1.109-1.109-0.768-0.683-0.555-2.176v-1.621l0.555-2.56v-1.621l-0.555-2.176-1.109-2.176-0.555-1.621-1.152-1.067-1.109-1.109-1.707-1.067-2.816-1.621-2.816-1.067h-0.384l-0.555-1.621-1.109-1.067h-0.597l0.555-1.067 0.555-1.109h6.784l1.152-1.067 0.555-0.555 0.597-2.261v-18.304l-0.555-2.176 0.555-2.859 0.555-1.621 1.109-2.176 2.261-1.621 2.816-1.067 2.219-1.28 2.816-0.555h2.816l4.523-0.555h7.893l3.371-0.555h11.264l3.371 0.555 3.371 1.067 2.816 0.768 2.816 1.067 4.523 2.176 3.968 2.176 3.968 1.621 3.968 3.243 3.925 2.731 3.371 2.731 2.816 3.797 3.371 3.243 2.261 2.731 2.261 2.176 1.707 1.621 1.152 1.621v1.621l0.555 1.621v1.109l-0.555 1.067v1.621l-1.152 1.109-1.707 2.731-1.109 2.731-1.109 7.595v12.971l-0.555 2.176-0.341 1.621-0.555 1.621h-3.712l-1.109-1.067-0.555-1.621-0.555-2.731v-2.688l0.683-3.413v-7.040l-1.109-8.533v-4.267l0.555-2.731 0.555-3.797v-4.907l-0.555-1.621-1.707-2.176-1.707-2.731-2.816-1.621-3.371-2.731-6.187-3.797-5.632-3.243-2.091-1.152-1.707-0.555h-3.029l-2.261-1.067h-16.341l-2.816 1.067-2.859 0.555-2.816 1.067-2.304 1.109-2.261 2.176-1.707 0.555-1.707 1.109-1.109 1.067-1.152 1.621-0.597 2.176-0.555 1.621v5.419l0.555 3.797v2.731l0.555 3.797 1.707 2.731 2.261 3.243 4.011 1.621 3.371 2.176 2.816 1.621 5.077 4.267 4.523 4.864 3.371 2.176 2.816 2.176 1.109 1.621 1.152 1.067 1.707 1.621 1.109 1.621v0.683l-2.219 1.109-2.816 1.067h-3.883zM763.136 218.453l47.957-42.88h0.555v-1.067l-60.928-1.067v-38.4h60.928v-34.133h-60.715v-36.907h60.928l-49.109-42.325-46.293 40.192v114.731l46.933 41.813zM876.587 214.656h2.816l44.032-41.259 0.555-2.176v-11.392l0.555-8.533v-9.216l-0.555-8.533h-27.093v37.12h-29.867v-105.856l2.219-0.811h7.339l2.816 0.555 17.493 0.555v36.565h27.648v-35.285l-1.109-2.389-2.261-1.067-1.707-2.176-1.707-1.621-6.229-5.419-5.632-5.419-6.229-5.419-6.187-5.973-9.003-8.661-2.816-2.731-2.261-2.176-2.261-1.621-1.109-0.384h-0.597l-1.707 0.555-2.261 2.176-3.413 3.243-3.371 3.243-3.371 2.731-2.816 3.243-3.968 2.731-5.077 4.864-5.077 4.907-5.077 3.797-4.523 4.864-0.555 1.621v5.973l0.555 109.099 1.707 1.621 1.707 2.176 9.6 8.533 10.155 8.533 9.6 9.216zM645.76 403.029v-12.501l-1.493-2.261-1.707-3.243-1.707-2.731-2.261-2.731-3.371-4.267-3.968-4.267-1.707-2.176-1.109-2.176-2.816-2.176v10.197l1.152 1.621 5.632 7.595 6.229 8.149 5.632 8.533 1.707 2.176zM645.76 219.563v-45.056h-13.568v-104.789l13.525-0.555v-24.96l-15.787 14.123h-0.555v-3.243l-0.555-3.243-1.152-29.867h-2.219v180.651l1.152 1.621 9.6 7.595 9.045 8.149 0.555-0.555zM625.451 413.355v93.867l0.555-0.555 1.195-0.597 1.109-1.621 1.109-2.176 1.109-2.731v-3.243l1.152-5.973 0.555-4.864v-6.528l0.555-3.797 0.555-3.243v-3.797l1.109-7.595v-3.968l0.555-3.243 1.152-2.176v-2.176l1.109-0.939-0.555-2.176-0.555-1.621-1.152-2.176-0.555-2.56-1.109-3.797-1.152-4.267-1.707-4.267-1.109-3.797-1.109-5.419-2.816-4.267zM625.451 507.221v-93.867l-1.152-1.109-1.109-1.621-1.707-0.555-1.109-0.469h-3.968l-1.109 0.555v0.384l-1.707 2.731-1.152 2.731-1.109 1.621-1.195 1.621v2.688h1.152l1.109 0.555h1.152l2.261 0.555h1.707l1.707 1.067 1.152 1.067 0.555 1.067 1.109 3.243 0.555 2.731 0.555 2.176v6.571l-1.109 3.797-0.555 3.243v12.501l-1.109 4.352-1.109 8.533v8.747l-0.597 2.773-0.555 1.493-0.555 2.731-0.555 2.176-0.555 3.243-1.109 1.621-2.261 1.621h-1.707l-2.261 0.555h-5.675v10.453h1.109l3.968-0.555 2.816-0.512h10.155l1.707-0.555h2.261zM625.451 374.955v-10.325l-1.707-1.963-3.371-3.797-3.371-3.243h-2.859l-0.555 1.067v1.707l0.555 0.555 3.371 4.864 6.741 8.533 1.152 2.176zM625.451 202.88v-180.779h-22.016v161.365l1.109 1.109 3.968 3.243 9.045 8.149 7.893 6.528zM603.435 416.768l2.816 1.067 1.152 1.621 0.555 2.176v1.408l-0.555 2.176-1.152 1.451-1.109 1.621-1.707 0.555v-12.501zM603.435 433.579v-0.555l1.109-1.109 1.323-1.28 1.109-1.621 1.707-0.555h1.451l0.555 0.555h0.555l0.555 1.621v1.067l-3.413 5.461-1.109 2.731-1.152 2.731-2.219 3.243-0.555 0.555v-13.013zM603.435 453.675v0.299l2.432 2.56 2.261 3.797 1.152 2.176 1.109 1.621 0.555 2.176v1.237h-0.811l-0.555 0.555-1.109 0.555h-0.512l-1.109-1.109-1.707-1.067-1.109-1.621-0.555-0.555v-10.88zM603.435 482.987l1.109-1.067 1.707-0.555 1.152 0.555 1.109 0.555v3.925l-0.555 1.109-0.555 1.621-1.152 1.067-0.384 1.237h-1.323l-1.109 0.555v-9.216zM603.435 509.056v-10.325h-0.555l-5.547-0.768-4.523-0.555-4.523-2.176h-1.237v7.595l1.749 0.64 6.741 3.243 2.816 1.067 3.371 1.067h1.707zM603.435 492.245v-9.216l-1.835 0.811-3.371 3.243v2.731l0.555 1.621 0.555 1.067 1.707-0.555h2.261zM603.435 464.555l-0.555-0.555-0.555-1.621-1.152-0.555h-1.152l-1.109 1.109-0.555 1.067v2.987l-0.555 3.243 0.555 2.731v1.621l0.555 1.621v0.555l-2.261 2.176-2.816 1.621-4.523 7.595-1.707 1.067h-0.555v-19.883h0.555l0.555-0.555 0.64-0.683-0.555-0.555-0.555-1.067-0.555 0.555v-10.837l1.707 1.621 1.152 1.067 1.707 1.067h1.365l0.555-1.067h0.555l-1.109-2.347-1.707-2.731 1.707-1.067 2.261-1.621v-3.115l-1.152-1.067-1.109-2.731-2.261-3.797-1.707-3.243-2.261-2.731v-17.365h2.261l4.523-1.621 4.523-1.067 2.261 0.555 2.816 1.621v12.459l-2.261 0.555h-2.048l-1.579-0.555-1.707-0.555-1.707-1.067h-1.707l-0.555 1.067h-0.64l-0.555 0.555v0.512l3.925 5.973 3.371 5.419h0.555l1.152-1.451 1.109-1.067 1.707-2.731 1.109-2.176v12.885l-1.109 2.133 0.555 2.731 0.555 2.176v10.88zM603.435 183.893v-161.749h-6.784l-0.555 155.264 1.707 2.176 2.261 1.621 3.371 2.731zM587.051 442.837v4.608h0.555l1.707-0.555v-2.731l-1.109-1.067zM587.051 503.083v-7.595l-5.077-2.731-3.371-0.555-2.816-0.555h-2.261l-1.109 0.555-0.683 0.299-0.555 1.067v1.109l0.555 0.555 0.555 1.067 2.261 1.621 2.261 1.067 4.523 1.109 3.968 1.621 1.707 1.067zM587.051 489.515v-20.181l-0.555-0.555-0.555-1.067 0.555-0.555h0.555v-10.837l-0.555-0.555-2.816-3.797-2.261-3.968-1.109-2.176h3.371l2.261 1.109 1.152 0.555v-4.864l-1.707-1.621-2.816-1.621-7.339-3.797-4.523-1.621-3.371-0.555-2.816 0.555v3.712l1.152 0.555 1.707 2.688 2.261 1.621 1.707 2.176 2.261 2.176 2.261 1.621 1.152 2.731v1.664l-0.555 0.555v0.512l-1.707 1.067-0.683 1.493-0.555 0.555-0.555 1.067v0.725l1.152 2.731 1.707 2.176v1.579l-1.109 1.109-2.261 0.555-1.707 0.555h-1.195l-1.109 0.555v2.133l0.555 1.109 0.555 1.621 1.707 1.109 3.413 2.133 3.413 1.109h3.371l2.816 0.555 1.707 0.555 0.555 0.555 0.555 1.067-0.555 1.621-1.152 2.176-0.597 2.517 0.555 1.109 1.152 1.621h0.555zM587.051 434.688l-2.816-2.176-2.816-2.731-2.816-2.176-3.968-1.621-2.816-2.731-0.555-1.067v-1.067l0.469-1.877 0.555-0.555 0.555-1.109h6.784l4.523-0.555h2.816v17.408zM549.248 48.171v150.656l24.277-20.608v-105.685l-2.816-3.243-2.816-2.731-10.155-9.771-8.533-8.533zM549.248 426.539v12.928l3.413 5.461 0.555 2.731 0.555 3.797v4.267l0.555 4.267v3.755l0.555 3.797v3.797l0.555 1.621 1.152 1.109 1.109 1.621 1.109 1.067 1.707-0.555 0.555-1.621 0.555-3.243v-30.933l-0.555-2.731-0.555-3.243-1.109-3.243-0.555-2.731-1.109-1.621-1.707-2.176-1.707-1.621-2.261-0.555h-1.109l-0.555 0.555-1.152 2.731v0.512zM549.248 486.272v5.163l0.555-2.176-0.555-2.176v-1.067zM549.248 491.691v-5.419l-0.555-0.555-1.152-2.176-1.109-1.621-1.707-1.621-1.109-1.621-2.816-0.555-2.261-1.067-6.741-3.243-2.816-2.731-2.261-2.731v-3.797l1.109-1.621 1.237-2.432 1.152-1.621 0.555-1.067 0.427-1.28v-1.067l-0.555-0.555-0.555-1.067-1.152-0.555h-1.707l-4.523-0.555-4.523-1.067-1.707-0.555v21.845l1.109 1.109 1.707 2.176 1.237 1.621-1.109 1.109h-0.64l-0.555 0.555-1.707 0.555v14.592l1.109-0.555h6.784l1.109 0.555h1.109l2.261 0.555 6.741 1.109 2.816-0.555 3.968-0.555 3.371-0.555 1.707-0.555 1.152-1.621 0.555-1.067zM549.248 438.485v-11.947l-0.555 2.731v6.784l0.555 2.176zM549.248 199.083v-150.912l-6.229-6.528-7.339-7.040-6.784-5.973-5.077-4.267-2.816-1.621-4.523 4.267v44.8h22.016v102.059h-21.973v38.016l8.533 7.595 24.277-20.651zM451.627 839.381l1.707-0.555 1.152-0.555v-815.872l-0.555-0.555h-30.549l-33.835 313.259-1.28-312.149-0.555-1.067h-1.024l-29.909-0.555-2.261 1.109-0.384 778.411v2.176l0.555 2.731 0.981 1.067 2.731 2.176 4.608 1.664 4.523 2.133 9.6 4.267 5.632 2.133 1.707 0.555 2.261 0.555 1.109-2.645v-3.243l32.725-306.176h0.555l0.597 320.299v1.621l0.683 1.835 1.109 0.555 1.024 0.341 1.707 0.555h1.152l4.523 1.621 4.523 0.555 1.067 0.64h2.261l1.109 0.555h0.555l3.371 1.067 3.371 0.555 3.371 1.067zM516.523 530.517v-3.797h-0.555v-8.149l-0.555-5.419-0.555-7.040v-6.912l0.555-1.067 0.555-1.621v-1.067h0.555v-15.189h-1.707l-1.152-1.067-1.109-1.621-0.555-1.323v-2.176l0.555-0.469v-0.555l0.555-1.067h0.597l1.707 0.555 1.152 0.555v-21.717h-0.597l-2.261-1.067h-0.597l-1.109-1.195v-41.259l-0.555-3.243v-11.392l0.555-4.395v-5.419l-0.555-3.243-0.555-2.176-0.555-1.109-0.555-1.067h-3.413l-1.109 1.067-0.555 0.555-0.597 2.304-0.64 2.048v5.419l0.555 4.267-0.555 9.301v39.637l0.555 2.176v1.621l-0.555 0.555v1.067h-5.035l-1.109 1.109-1.707 0.555h-0.683l-0.555 1.067v3.243l0.555 1.067 1.152 1.067 0.555 1.067 1.707 1.621 2.261 1.067 2.261 2.731 2.261 2.176 0.555 1.621 0.555 2.176v7.68l-0.555 1.067h-2.219l-2.261-0.555-2.816-0.555-3.968-2.731-2.816-2.176-2.261-1.621-2.261-2.176-1.707-1.621-1.152-2.176-1.707-3.243-1.109-2.731-1.152-2.176-0.555-3.243-0.555-1.067-0.555-0.555-1.024-0.512h-3.371l-1.109 0.555-0.555 0.555-1.152 1.621-1.707 1.067-1.707 3.797-0.555 2.176 1.109 3.797 1.109 2.731 1.707 4.907 1.152 5.973 1.109 2.688 1.707 2.176 1.707 2.731 2.261 1.109 1.707 1.621h2.816l0.555-0.555 1.152-2.176 0.555-3.797v-1.109h0.341v-0.555h1.707l1.109 1.621 1.707 1.067 2.261 1.621 1.707 1.067 2.816 1.109 2.261 2.176 2.261 1.067 1.707 1.621 2.261 1.621 1.109 1.621 0.555 3.797v21.803l-0.555 2.731 0.555 3.243v3.243l0.555 2.731 0.555 1.067 2.261 2.176 0.768 1.067 1.707-0.427 1.707-0.555 0.555-1.067v-1.109h0.555zM516.523 211.883v-38.016l-7.339 0.555 0.555-102.4h6.784v-45.056l-40.064 38.4v111.744l40.064 34.731zM330.837 794.88l1.109-1.28 0.597-1.408v-13.056l-1.152-756.736-1.707-0.555h-2.816l-4.523-0.512h-14.635l-5.632 0.555h-3.413l-0.555 46.123v369.664l0.555 45.611v92.288l0.555 46.165v153.6l1.152 1.195 3.413 2.133 1.109 0.555 5.077 2.731 3.925 3.115 5.077 2.731 3.968 2.731 4.523 2.176 3.371 2.176zM272.725 429.525l1.707-0.555h1.707v-0.555l-4.011-1.749-12.373-7.467-4.523-3.243-3.968-2.731-3.371-2.731-2.816-2.176-11.861-9.771-5.077-4.864-5.077-5.419-5.461-4.864-4.523-5.973-4.523-4.267-4.523-5.419-5.632-6.528-5.077-6.528-5.632-6.528-5.077-6.528-3.968-6.528-4.523-7.040-4.523-5.973-3.371-7.040-4.096-7.083-2.816-7.040-6.741-14.080-0.555-3.243-1.109-3.243-0.555-3.243-1.109-3.243-0.555-3.797-0.555-3.243-0.555-3.797v-3.797l-0.555-3.797-0.555-3.243v-3.797l-0.555-3.243v-7.040l0.384-7.723 0.555-7.040 1.109-6.613 2.261-8.149 1.707-3.243 2.261-3.243 1.707-2.731 2.816-3.115 2.816-1.621 2.816-2.176 3.371-1.067 2.944-1.792 6.784-1.621 7.339-2.176 2.816-1.621 3.968-1.067 0.427-0.555 1.109-0.555 3.968-1.621 9.045-4.864 9.045-5.973 3.925-3.157 3.968-3.413 3.925-3.797 3.413-3.243 3.968-3.797 6.741-7.595 8.448-12.8 2.176-5.12 2.261-4.864 1.109-3.797 1.109-3.243 1.237-3.797 0.597-4.267 1.109-7.595v-16.299l-1.707-8.149-1.109-4.267-1.109-3.243-1.109-3.797-1.152-3.584-3.968-7.040-4.523-6.528-5.077-5.973-5.632-5.973-4.523-5.419-5.632-4.267-1.707-1.621-1.707-1.067h-18.048l-7.339-0.512h-7.339l-7.339 0.555-11.861-0.555h-46.933l-12.416 0.555h-23.595v0.512l5.077 3.2 3.968 4.267 9.045 7.595 27.136 24.448 9.6 8.149 4.523 4.267h4.437l2.261-0.555 1.707-0.555 3.371-0.555h12.416l2.261 0.555 5.632 2.219 4.523 2.731 5.077 3.243 3.371 3.243 3.371 3.797 1.707 2.731 1.707 3.797 1.109 4.267 1.109 4.864 0.555 4.267v8.533l-1.109 4.267-1.109 2.731-1.707 3.797-1.109 3.285-2.261 3.243-1.707 3.243-2.816 2.731-4.523 4.267-9.045 7.595-5.077 3.243-3.371 2.176-3.328 1.707-3.413 2.944-3.413 1.408-5.077 3.285-5.632 2.731-5.077 3.243-5.077 2.731-17.493 13.013-3.371 4.267-2.261 3.797-2.261 4.864-1.707 4.267-1.109 4.267-0.555 4.267-1.152 5.717-1.109 5.419v21.76l1.109 5.973 0.555 5.419 1.152 5.973 2.261 5.419 3.968 11.947 10.155 23.893 6.229 10.837 2.816 5.419 5.632 9.728 3.371 4.267 3.968 5.973 5.077 5.973 5.077 5.419 5.077 5.973 2.816 2.731 2.816 3.243 2.816 2.731 2.347 2.816 9.045 8.149 8.533 8.149 9.045 7.040 9.6 7.040 4.309 2.773 5.077 2.731 6.229 4.267 13.568 6.485 6.187 3.243 6.187 2.176 5.632 1.621 3.371 1.109 4.523 1.621 3.968 1.067 3.968 0.555h1.109z" />
<glyph unicode="&#xe911;" glyph-name="credit_card_payment" d="M877.713 838.094h-731.428c-80.774 0-146.286-65.512-146.286-146.286v-35.060h1023.998v35.060c0 80.774-65.512 146.286-146.286 146.286zM0.001 204.19c0-80.774 65.512-146.286 146.286-146.286h731.428c80.774 0 146.286 65.512 146.286 146.286v355.034h-1023.998v-355.034zM690.030 338.383h243.81l-98.523-170.667h-243.81l98.523 170.667z" />
<glyph unicode="&#xe912;" glyph-name="del" d="M986.094 714.34h-948.167c-20.936 0-37.926 16.992-37.926 37.926 0 20.972 16.992 37.964 37.926 37.964h227.559v113.74c0 20.972 16.992 37.964 37.926 37.964h417.193c20.936 0 37.926-16.992 37.926-37.964v-113.74h227.559c20.936 0 37.926-16.992 37.926-37.964 0-20.936-16.992-37.926-37.926-37.926zM682.68 866.048h-341.34v-75.815h341.34v75.815zM379.266 183.406v417.153c0 20.972 16.992 37.964 37.926 37.964s37.926-16.992 37.926-37.964v-417.153c0-20.972-16.992-37.926-37.926-37.926s-37.926 16.953-37.926 37.926zM568.9 183.406v417.153c0 20.972 16.992 37.964 37.926 37.964s37.926-16.992 37.926-37.964v-417.153c0-20.972-16.992-37.926-37.926-37.926s-37.926 16.953-37.926 37.926zM189.634 676.414c20.936 0 37.926-16.953 37.926-37.889v-606.826h568.898v606.826c0 20.936 16.992 37.889 37.926 37.889s37.926-16.953 37.926-37.889v-644.753c0-20.972-16.992-37.964-37.926-37.964h-644.753c-20.936 0-37.926 16.992-37.926 37.964v644.753c0 20.936 16.992 37.889 37.926 37.889z" />
<glyph unicode="&#xe913;" glyph-name="department" d="M955.734 38.4h-68.266c-37.718 0-68.266 30.583-68.266 68.301v136.499c0 37.718 30.55 68.266 68.266 68.266v136.534h-341.334v-136.534c37.718 0 68.266-30.55 68.266-68.266v-136.499c0-37.718-30.55-68.301-68.266-68.301h-68.266c-37.718 0-68.266 30.583-68.266 68.301v136.499c0 37.718 30.55 68.266 68.266 68.266v136.534h-341.334v-136.534c37.718 0 68.266-30.55 68.266-68.266v-136.499c0-37.718-30.55-68.301-68.266-68.301h-68.266c-37.718 0-68.266 30.583-68.266 68.301v136.499c0 37.718 30.55 68.266 68.266 68.266v136.534c0 37.718 30.55 68.266 68.266 68.266h341.334v136.567h-204.8c-37.718 0-68.266 30.55-68.266 68.266v68.233c0 37.718 30.55 68.266 68.266 68.266h477.866c37.718 0 68.266-30.55 68.266-68.266v-68.233c0-37.718-30.55-68.266-68.266-68.266h-204.8v-136.567h341.334c37.718 0 68.266-30.55 68.266-68.266v-136.534c37.683 0 68.266-30.55 68.266-68.266v-136.499c0-37.718-30.583-68.301-68.266-68.301z" />
<glyph unicode="&#xe914;" glyph-name="device" d="M597.319 748.435c0 23.56-19.099 42.66-42.66 42.66h-426.597c-23.56 0-42.66-19.099-42.66-42.66v-555.472c0-23.56 19.099-42.66 42.66-42.66h426.597c23.56 0 42.66 19.099 42.66 42.66v555.472zM917.267 747.54h-213.299c-11.78 0-21.33-9.55-21.33-21.33s9.55-21.33 21.33-21.33h213.299c11.78 0 21.33 9.55 21.33 21.33s-9.55 21.33-21.33 21.33zM917.267 662.22h-213.299c-11.78 0-21.33-9.55-21.33-21.33s9.55-21.33 21.33-21.33h213.299c11.78 0 21.33 9.55 21.33 21.33s-9.55 21.33-21.33 21.33zM917.267 576.901h-213.299c-11.78 0-21.33-9.55-21.33-21.33s9.55-21.33 21.33-21.33h213.299c11.78 0 21.33 9.55 21.33 21.33s-9.55 21.33-21.33 21.33zM938.597 320.942c0 23.56-19.099 42.66-42.66 42.66h-170.639c-23.56 0-42.66-19.099-42.66-42.66v-127.979c0-23.56 19.099-42.66 42.66-42.66h170.639c23.56 0 42.66 19.099 42.66 42.66v127.979zM140.136 347.007c4.493 4.96 9.16 9.516 14.091 13.773 3.348 2.788 6.837 5.291 10.501 7.536 19.606 12.072 42.123 19.526 66.258 20.99 65.668 10.599 57.179 42.935 59.014 42.935 0 4.693-0.597 11.134-0.597 15.869v14.675l-6.655 4.266c-13.129 10.031-23.439 23.107-29.965 38.201-11.788 3.219-20.358 13.186-20.799 25.229l-1.196 11.223c-1.053 2.89-1.662 6.227-1.662 9.707 0 9.082 4.149 17.195 10.655 22.546 5.511 0.040 7.303 3.581 6.108 10.065-0.566 7.743-0.887 16.774-0.887 25.88 0 11.78 0.539 23.434 1.595 34.938 0.967 19.756 14.542 37.565 33.362 44.814 4.598 1.229 9.466 1.866 14.482 1.866 2.919 0 5.787-0.215 8.589-0.631 5.429 4.19 12.432 6.954 20.028 7.704l30.378 6.456c7.641-0.965 14.222-4.867 18.682-10.52 4.030-4.404 8.61-8.115 13.676-11.087 2.796 0.050 5.733 0.164 8.696 0.164 6.411 0 12.699-0.533 18.819-1.557 23.525-3.449 21.094-36.34 22.928-47.516 0.677-7.050 1.064-15.241 1.064-23.523 0-0.017 0-0.038 0-0.058 0-10.761-0.646-21.371-1.9-31.794-1.595-2.813 1.434-5.715 3.865-5.16h1.195c6.958-4.198 11.539-11.716 11.539-20.304 0-1.969-0.241-3.882-0.695-5.71l0.034-12.635c0.002-0.105 0.002-0.23 0.002-0.355 0-2.007-0.23-3.96-0.666-5.834-4.233-10.585-13.276-18.83-24.459-21.947-4.938-14.466-12.847-26.725-23.168-36.453l-4.906-5.33-4.821-4.266-0.597-27.046-0.597-2.346c0-8.234-0.597-34.683 54.989-42.318 36.482-1.001 69.020-17.083 91.748-42.208 5.912-8.369 9.813-18.367 10.953-29.189l4.843-39.774h-426.597c-0.644 4.587-1.012 9.885-1.012 15.269 0 19.537 4.841 37.942 13.388 54.084zM85.403 875.519h853.194c47.121 0 85.319-38.199 85.319-85.319v-682.556c0-47.121-38.199-85.319-85.319-85.319h-853.194c-47.121 0-85.319 38.199-85.319 85.319v682.556c0 47.121 38.199 85.319 85.319 85.319z" />
<glyph unicode="&#xe915;" glyph-name="down" d="M48.399 775.476h923.904c29.616 0 51.702-31.265 34.349-62.244-13.911-24.811-437.356-520.324-461.307-562.632-15.705-27.823-53.28-27.321-68.985 0-17.569 30.405-442.519 527.924-462.024 563.923-14.342 26.389 1.435 60.953 34.062 60.953z" />
<glyph unicode="&#xe916;" glyph-name="email" d="M932.572 832.001h-841.142c-50.414 0-91.429-41.015-91.429-91.429v-585.142c0-50.414 41.015-91.429 91.429-91.429h841.142c50.414 0 91.429 41.015 91.429 91.429v585.142c0 50.414-41.015 91.429-91.429 91.429zM654.282 471.059l330.935 278.674c0.494 0.421 0.713 0.987 1.134 1.445 0.677-3.438 1.079-6.985 1.079-10.606v-585.142c0-5.285-0.987-10.295-2.395-15.141l-330.752 330.77zM932.572 795.43c14.025 0 26.697-5.449 36.389-14.117-2.615-0.658-5.138-1.737-7.333-3.584l-449.627-378.679-109.513 92.233c-0.274 0.329-0.384 0.731-0.695 1.042-0.768 0.768-1.737 1.115-2.597 1.719l-336.841 283.666c-2.194 1.847-4.718 2.926-7.333 3.584 9.71 8.686 22.382 14.135 36.407 14.135h841.142zM36.572 155.43v585.142c0 3.639 0.402 7.186 1.079 10.624 0.439-0.457 0.658-1.042 1.152-1.463l322.743-271.799-324.754-324.754c-0.018 0.768-0.219 1.481-0.219 2.249zM91.43 100.572c-17.207 0-32.402 8.119-42.459 20.553 4.645 0.037 9.271 1.792 12.818 5.339l327.845 327.826 110.592-93.129c0.878-0.731 1.902-1.097 2.853-1.646 0.677-0.384 1.28-0.859 1.993-1.152 2.231-0.914 4.553-1.499 6.912-1.499s4.681 0.585 6.912 1.499c0.713 0.293 1.298 0.768 1.993 1.134 0.969 0.549 1.993 0.914 2.889 1.664l102.418 86.235 336.018-336.018c0.457-0.457 1.042-0.622 1.518-1.006-8.85-6.144-19.566-9.801-31.159-9.801h-841.142z" />
<glyph unicode="&#xe917;" glyph-name="error" d="M512 960c-282.775 0-511.993-229.233-511.993-511.993 0-282.774 229.218-512.007 511.993-512.007 282.747 0 511.993 229.233 511.993 512.007 0 282.76-229.247 511.993-511.993 511.993zM568.889 135.108h-113.777v113.776h113.777v-113.776zM540.445 305.771h-56.888l-28.443 426.663h113.777l-28.445-426.663z" />
<glyph unicode="&#xe918;" glyph-name="fanhui" d="M512-64c282.773 0 512 229.227 512 512s-229.227 512-512 512-512-229.227-512-512 229.227-512 512-512zM736 416h-338.752l131.883-131.883c12.501-12.48 12.501-32.747 0-45.248s-32.747-12.501-45.248 0l-181.013 181.013c-7.68 7.68-10.069 18.176-8.32 28.117-1.749 9.941 0.64 20.437 8.32 28.117l181.013 181.035c12.501 12.48 32.747 12.48 45.248 0 12.501-12.501 12.501-32.768 0-45.269l-131.883-131.883h338.752c17.685 0 32-14.315 32-32 0-17.664-14.315-32-32-32z" />
<glyph unicode="&#xe919;" glyph-name="good" d="M286.829 518.062c-18.902-12.023-31.457-32.116-31.457-49.845v-478.322h1.348c6.245-30.75 33.44-53.895 65.996-53.895h567.663c37.193 0 67.344 29.902 67.344 67.369 0 37.206-30.179 67.369-67.344 67.369h40.803c44.497 0 80.569 36.285 80.569 80.842 0 44.648-36.283 80.842-80.569 80.842 44.497 0 80.569 36.285 80.569 80.842 0 44.648-36.283 80.842-80.569 80.842h-47.124c40.685 0 73.665 33.306 73.665 73.676v-12.615c0 40.69-33.142 75.084-73.78 76.698 0 0-122.105 5.567-252.607 8.305 12.389 46.196 36.419 158.117 15.732 271.619-27.014 148.21-189.095 121.263-189.095 0-13.507-107.789 0-107.789-27.014-175.157-21.133-52.704-97.733-95.513-130.079-111.652-4.886-1.783-9.076-3.832-13.011-6.255-0.911-0.377-1.563-0.661-1.563-0.661h0.522zM71.044 501.894c-32.471 0-58.794-26.094-58.794-58.732v-394.533c0-32.437 26.292-58.732 58.794-58.732h130.3v512h-130.3z" />
<glyph unicode="&#xe91a;" glyph-name="goout" d="M895.938 22.324c-70.681 0-127.979 57.298-127.979 127.979v42.66h-511.917v-42.66c0-70.681-57.298-127.979-127.979-127.979s-127.979 57.298-127.979 127.979v319.948c0.115 46.345 25.112 86.825 62.333 108.801-11.967 13.619-19.685 31.602-19.685 51.386 0 41.112 33.329 74.441 74.441 74.441h0.237c7.366-0.094 14.426-1.26 21.077-3.349l53.566 131.328c0 23.56 19.099 42.66 42.66 42.66h554.576c23.56 0 42.66-19.099 42.66-42.66l54.604-131.072c5.98 1.865 12.864 2.987 19.995 3.092l0.281 0.001c41.112 0 74.441-33.329 74.441-74.441 0-19.785-7.719-37.767-20.309-51.1 37.845-22.263 62.841-62.743 62.956-109.071v-319.965c0-70.681-57.298-127.979-127.979-127.979zM224.047 278.283c41.231 0 74.655 33.424 74.655 74.655s-33.424 74.655-74.655 74.655c-41.231 0-74.655-33.424-74.655-74.655s33.424-74.655 74.655-74.655zM852.489 579.034c-12.7 13.284-20.522 31.322-20.541 51.188 0 0.985 0.256 1.881 0.277 2.84l-42.937 114.477c-12.009 29.99-28.646 63.99-63.99 63.99h-426.597c-35.343 0-52.002-29.99-63.99-63.99l-42.937-114.52c0-0.96 0.277-1.856 0.277-2.837-0.018-19.869-7.841-37.908-20.567-51.22l-0.762-2.062h682.556zM799.953 427.592c-41.231 0-74.655-33.424-74.655-74.655s33.424-74.655 74.655-74.655c41.231 0 74.655 33.424 74.655 74.655s-33.424 74.655-74.655 74.655z" />
<glyph unicode="&#xe91b;" glyph-name="gps" d="M512-63.801c-59.028 0-426.501 369.35-426.501 602.134s190.945 421.468 426.501 421.468c235.556 0 426.501-188.684 426.501-421.468s-367.473-602.134-426.501-602.134zM512 874.501c-188.428 0-341.2-152.773-341.2-341.2s297.229-489.154 341.2-489.154c43.972 0 341.2 300.726 341.2 489.154s-152.773 341.2-341.2 341.2zM512 320.050c-117.757 0-213.25 95.494-213.25 213.25 0 117.799 95.494 213.25 213.25 213.25s213.25-95.451 213.25-213.25c0-117.757-95.494-213.25-213.25-213.25zM512 661.25c-70.672 0-127.95-57.279-127.95-127.95s57.279-127.95 127.95-127.95c70.672 0 127.95 57.279 127.95 127.95s-57.279 127.95-127.95 127.95z" />
<glyph unicode="&#xe91c;" glyph-name="gpsTwo" d="M512 17.623c-40.579 0-371.015 368.51-371.015 571.362 0 204.906 166.109 371.015 371.015 371.015s371.015-166.109 371.015-371.015c0-202.852-330.434-571.362-371.015-571.362zM512 895.072c-0.459 0.002-1.002 0.004-1.546 0.004-169.36 0-306.756-136.853-307.636-306.007 0-169.127 289.217-489.823 309.183-489.823s309.183 320.696 309.183 489.739c-0.88 169.238-138.276 306.091-307.636 306.091-0.544 0-1.087-0.001-1.63-0.004zM512 405.368c-100.685 1.016-181.913 82.873-181.913 183.701 0 101.46 82.25 183.71 183.71 183.71s183.71-82.25 183.71-183.71v-0.003c-0.512-101.565-82.964-183.701-184.601-183.701l-0.956 0.002zM512 711.594c-67.136-0.708-121.287-55.297-121.287-122.532 0-67.677 54.862-122.539 122.539-122.539s122.539 54.862 122.539 122.539v0.006c-0.355 67.747-55.356 122.528-123.152 122.528l-0.674-0.002zM299.976 152.058l50.899-44.788c-64.776-11.176-106.829-28.858-106.829-48.834 0-33.809 119.965-65.043 267.954-65.043s267.954 31.234 267.954 65.043c0 19.976-42.052 37.658-106.829 48.834l50.899 44.788c72.023-22.446 117.855-56.093 117.855-93.704 0-67.571-147.699-122.354-329.878-122.354s-329.878 54.783-329.878 122.354c0 37.646 45.82 71.27 117.855 93.704z" />
<glyph unicode="&#xe91d;" glyph-name="homeGPS" d="M993.879-63.999h-376.47c-2.62 0-5.105 0.452-7.529 1.069-2.424-0.617-4.909-1.069-7.529-1.069h-572.233c-16.64 0-30.118 13.493-30.118 30.118v963.777c0 16.625 13.478 30.103 30.118 30.103h572.233c16.64 0 30.118-13.478 30.118-30.103v-346.367h361.411c16.64 0 30.118-13.478 30.118-30.118v-587.292c0-16.625-13.478-30.118-30.118-30.118zM587.292 553.412v346.352c0 8.328-6.746 15.074-15.059 15.074h-511.999c-8.312 0-15.059-6.746-15.059-15.074v-903.511c0-8.328 6.746-15.074 15.059-15.074h135.529v195.78c0 16.625 13.478 30.103 30.118 30.103h180.706c16.64 0 30.118-13.478 30.118-30.103v-195.78h135.529c8.312 0 15.059 6.746 15.059 15.074v557.159zM978.821 523.294c0 8.328-6.746 15.074-15.059 15.074h-316.234c-8.312 0-15.059-6.746-15.059-15.074v-527.042c0-8.328 6.746-15.074 15.059-15.074h30.118v165.662c0 16.625 13.478 30.103 30.118 30.103h180.706c16.64 0 30.118-13.478 30.118-30.103v-165.662h45.176c8.312 0 15.059 6.746 15.059 15.074v527.042zM895.997 267.309h-195.765c-12.469 0-22.588 10.104-22.588 22.573 0 12.484 10.12 22.603 22.588 22.603h195.765c12.469 0 22.588-10.12 22.588-22.603 0-12.469-10.12-22.573-22.588-22.573zM895.997 402.824h-195.765c-12.469 0-22.588 10.12-22.588 22.588 0 12.484 10.12 22.603 22.588 22.603h195.765c12.469 0 22.588-10.12 22.588-22.603 0-12.469-10.12-22.588-22.588-22.588zM414.116 327.544c-12.469 0-22.588 10.104-22.588 22.573v421.646c0 12.484 10.12 22.603 22.588 22.603s22.588-10.12 22.588-22.603v-421.646c0-12.469-10.12-22.573-22.588-22.573zM218.352 327.544c-12.469 0-22.588 10.104-22.588 22.573v421.646c0 12.484 10.12 22.603 22.588 22.603s22.588-10.12 22.588-22.603v-421.646c0-12.469-10.12-22.573-22.588-22.573z" />
<glyph unicode="&#xe91e;" glyph-name="homeWIFI" d="M999.206 430.701h-112.432v-464.704c0-16.565-13.417-29.982-29.982-29.982h-239.765c-0.030 0-0.060-0.015-0.090-0.015h-209.874c-0.030 0-0.060 0.015-0.090 0.015h-239.765c-16.565 0-29.982 13.417-29.982 29.982v464.704h-112.432c-12.413 0-22.486 10.074-22.486 22.486 0.705 0.21 1.319 0.42 1.994 0.629h-1.949l477.851 488.614c17.555 17.569 46.038 17.569 63.592 0l477.312-489.020c0.21-0.090 0.374-0.135 0.584-0.225 0-12.413-10.074-22.486-22.486-22.486zM522.599 900.037c-5.847 5.847-15.35 5.847-21.197 0l-414.11-424.363h72.421c12.413 0 22.486-10.058 22.486-22.486 0-1.229-0.51-2.294-0.705-3.478h0.705v-468.721h194.883v209.858c0 16.565 13.417 29.982 29.982 29.982h209.874c16.565 0 29.982-13.417 29.982-29.982v-209.858h194.883v468.721h0.705c-0.195 1.185-0.705 2.249-0.705 3.478 0 12.428 10.074 22.486 22.486 22.486h71.537l-413.225 424.363zM512 310.774c-82.795 0-149.909 67.114-149.909 149.909s67.114 149.909 149.909 149.909c82.795 0 149.909-67.114 149.909-149.909s-67.114-149.909-149.909-149.909zM512 565.619c-57.955 0-104.937-46.981-104.937-104.937s46.981-104.937 104.937-104.937c57.955 0 104.937 46.981 104.937 104.937s-46.981 104.937-104.937 104.937z" />
<glyph unicode="&#xe91f;" glyph-name="jd" d="M460.651 442.783v118.799h-444.452v-119.104h189.013v-113.493c0-20.986-3.681-31.442-10.891-37.756-7.267-6.346-18.389-9.671-33.080-9.945v-35.421c38.192 1.214 66.128 9.472 83.87 24.922 17.63 15.4 26.554 39.064 26.554 70.731v100.964h188.988v0.305zM396.621 479.55h-316.293v44.968h316.293v-44.968zM271.943 651.655h-66.732v-27.98h-205.21v-37.065h476.847v37.065h-204.905zM0.001 247.014h37.831c80.9 70.469 102.029 170.891 102.029 170.891h-73.053c-8.893-71.073-38.79-130.93-66.807-170.891zM337.262 417.918s21.005-100.447 101.743-170.891h37.844c-28.005 39.961-57.84 99.793-66.714 170.891h-72.873zM546.818 247.014h37.8c80.887 70.469 101.985 170.891 101.985 170.891h-72.985c-8.924-71.073-38.815-130.93-66.801-170.891zM884.217 417.918s21.074-100.447 101.948-170.891h37.862c-28.005 39.961-57.908 99.793-66.795 170.891h-73.016zM714.583 623.676l13.090 28.203h-66.925l-13.127-28.203h-100.895v-37.065h83.596l-67.268-144.132h193.64v-113.487c0-21.927-3.624-31.448-10.854-37.756-7.311-6.346-18.352-9.677-33.049-9.964v-35.396c38.136 1.202 66.072 9.466 83.845 24.916 17.704 15.4 26.653 39.064 26.653 70.724v100.964h184.429v37.078h-184.429v79.623h-66.595v-79.629h-108.574l49.414 107.055h326.488v37.072h-309.437z" />
<glyph unicode="&#xe920;" glyph-name="jdjzzz" d="M1014.278 415.591c6.468-5.606 9.704-11.429 9.704-17.463l-1.294-1.294c-2.163 0-5.609 3.667-10.35 10.998-1.294 0-6.693 2.584-16.173 7.759l-3.881 0.649-12.288-9.704c-3.457 0.428-6.468 2.587-9.056 6.468v1.942h3.233c2.587 0 4.954 1.508 7.117 4.526v1.294c0 2.156-4.53 6.682-13.586 13.586 0 0.424-1.080 0.859-3.233 1.294h-0.649c-2.587-3.457-6.044-10.136-10.35-20.054-6.903-12.937-14.665-19.405-23.287-19.405h-0.645c-4.316 0-8.411 3.022-12.292 9.056v0.649c0 2.153 5.599 9.056 16.818 20.699v1.942c0 0.859-0.869 1.504-2.587 1.939-0.869-0.869-4.526-1.514-10.995-1.939-2.587 0-5.609 2.798-9.056 8.407l0.645 1.942h1.294c3.012-2.591 5.389-3.881 7.117-3.881h3.233c8.621 0 13.361 4.951 14.231 14.876l0.649 3.233c-0.435 1.721-1.518 2.591-3.236 2.591-5.609-3.022-9.056-4.53-10.35-4.53-4.75 1.294-7.114 3.236-7.114 5.82 0.424 3.45 7.114 11.857 20.051 25.229v1.294l-1.294 1.294h-0.645l-3.881-0.649c-9.925 3.015-14.879 5.823-14.879 8.411v1.942l12.937-3.236c6.034 0 13.361 2.153 21.993 6.468h0.649l4.526-3.881c0-3.022-5.609-9.491-16.818-19.405-3.022-1.294-5.82-4.102-8.407-8.407v-2.591h0.645c2.153 0 6.248 1.508 12.292 4.53l10.995 3.236c2.587 0 5.389-2.163 8.411-6.468 0-3.457-4.964-9.491-14.879-18.115v-1.939c2.153-2.587 3.236-4.53 3.236-5.82l-10.998-16.822v-1.939c0-2.587 1.073-3.881 3.236-3.881 6.468 6.893 11.209 14.231 14.231 21.993l4.526 2.587h2.587l15.524-9.701h3.236c0.859 0 3.446 6.679 7.762 20.051l6.468 14.879v0.645c0 0.859-0.869 1.508-2.587 1.942l-5.823-1.942c-11.219 0.859-16.818 6.248-16.818 16.173v5.82c1.294 9.48 2.587 14.231 3.881 14.231 1.718 0 3.012-0.869 3.881-2.587l-0.645-3.236v-12.288c0.424-6.468 1.718-9.701 3.881-9.701h0.645l20.054 3.233 4.526-7.762c-11.643-22.862-17.463-36.224-17.463-40.105v-1.294c0-3.881 7.114-8.411 21.344-13.586zM932.13 411.713c-2.163 0-4.105-1.297-5.823-3.881v-1.297l1.942-1.939h0.645c4.305 0 6.468 1.294 6.468 3.881-0.435 0.859-1.514 1.939-3.233 3.236zM946.36 457.638h2.587l2.587 2.587v1.294h-0.649c-2.163 0-3.667-0.869-4.526-2.587v-1.294zM862.915 402.009l-10.35 4.526c-3.457 0-11.219 2.801-23.287 8.411l-6.468 1.294c-2.587-5.609-6.044-9.056-10.35-10.35-5.609 0-9.491 3.233-11.643 9.701l1.942 0.649 7.114-0.649c1.294 0 2.367 1.073 3.236 3.236v3.881c0 0.859-2.812 2.367-8.411 4.526-3.457 4.309-6.255 6.468-8.407 6.468-1.294-1.294-2.587-4.747-3.881-10.35-0.869 0-2.587-4.312-5.175-12.937l-3.236-3.881h-1.294c-4.316 3.45-6.468 5.823-6.468 7.117 5.175 8.187 7.762 12.937 7.762 14.231 0 1.718-3.233 5.599-9.701 11.643-1.728 0-3.022-10.136-3.881-30.404l1.939-3.881 0.649-12.937c-0.869-3.012-2.587-4.526-5.175-4.526 0 1.294-1.942 4.526-5.823 9.701l-0.645 1.942 0.645 5.82-0.645 7.762 1.294 7.762v1.294l-1.294 5.175c1.294 0 2.153 4.744 2.587 14.234l-0.649 1.939h-1.939c-6.044-8.632-9.056-15.959-9.056-21.993l-7.117-6.468c-2.587 1.718-4.316 3.66-5.175 5.82 0 4.744 1.942 7.976 5.823 9.704l6.468 12.288 4.526 14.231v3.236c0 0.859-0.645 1.294-1.939 1.294l-5.823-1.294c-2.587 0-4.526 1.942-5.82 5.823l1.939 1.29h3.881c4.305 0 10.774 3.885 19.405 11.647v17.463c0 2.153-3.233 6.468-9.701 12.937l1.294 1.294c3.446 0 8.187-4.316 14.231-12.937 1.294-6.903 2.363-10.35 3.233-10.35h1.942l1.939 1.294h1.294l7.762-7.114c0-2.587-3.881-4.964-11.643-7.117-1.728-1.728-3.667-6.903-5.82-15.524l0.645-4.526v-5.178c6.034-5.606 10.563-8.407 13.586-8.407 2.153 0 3.881 5.82 5.175 17.467v0.645c0 0.859-2.377 1.939-7.117 3.236-3.881 2.153-5.82 4.305-5.82 6.468l0.645 0.645h0.649l9.056-2.587h0.645c3.012 0 5.389 3.446 7.117 10.35h1.294l3.881-4.526h0.645c2.587 0 6.893 3.446 12.937 10.35 0.859-0.435 2.801-2.591 5.823-6.468l-5.175-23.935c0-1.728 2.153-4.316 6.468-7.762l5.82-9.701-0.645-9.704c5.599-3.457 14.231-6.468 25.874-9.056 5.175-3.881 8.621-7.983 10.35-12.292l-0.649-1.939h-1.294zM819.578 436.939l-10.998 10.35v1.294c0 4.305 0.859 8.621 2.587 12.937l-1.939 2.587h-1.294c-6.044-2.587-9.056-7.548-9.056-14.879l-0.649-2.587v-5.171c4.74-5.609 10.563-9.491 17.467-11.647h1.294c1.718 0.428 2.587 1.942 2.587 4.53v2.587zM620.993 408.477c-11.219 0-26.743-2.587-46.573-7.762-2.163 0-3.667 1.508-4.526 4.526 0 3.015 1.939 5.603 5.82 7.762l6.468-0.645c0 0.859 2.153 1.942 6.468 3.233v1.942l-1.939 1.939-3.881-0.645v2.587l6.468 5.82v6.468l-2.587 2.587-7.117-1.939c-3.457 0.859-5.396 2.153-5.82 3.881v0.649c10.774 1.29 16.17 4.305 16.17 9.056l1.294 18.112-1.939 1.29h-0.649l-16.818-6.468h-1.939l-3.881 3.236v0.649c0 0.859 1.718 1.504 5.175 1.939 1.294 1.294 9.915 5.175 25.874 11.643 0 0.859 1.939 1.508 5.82 1.939 3.881 0 5.823-2.584 5.823-7.759-6.903-1.728-10.35-5.178-10.35-10.35l-1.294-14.879c0-1.294 3.881-3.667 11.643-7.117v-1.939c0-3.022-3.671-7.983-10.998-14.879v-0.645c0.424-4.316 1.508-6.468 3.236-6.468l4.526 0.645 4.53-0.645c0 0.859 0.859 1.508 2.587 1.942 2.587-1.728 4.951-2.591 7.114-2.591h5.175l5.175-7.759v-1.297h-5.175l-3.881 1.942zM584.124 481.573l-1.294 1.939c0 1.718 1.718 4.74 5.175 9.056v1.294c0 1.294-2.812 4.74-8.411 10.35v0.649l1.942 1.939h0.645c7.328-4.316 12.716-8.197 16.173-11.643l0.645-3.881c-4.316-6.468-9.277-9.701-14.876-9.701zM547.252 401.364c-2.163-6.472-3.881-9.704-5.175-9.704h-1.294c-3.457 1.728-5.175 4.316-5.175 7.762l4.53 21.993-7.762 29.106 1.939 7.117h0.649c0.859 0 1.939-3.667 3.233-10.998 0.859 0 3.446-5.171 7.762-15.521l0.649-0.649h1.939c2.153 1.294 5.823 7.541 10.998 18.757l5.175 5.178v-0.649c0-3.022-3.671-11.864-10.998-26.523-3.022-9.052-5.175-17.684-6.468-25.871zM553.076 471.223c-1.728 0.859-2.587 3.881-2.587 9.052-1.728 2.156-4.105 6.896-7.117 14.234 12.502-6.468 18.76-12.078 18.76-16.818-1.728-4.316-4.75-6.468-9.056-6.468zM477.393 457.638h-3.881c-21.134-4.316-31.694-8.411-31.694-12.288v-4.53c0-4.75 2.587-7.117 7.762-7.117l10.35-0.645 2.587 0.645c5.599-3.019 8.407-6.255 8.407-9.701 0-1.728-5.396-7.548-16.17-17.467l-3.236-7.114v-0.649c1.294-1.718 1.942-3.233 1.942-4.526-0.435-2.153-2.163-3.233-5.175-3.233-15.1 4.747-22.641 8.842-22.641 12.288v0.645c0 2.156 0.859 3.66 2.587 4.53h1.942c2.587-2.587 4.526-3.881 5.82-3.881 3.881 0 7.762 2.367 11.643 7.117 7.762 5.599 11.643 9.701 11.643 12.288 0 0.859-0.645 1.294-1.939 1.294l-3.881-1.294c-8.197 0-13.806 3.66-16.818 10.998 0 4.74-1.518 7.538-4.53 8.407l-24.58-10.35-15.524-4.526h-0.645c-9.491 0.424-14.231 1.939-14.231 4.526v0.645l1.939 1.942 1.942-0.645c10.774 0 25.65 4.526 44.631 13.582 6.034 0 9.704 3.881 10.998 11.643l0.645 7.762-2.587 1.939h-0.645l-6.468-0.645c-5.175 5.599-7.762 9.27-7.762 10.995v0.649h0.645l15.524-3.233h1.294l2.587 2.584v0.649c-5.609 7.762-8.407 13.796-8.407 18.112 0 3.881 1.939 7.117 5.82 9.704h0.649c6.034 0 9.701-5.175 10.995-15.524l-0.645-10.35c6.468-1.728 9.701-3.457 9.701-5.175v-1.294l-3.233-3.881v-0.649c0-1.294 3.881-3.022 11.643-5.175l12.937 0.645c2.587 0 5.175-2.584 7.762-7.762l-2.587-3.233c-1.728 0.859-4.105 1.294-7.117 1.294zM439.875 502.272h-1.294c-2.163-1.294-3.233-3.022-3.233-5.178 2.153-6.9 3.657-10.35 4.526-10.35h1.294c1.294 0 2.153 2.367 2.587 7.117-0.869 5.599-2.163 8.411-3.881 8.411zM457.342 464.755c-1.728 2.584-4.53 4.526-8.411 5.82-2.587 0-4.526-3.881-5.82-11.643l1.939-1.294c7.762 2.587 11.857 4.53 12.292 5.82v1.297zM252.289 433.703h-9.056c-16.394-2.584-24.58-6.041-24.58-10.35l-0.645-5.82 0.645-2.587c-0.869-1.728-1.294-4.102-1.294-7.114v-3.236l0.649-2.587-0.649-2.587v-5.823c0-1.294 1.073-3.657 3.236-7.114l-1.942-1.942v-0.645c-1.294 0-3.667 2.374-7.114 7.117l0.645 0.645-0.645 7.762v8.411l-1.294 10.35v3.878l-1.294 1.294h-0.649c-3.881 0-14.876-3.233-32.988-9.701l-3.881-0.649c-2.587 0-5.399 1.721-8.411 5.178v1.29l1.942 1.942h0.645l1.942-1.294h1.939c3.446 0 15.524 3.66 36.224 10.998 3.012 0.859 4.53 1.718 4.53 2.584v7.117c0 3.012-1.942 4.53-5.823 4.53l-1.294-2.591 0.649-3.233-1.942-1.294h-0.645c-4.75 0-9.28 6.248-13.586 18.757l-14.876 20.703v0.645l1.294 1.294h1.294c4.74-4.316 12.288-13.582 22.638-27.813l0.649-0.649h2.587c7.762 0 11.643 1.939 11.643 5.82 0 3.015-4.105 6.468-12.292 10.35h-3.233l-0.649-0.645c-1.728 0.424-2.587 1.073-2.587 1.942v0.645c6.893 5.599 10.35 8.835 10.35 9.704 0 1.29-1.294 3.657-3.881 7.114-1.728 3.881-2.587 7.117-2.587 9.704-0.869 0-1.728 1.29-2.587 3.881 0.424 2.153 1.294 3.233 2.587 3.233 3.446-1.728 7.976-7.114 13.586-16.173h0.645c8.187 8.625 12.292 15.952 12.292 21.996l-1.294 5.175 0.645 0.645h0.649c3.881 0 7.114-2.587 9.701-7.762 0-4.316-3.022-9.704-9.056-16.173v-1.939c0-0.869 0.649-1.294 1.942-1.294 3.881 1.294 8.187 1.942 12.937 1.942h3.233c3.446 0 6.893-2.812 10.35-8.411 0-1.294-7.762-10.784-23.287-28.461 0-1.294-2.374-5.609-7.114-12.937v-1.939h2.587l9.056 4.526 10.995 1.939 3.881-0.645 0.649 0.645h0.645l6.468-5.82h1.294v-2.587l-1.939-2.587-4.53 0.645zM210.89 472.517h-0.645l-1.294-1.294v-1.297h1.939l1.294 1.297-1.294 1.294zM224.476 456.344c3.881 3.446 7.114 7.976 9.701 13.582 4.74 3.881 7.117 7.331 7.117 10.35v0.649l-1.942 1.942c-13.806-1.728-20.699-3.881-20.699-6.468 0-3.457 2.367-7.762 7.117-12.94v-1.29c0-1.297-0.649-1.942-1.942-1.942l-0.645-0.649v-1.939l1.294-1.294zM86.050 387.778h-3.236c-2.587 2.163-6.044 3.881-10.35 5.175-4.75 2.587-7.762 5.175-9.056 7.762v0.649h0.649c6.034-4.744 12.068-7.117 18.112-7.117l1.294 1.939c-6.468 28.465-9.704 45.928-9.704 52.397l0.649 10.995c0 3.015-3.022 4.53-9.056 4.53l-4.53 0.649-10.35-5.178h-1.294c-1.728 0.862-2.587 1.942-2.587 3.236 0 2.153 6.248 5.175 18.76 9.056 0 0.859 0.859 1.508 2.587 1.939 6.468-3.881 10.995-8.407 13.582-13.582l-0.645-7.762v-14.876c0-6.903 3.446-22.217 10.35-45.928v-1.942c-0.435-1.294-2.163-1.939-5.175-1.939zM61.47 486.744v1.942l7.762 7.117v0.645c-9.491 5.599-14.879 8.411-16.173 8.411-2.163 0-4.102-6.693-5.82-20.054-0.869 0-2.812-5.82-5.823-17.467l-3.233-2.584h-3.236c-1.294 0-5.175 3.012-11.643 9.052l-1.939 1.297h-1.942c-6.903-7.766-12.078-12.727-15.524-14.879h-0.645c-2.163 0.859-3.236 2.587-3.236 5.175 2.153 5.599 6.034 8.407 11.643 8.407 9.48 13.365 14.879 22.207 16.173 26.523l0.645 3.236-0.645 5.82 1.939 1.294c1.718-0.435 3.446-2.587 5.175-6.468-0.869-5.175-4.316-12.723-10.35-22.638v-1.942c2.587-3.881 5.823-5.823 9.704-5.823h2.587c6.893 10.35 10.35 18.974 10.35 25.877 2.153 6.893 3.657 10.35 4.526 10.35 9.915-3.457 19.619-6.258 29.11-8.411 1.718-2.163 2.587-3.881 2.587-5.175-13.372-6.468-20.699-9.704-21.993-9.704zM17.484 440.171v-0.645l-1.294-16.173v-5.82c0-1.294 0.859-1.942 2.587-1.942 1.294 0 3.657 3.236 7.114 9.704h1.294c-6.468-18.112-10.57-27.168-12.288-27.168h-0.649c-2.587 1.728-3.881 3.881-3.881 6.468v5.175l-0.645 9.056c0 10.35 2.363 17.463 7.114 21.344h0.649zM32.36 454.405l-5.175 4.526-0.645 0.645v0.649c0.859 1.718 1.504 2.587 1.939 2.587h1.294l3.236-2.587 2.587 0.645c2.153-0.866 3.881-2.374 5.175-4.526v-1.939c0-5.178-3.236-7.766-9.704-7.766l-2.587 1.942v0.645l3.881 4.53v0.649zM33.654 436.29c0 3.015 2.367 4.53 7.117 4.53 3.012 6.034 6.468 9.48 10.35 10.35 6.034-3.022 10.35-8.411 12.937-16.17l0.645-1.942-0.645-0.649v-0.645l0.645-3.881c0-3.457-4.102-7.983-12.288-13.582l-5.823-1.942-5.175 4.526h-0.645l-3.236-2.584h-0.645c-2.163 1.29-3.671 3.233-4.53 5.82 0.859 3.446 1.294 8.187 1.294 14.231v1.939zM56.295 427.883c2.153 0 3.233 3.012 3.233 9.056-0.869 3.012-3.022 5.599-6.468 7.762h-3.233c-3.881-2.587-6.693-6.468-8.411-11.643 0-3.457 4.954-5.175 14.879-5.175zM45.945 419.472h3.881v1.942c-0.869 1.718-2.377 2.587-4.53 2.587h-3.233l-1.294-1.294c1.294-2.163 3.012-3.236 5.175-3.236z" />
<glyph unicode="&#xe921;" glyph-name="jinzhi" d="M513.555 899.775c-248.292 0-449.583-201.304-449.583-449.625 0-248.299 201.293-449.596 449.583-449.596 248.282 0 449.637 201.297 449.637 449.596 0.001 248.322-201.355 449.625-449.637 449.625zM735.451 409.025h-443.742c-22.716 0-41.136 18.415-41.136 41.14 0 22.716 18.42 41.133 41.136 41.133h443.742c22.72 0 41.14-18.416 41.14-41.133 0-22.725-18.42-41.14-41.14-41.14z" />
<glyph unicode="&#xe922;" glyph-name="join_company" d="M1010.297 69.949c1-3.584 1.715-7.287 1.715-11.204 0-3.096-0.393-6.073-1.036-8.966 0-0.191 0.024-0.357 0.024-0.548 0-11.883-10.907-26.254-37.804-35.899-93.3-33.434-199.792-77.321-464.286-77.321-278.138 0-456.26 76.666-456.26 76.666s-2.084 0.762-5.001 2.012c-15.204 1.988-27.647 12.621-32.529 27.028-1.798 3.703-3.12 7.644-3.12 12.062 0 320.43 311.965 106.337 320.537 314.191-76.726 66.427-120.471 179.706-120.471 238.87l36.113 109.421-2.298 161.858 79.69 20.622s54.222 61.247 175.050 61.247c151.226 0 252.444-110.326 252.444-243.728l38.613-109.421c0-57.080-43.043-187.981-102.861-239.691-2.786-183.242 306.94-16.895 321.477-297.2z" />
<glyph unicode="&#xe923;" glyph-name="jujue" d="M618.288 446.409l371.335-371.335c29.581-29.581 29.581-77.488 0-107.069s-77.538-29.581-107.12 0l-371.285 371.285-373.506-373.456c-29.784-29.834-78.093-29.834-107.928 0-29.784 29.784-29.784 78.144 0 107.928l373.506 373.506-371.285 371.285c-29.632 29.581-29.632 77.488 0 107.069 29.531 29.581 77.488 29.581 107.069 0l371.285-371.285 375.879 375.879c29.834 29.784 78.144 29.784 107.928 0 29.834-29.834 29.834-78.144 0-107.978l-375.879-375.828z" />
<glyph unicode="&#xe924;" glyph-name="late_early" d="M1023.986 699.819c0.010-0.297 0.016-0.645 0.016-0.994 0-17.292-14.019-31.311-31.311-31.311s-31.311 14.019-31.311 31.311c0 4.027 0.76 7.877 2.145 11.412l-14.832-0.213c-46.956 68.604-107.646 124.383-178.447 164.349l-2.647 9.154c-1.142-0.348-2.519-0.646-3.931-0.834-17.567-0.031-31.575 13.978-31.575 31.259s14.009 31.289 31.289 31.289c1.61-0.21 3.037-0.513 4.422-0.916l-0.205 2.328c2.341-1.138 4.554-2.509 6.894-3.669 1.339-0.596 2.463-1.203 3.536-1.883 102.968-52.88 186.348-131.847 243.221-228.308l0.668-2.771c1.209-3.016 1.957-6.508 2.066-10.16zM260.015 882.662c-2.411 0.216-4.631 0.685-6.747 1.384l0.421-9.839c-72.262-41.21-132.012-96.421-177.225-162.377l-15.929-1.807c1.135-3.1 1.791-6.68 1.791-10.414 0-17.21-13.952-31.163-31.163-31.163s-31.163 13.952-31.163 31.163l0.001 0.22c0.123 3.775 0.913 7.331 2.255 10.603l-1.012-0.409c57.934 98.515 140.463 177.032 239.311 228.536 4.888 2.672 6.719 3.675 8.655 4.48 1.65 0.81 3.042 1.674 4.412 2.392v-1.371c1.841 0.605 3.99 1.052 6.209 1.256 0.126 0.009 0.137 0.009 0.148 0.009 17.304 0 31.332-14.027 31.332-31.332 0-17.293-14.010-31.314-31.298-31.332zM832.393 79.897l70.717-70.717c5.825-6.060 9.412-14.308 9.412-23.394 0-0.017 0-0.035 0-0.052 0-18.721-15.179-33.901-33.904-33.901-9.096 0-17.355 3.582-23.445 9.413l-75.301 75.301c-74.395-53.501-167.332-85.559-267.757-85.559-101.798 0-195.901 32.942-272.232 88.746 0.388-2.571-0.575-3.998-1.65-5.332l-74.509-74.496c-5.665-5.492-13.4-8.877-21.925-8.877-0.016 0-0.033 0-0.049 0-17.465 0-31.624 14.16-31.624 31.626 0 8.54 3.384 16.29 8.886 21.98l74.039 74.039c-89.281 84.718-144.828 204.234-144.828 336.725 0 256.181 207.675 463.856 463.856 463.856s463.856-207.675 463.856-463.856c0-131.867-55.025-250.881-143.368-335.336zM775.591 414.843h-263.554v305.723c0 17.467-14.16 31.626-31.626 31.626s-31.626-14.16-31.626-31.626v-337.35c0-17.467 14.16-31.626 31.626-31.626h295.181c17.467 0 31.626 14.16 31.626 31.626s-14.16 31.626-31.626 31.626z" />
<glyph unicode="&#xe925;" glyph-name="leave" d="M512-64c-282.77 0-512 229.23-512 512s229.23 512 512 512 512-229.23 512-512-229.23-512-512-512zM730.837 340.971l-197.504 117.696v330.667c0 23.564-19.103 42.667-42.667 42.667s-42.667-19.103-42.667-42.667v-362.667c0.016-12.331 5.294-23.426 13.708-31.162 0.867-0.792 1.771-1.54 2.71-2.243 0.935-0.778 1.977-1.563 3.056-2.299 0.771-0.499 1.176-0.925 1.688-1.224l214.976-128c5.591-2.978 12.226-4.727 19.271-4.727 16.206 0 30.25 9.258 37.132 22.773 4.882 7.313 7.727 16.031 7.727 25.415 0 14.482-6.778 27.381-17.334 35.697z" />
<glyph unicode="&#xe926;" glyph-name="legwork_sign" d="M512 17.481c40.702 0 372.15 367.841 372.15 570.369 0 205.532-166.617 372.15-372.15 372.15s-372.15-166.617-372.15-372.15c0-202.527 331.448-570.369 372.15-570.369zM512 404.517c-100.085 1.534-180.629 83.027-180.629 183.332 0 101.263 82.090 183.353 183.353 183.353s183.352-82.089 183.353-183.352c-0.774-101.42-83.17-183.338-184.698-183.338-0.483 0-0.968 0.002-1.45 0.006zM299.248 151.847l51.142-44.853c-64.989-11.165-107.16-28.793-107.16-48.771 0-33.69 120.322-64.833 268.771-64.833s268.771 31.143 268.771 64.833c0 19.978-42.19 37.606-107.16 48.771l51.142 44.853c72.119-22.525 118.050-56.018 118.050-93.625 0-67.574-148.115-122.222-330.802-122.222s-330.802 54.648-330.802 122.222c0 37.606 45.931 71.1 118.050 93.625z" />
<glyph unicode="&#xe927;" glyph-name="list" d="M113.778 960c-47.128 0-85.333-38.205-85.333-85.333v-853.334c0-47.128 38.205-85.333 85.333-85.333h796.445c47.128 0 85.333 38.205 85.333 85.333v853.334c0 47.128-38.205 85.333-85.333 85.333h-796.445zM119.951 896h784.101c15.709 0 28.444-12.735 28.444-28.444v-839.112c0-15.709-12.735-28.444-28.444-28.444h-784.101c-15.709 0-28.444 12.735-28.444 28.444v839.112c0 15.709 12.735 28.444 28.444 28.444zM354.788 704h440.576c17.673 0 32-14.327 32-32s-14.327-32-32-32h-440.576c-17.673 0-32 14.327-32 32s14.327 32 32 32zM228.182 704c17.406-0.049 31.5-14.162 31.516-31.572v-0.855c0.009-0.282 0.014-0.614 0.014-0.947 0-17.422-14.123-31.545-31.545-31.545s-31.545 14.123-31.545 31.545c0 0.333 0.005 0.665 0.015 0.995l-0.001 0.805c0.016 17.421 14.126 31.541 31.542 31.573zM354.788 490.667h440.576c17.673 0 32-14.327 32-32s-14.327-32-32-32h-440.576c-17.673 0-32 14.327-32 32s14.327 32 32 32zM228.182 490.667c17.406-0.049 31.5-14.162 31.516-31.572v-0.855c0.009-0.282 0.014-0.614 0.014-0.947 0-17.422-14.123-31.545-31.545-31.545s-31.545 14.123-31.545 31.545c0 0.333 0.005 0.665 0.015 0.995l-0.001 0.805c0.016 17.421 14.126 31.541 31.542 31.573zM354.788 277.333h440.576c17.673 0 32-14.327 32-32s-14.327-32-32-32h-440.576c-17.673 0-32 14.327-32 32s14.327 32 32 32zM228.182 277.333c17.406-0.049 31.5-14.162 31.516-31.572v-0.855c0.009-0.282 0.014-0.614 0.014-0.947 0-17.422-14.123-31.545-31.545-31.545s-31.545 14.123-31.545 31.545c0 0.333 0.005 0.665 0.015 0.995l-0.001 0.805c0.016 17.421 14.126 31.541 31.542 31.573z" />
<glyph unicode="&#xe928;" glyph-name="Mood" d="M516.422-64c-285.207 0-516.422 231.215-516.422 516.422 0 253.312 182.528 463.616 423.145 507.578-42.903-67.479-68.108-147.34-68.108-233.228 0-240.652 195.084-435.735 435.735-435.735 85.888 0 165.748 25.193 233.228 68.108-43.962-240.617-254.266-423.145-507.578-423.145zM774.633 226.49c-267.392 0-484.143 216.751-484.143 484.143 0 53.248 8.913 104.332 24.797 152.262-148.608-75.031-250.74-228.596-250.74-406.47 0-251.764 204.113-455.866 455.878-455.866 177.873 0 331.439 102.121 406.47 250.729-47.919-15.884-99.014-24.797-152.262-24.797z" />
<glyph unicode="&#xe929;" glyph-name="more" d="M1008.118 639.889l-477.41-453.357c-13.256-12.752-34.721-12.752-47.978 0l-23.989 23.079c-0.806 0.773-1.111 1.783-1.817 2.623l-441.109 426.373c-13.222 12.718-13.222 33.342 0 46.061l23.921 23.046c13.189 12.718 34.653 12.718 47.876 0l419.78-405.715 428.794 407.163c13.256 12.752 34.721 12.752 47.978 0l23.955-23.079c13.29-12.752 13.29-33.443 0-46.195z" />
<glyph unicode="&#xe92a;" glyph-name="morning" d="M990.57 283.754h-106.495c-17.636 0-31.948 14.313-31.948 31.948s14.313 31.948 31.948 31.948h106.495c17.636 0 31.948-14.313 31.948-31.948s-14.313-31.948-31.948-31.948zM797.494 556.681c-12.481-12.481-32.716-12.481-45.176 0-12.481 12.481-12.481 32.694 0 45.176l75.292 75.313c12.481 12.46 32.716 12.46 45.197 0 12.46-12.481 12.46-32.716 0-45.197l-75.313-75.292zM807.462 273.104h-64.558c2.556 13.845 4.047 28.029 4.047 42.599 0 129.392-104.877 234.291-234.291 234.291-129.392 0-234.291-104.898-234.291-234.291 0-14.568 1.512-28.754 4.068-42.599h-64.558c-2.002 13.951-3.408 28.094-3.408 42.599 0 164.685 133.524 298.188 298.188 298.188 164.685 0 298.188-133.503 298.188-298.188 0-14.505-1.385-28.648-3.386-42.599zM511.34 656.489c-17.636 0-31.948 14.313-31.948 31.948v106.495c0 17.636 14.313 31.948 31.948 31.948s31.948-14.313 31.948-31.948v-106.495c0-17.636-14.313-31.948-31.948-31.948zM225.186 556.681l-75.313 75.292c-12.46 12.481-12.46 32.716 0 45.197 12.481 12.46 32.716 12.46 45.197 0l75.292-75.313c12.481-12.481 12.481-32.694 0-45.176-12.46-12.481-32.694-12.481-45.176 0zM170.553 315.702c0-17.636-14.313-31.948-31.948-31.948h-106.495c-17.636 0-31.948 14.313-31.948 31.948s14.313 31.948 31.948 31.948h106.495c17.636 0 31.948-14.313 31.948-31.948zM33.429 135.32h958.463c17.657 0 31.948-14.292 31.948-31.948 0-17.636-14.292-31.948-31.948-31.948h-958.463c-17.636 0-31.948 14.313-31.948 31.948 0 17.657 14.313 31.948 31.948 31.948z" />
<glyph unicode="&#xe92b;" glyph-name="neigou" d="M2.979 605.232l490.741-609.094-196.806 609.094h-293.937zM350.27 605.232l173.803-610.371 149.522 610.371h-323.325zM550.495-3.862l472.426 609.094h-291.651l-180.775-609.094zM1024 645.066l-141.661 242.2-141.669-242.2h283.33zM837.836 901.138h-283.321l141.661-250.476 141.661 250.476zM652.599 645.066l-141.661 242.191-141.669-242.191h283.33zM469.485 901.138h-283.321l141.661-250.476 141.661 250.476zM141.661 887.257l-141.661-242.191h283.33l-141.669 242.191z" />
<glyph unicode="&#xe92c;" glyph-name="new" d="M945.231 192.001h-748.309c-43.52 0-78.769 35.249-78.769 78.769v78.769l-118.154 98.462 118.154 98.461v78.769c0 43.52 35.249 78.769 78.769 78.769h748.309c43.52 0 78.769-35.249 78.769-78.769v-354.462c0-43.52-35.249-78.769-78.769-78.769zM433.231 388.924v157.539h-39.385v-118.154h-39.385v39.385h-39.385v39.385h-39.385v39.385h-39.385v-196.923h39.385v118.154h39.385v-39.385h39.385v-39.385h39.385v-39.385h39.385v39.385zM669.538 388.924h-157.538v39.385h157.538v39.385h-157.538v39.385h157.538v39.384h-196.923v-196.923h196.923v39.385zM905.846 428.309v118.154h-39.385v-157.539h-39.385v157.539h-39.385v-157.539h-39.385v157.539h-39.384v-157.539h39.384v-39.385h39.385v39.385h39.385v-39.385h39.385v39.385h39.385v39.385z" />
<glyph unicode="&#xe92d;" glyph-name="next" d="M782.12 401.604c-1.804-1.934-4.189-2.578-6.444-4.51l-445.021-444.635c-11.355-10.213-26.456-16.459-43.015-16.459-35.589 0-64.44 28.851-64.44 64.44 0 16.495 6.198 31.542 16.391 42.941l404.498 404.619-404.553 404.682c-10.139 11.336-16.337 26.384-16.337 42.879 0 35.589 28.851 64.44 64.44 64.44 16.559 0 31.66-6.246 43.074-16.511l444.963-444.583c1.934-1.934 4.317-2.578 6.444-4.51 11.561-12.015 18.683-28.374 18.683-46.397s-7.121-34.383-18.703-46.418z" />
<glyph unicode="&#xe92e;" glyph-name="night" d="M887.185 381.217l-41.272 20.369-41.272-20.369 5.654 47.571-31.165 34.972 44.767 9.038 22.016 41.984 22.016-41.984 44.767-9.038-31.165-34.972 5.654-47.571zM794.891 603.826l-82.543 40.715-82.543-40.715 11.309 95.121-62.308 69.966 89.533 18.098 44.010 83.946 44.010-83.946 89.533-18.098-62.308-69.966 11.309-95.121zM790.773 291.039c85.882 0 165.732 25.199 233.227 68.118-43.965-240.618-254.264-423.157-507.57-423.157-285.229 0-516.43 231.224-516.43 516.43 0 253.306 182.517 463.605 423.135 507.57-42.897-67.473-68.096-147.345-68.096-233.227 0-240.64 195.094-435.734 435.734-435.734zM290.482 710.634c0 53.248 8.927 104.337 24.799 152.264-148.614-75.041-250.724-228.597-250.724-406.461 0-251.77 204.088-455.88 455.858-455.88 177.887 0 331.442 102.133 406.483 250.746-47.928-15.894-99.016-24.799-152.264-24.799-267.398 0-484.152 216.754-484.152 484.129z" />
<glyph unicode="&#xe92f;" glyph-name="no_sign" d="M512-63.954c-41.842 0-413.501 381.997-413.501 610.407 0 228.371 185.13 413.501 413.501 413.501s413.501-185.13 413.501-413.501c0-228.411-371.659-610.407-413.501-610.407zM512 763.049c-119.622 0-216.596-96.973-216.596-216.596s96.973-216.596 216.596-216.596c119.622 0 216.596 96.973 216.596 216.596s-96.973 216.596-216.596 216.596z" />
<glyph unicode="&#xe930;" glyph-name="noon" d="M992 416.001h-106.667c-17.685 0-32 14.315-32 31.979 0 17.685 14.315 32.021 32 32.021h106.667c17.664 0 32-14.336 32-32.021 0-17.664-14.336-31.979-32-31.979zM798.613 689.344c-12.501-12.48-32.768-12.48-45.248 0-12.501 12.501-12.501 32.768 0 45.269l75.413 75.435c12.501 12.48 32.768 12.48 45.248 0 12.501-12.523 12.501-32.768 0-45.269l-75.413-75.435zM513.323 149.291c-164.928 0-298.667 133.717-298.667 298.667s133.739 298.667 298.667 298.667c164.949 0 298.667-133.717 298.667-298.667s-133.717-298.667-298.667-298.667zM513.323 682.624c-129.6 0-234.667-105.067-234.667-234.667s105.067-234.667 234.667-234.667c129.621 0 234.667 105.067 234.667 234.667s-105.045 234.667-234.667 234.667zM512 789.333c-17.685 0-32 14.336-32 32v106.667c0 17.664 14.315 32 32 32 17.664 0 32-14.336 32-32v-106.667c0-17.664-14.336-32-32-32zM225.387 689.344l-75.435 75.435c-12.48 12.501-12.48 32.747 0 45.269 12.501 12.48 32.768 12.48 45.269 0l75.413-75.435c12.501-12.501 12.501-32.768 0-45.269-12.501-12.48-32.747-12.48-45.248 0zM170.667 447.978c0-17.664-14.336-31.979-32-31.979h-106.667c-17.685 0-32 14.315-32 31.979 0 17.685 14.315 32.021 32 32.021h106.667c17.664 0 32-14.336 32-32.021zM225.387 206.635c12.501 12.501 32.747 12.501 45.248 0s12.501-32.747 0-45.248l-75.413-75.435c-12.501-12.501-32.768-12.501-45.269 0-12.48 12.501-12.48 32.768 0 45.248l75.435 75.435zM512 106.667c17.664 0 32-14.336 32-32v-106.667c0-17.664-14.336-32-32-32-17.685 0-32 14.336-32 32v106.667c0 17.664 14.315 32 32 32zM798.613 206.635l75.413-75.435c12.501-12.48 12.501-32.747 0-45.248-12.48-12.501-32.747-12.501-45.248 0l-75.413 75.435c-12.501 12.501-12.501 32.747 0 45.248 12.48 12.501 32.747 12.501 45.248 0z" />
<glyph unicode="&#xe931;" glyph-name="normal" d="M234.666 960c-70.692 0-128-57.308-128-128v-768c0-70.692 57.308-128 128-128h554.667c70.692 0 128 57.308 128 128v640l-256 255.147zM853.333 704h-128c-35.346 0-64 28.654-64 64v128zM693.333 192h-362.667c-17.673 0-32 14.327-32 32s14.327 32 32 32h362.667c17.673 0 32-14.327 32-32s-14.327-32-32-32zM693.333 384h-362.667c-17.673 0-32 14.327-32 32s14.327 32 32 32h362.667c17.673 0 32-14.327 32-32s-14.327-32-32-32z" />
<glyph unicode="&#xe932;" glyph-name="oil_card_recharge" d="M895.785 488.279h-72.467v231.593l-148.238 79.516v112.954c0 21.748-17.628 39.377-39.377 39.377h-529.425c-21.748 0-39.379-17.628-39.379-39.377v-885.057h-66.899v-77.036h741.981v77.036h-66.901v405.245h92.49v-360.028c0-70.702 57.517-128.222 128.215-128.222s128.215 57.521 128.215 128.222v287.562c0 70.697-57.518 128.215-128.215 128.215zM133.801 878.737h466.272v-351.086h-466.272v351.086zM503.365 276.515v-47.954h-108.395v-120.879h-47.957v120.879h-108.395v47.954h108.395v47.955h-108.395v47.96h59.154l-23.953 71.854h56.071l23.953-71.854h34.303l23.953 71.854h56.070l-23.953-71.854h59.15v-47.96h-108.395v-47.955h108.394zM767.571 488.279h-92.49v247.847l92.49-49.612v-198.236zM968.252 72.502c0-39.963-32.507-72.474-72.467-72.474-39.957 0-72.467 32.511-72.467 72.474v360.028h72.467c39.96 0 72.467-32.508 72.467-72.466v-287.562z" />
<glyph unicode="&#xe933;" glyph-name="overtime" d="M515.374-63.069c-284.658 0.119-515.374 230.908-515.374 515.583 0 251.744 180.424 461.347 419.016 506.555-39.44-65.562-64.79-146.279-64.79-232.917 0-240.035 194.588-434.623 434.623-434.623 86.643 0 167.365 25.353 235.151 69.045-47.259-242.952-256.839-423.532-508.615-423.643z" />
<glyph unicode="&#xe934;" glyph-name="phone_recharge" d="M423.305 168.79c0 22.14 2.592 43.628 7.452 64.275h-288.836v605.765h484.629v-399.81c17.785 5.358 38.46 9.088 59.784 10.423l0.8 419.702c0 49.959-40.894 90.855-90.878 90.855h-424.052c-49.959 0-90.856-40.894-90.856-90.855v-787.568c0-49.938 40.898-90.856 90.856-90.856h314.745c-39.799 48.533-63.691 110.57-63.645 178.066zM263.058 914.599h242.342v-30.317h-242.342v30.317zM705.002 410.225c-130.933 0.047-237.25-106.177-237.346-236.971-0.069-130.887 106.53-237.254 237.674-237.159 130.561 0.047 236.925 106.271 237.159 236.782 0.164 130.935-106.315 237.346-237.486 237.346zM812.955 77.402c-3.973-2.758-9.063-4.16-15.181-4.16h-64.602v-18.451c0-5.558-2.29-10.93-6.916-16.116-4.625-5.231-10.626-7.566-17.984-6.958-7.404 0-13.546 1.725-18.475 5.092-4.928 3.361-7.684 9.385-8.29 17.981v18.453h-62.735c-6.164 0-11.256 1.68-15.228 5.093-4.018 3.364-5.7 7.52-5.093 12.427 0 5.558 2.008 9.993 6.027 13.408 3.97 3.36 8.735 5.092 14.293 5.092h62.735v32.277h-62.735c-6.164 0-11.071 1.82-14.783 5.558-3.688 3.642-5.535 7.986-5.535 12.892s2.008 9.531 6.027 13.828c3.97 4.296 8.735 6.445 14.293 6.445h62.735l0.888 19.388c-11.073 11.072-21.209 21.534-30.434 31.39-7.988 8.596-15.391 16.585-22.141 23.964l-13.828 12.94c-3.082 3.691-5.862 8.782-8.338 15.229-2.426 6.447-1.214 13.031 3.738 19.807 5.511 6.166 12.283 7.848 20.273 5.092 8.012-2.804 14.457-6.306 19.386-10.65 2.477-3.038 6.775-7.661 12.916-13.78l44.261-44.333c10.486 9.857 19.991 18.78 28.633 26.766 7.381 6.776 14.762 13.359 22.143 19.854 7.38 6.447 12.612 10.93 15.671 13.359 5.561 4.906 11.702 7.381 18.475 7.381s12.283-2.756 16.583-8.316c7.988-9.201 4.952-19.992-9.226-32.28-3.666-3.082-9.222-8.405-16.605-16.116-7.62-7.945-14.836-15.309-22.13-22.597-8.607-9.26-18.158-18.79-28.599-28.645v-17.519h59.977c8.596 0 14.901-2.008 18.872-5.979 4.042-4.018 6.027-8.456 6.027-13.408 0-5.511-1.846-10.277-5.534-14.296-3.714-4.014-9.835-5.698-18.475-5.045l-59.932-0.932-0.933-31.392h59.044c17.213 0 25.831-6.449 25.831-19.385 0.608-6.12-1.072-10.603-5.091-13.359z" />
<glyph unicode="&#xe935;" glyph-name="play" d="M410.282 220.721c-2.824 0-5.643 0.683-8.253 2.005-5.997 3.068-10.030 9.204-10.031 16.282v417.989c0.004 7.003 3.94 13.087 9.719 16.163 6.099 3.19 13.423 2.727 18.991-1.151l292.575-203.532c4.71-3.303 7.774-8.678 7.86-14.772 0.001-0.077 0.001-0.152 0.001-0.228 0-6.037-2.917-11.393-7.419-14.734l-292.624-214.447c-3.213-2.357-7.001-3.575-10.819-3.575zM512 925.090c263.069 0 477.091-214.022 477.091-477.091s-214.024-477.090-477.091-477.090-477.091 214.021-477.091 477.090 214.022 477.091 477.091 477.091zM512 960c-282.77 0-512-229.23-512-512s229.231-512 512-512 512 229.229 512 511.999-229.23 512.001-512 512.001z" />
<glyph unicode="&#xe936;" glyph-name="prev" d="M243.076 406.784c1.599-1.292 3.419-2.414 5.373-3.289l451.54-450.78c10.334-10.327 24.607-16.714 40.372-16.714 31.543 0 57.114 25.57 57.114 57.114 0 15.778-6.398 30.062-16.743 40.4l-415.377 414.808 415.377 414.808c10.336 10.234 16.736 24.427 16.736 40.116s-6.399 29.88-16.731 40.111c-10.359 10.287-24.625 16.643-40.376 16.643s-30.016-6.355-40.375-16.641l-451.222-450.652c-2.191-0.955-4.081-2.112-5.785-3.489-10.149-10.624-16.456-25.165-16.456-41.179s6.306-30.555 16.571-41.275z" />
<glyph unicode="&#xe937;" glyph-name="qq" d="M518.453 950.496c314.664 0 330.14-300.49 330.14-300.49 47.732-63.206 21.943-119.943 21.943-119.943 153.465-241.18 54.171-310.859 27.088-315.996-27.088-5.138-52.902 29.681-52.902 29.681s-9.003-34.791-30.952-52.895c79.986-37.361 65.777-83.818 65.777-83.818s-16.774-140.257-349.484-51.596l-28.382 5.166c-318.895-115.102-358.525 39.989-358.525 39.989s-12.906 64.45 48.997 88.99c-36.121 21.943-48.997 68.346-48.997 68.346s-32.256-52.867-74.81-33.526c-42.562 19.344-68.345 190.855 91.559 314.663 0 0-23.188 73.516 29.679 117.375 0 0 14.205 294.054 328.87 294.054zM238.58 639.668c-69.643-59.309-23.213-118.672-23.213-118.672-153.464-94.156-126.38-246.319-126.38-246.319s24.482 12.27 41.892 47.726c17.413 35.46 44.497-5.802 44.497-5.802s16.774-81.252 68.131-113.080c51.36-31.829-2.264-52.138-2.264-52.138s-56.532-0.821-51.663-39.208c4.863-38.388 187.203-86.451 296.62-1.298l58.030-7.74c190.89-66.383 285.018-4.474 291.304 7.402 6.288 11.877-28.834 35.187-61.117 48.696-32.287 13.516-40.593 27.754-12.033 46.767 28.563 19.007 39.842 56.736 56.558 95.787 16.709 39.055 41.891 19.979 45.13 9.003 3.233-10.971 27.081-47.694 27.081-47.694s62.179 65.893-67.073 260.5c0 0 28.050 58.309-19.349 105.733 0 0-11.577 273.433-291.478 273.433-279.9 0.001-274.674-263.093-274.674-263.093z" />
<glyph unicode="&#xe938;" glyph-name="rechargeMobile" d="M810.667 835.883c-0.287 21.483-17.769 38.787-39.293 38.787-0.181 0-0.362-0.001-0.543-0.004h-517.69c-0.153 0.002-0.334 0.003-0.515 0.003-21.524 0-39.006-17.305-39.292-38.76v-775.792c0.287-21.483 17.769-38.787 39.293-38.787 0.181 0 0.362 0.001 0.543 0.004h517.69c0.153-0.002 0.334-0.003 0.515-0.003 21.524 0 39.006 17.305 39.292 38.76v775.792zM711.125 137.685h-398.251c-0.153-0.002-0.334-0.003-0.515-0.003-21.524 0-39.006 17.305-39.292 38.76v581.872c0.287 21.483 17.769 38.787 39.293 38.787 0.181 0 0.362-0.001 0.543-0.004h398.181c0.153 0.002 0.334 0.003 0.515 0.003 21.524 0 39.006-17.305 39.292-38.76v-581.872c-0.287-21.482-17.769-38.787-39.293-38.787-0.166 0-0.332 0.001-0.498 0.003zM452.267 835.883h119.467v-19.413h-119.467v19.413zM482.133 98.901h59.733c0.038 0.001 0.084 0.001 0.129 0.001 5.375 0 9.741-4.321 9.812-9.679v-19.42c-0.072-5.365-4.437-9.686-9.813-9.686-0.045 0-0.091 0-0.136 0.001h-59.726c-0.038-0.001-0.084-0.001-0.129-0.001-5.375 0-9.741 4.321-9.812 9.679v19.42c0.072 5.365 4.437 9.686 9.813 9.686 0.045 0 0.091 0 0.136-0.001z" />
<glyph unicode="&#xe939;" glyph-name="refresh" d="M1015.73 621.856l-63.241-125.151c-0.095-0.159-0.254-0.254-0.349-0.444 0-0.19 0.063-0.349 0.063-0.54l-0.444 0.095c-3.362-6.153-8.659-10.339-14.463-13.258-9.198-4.757-20.14-5.677-30.035-0.603l-124.897 64.162c-16.366 8.404-22.867 28.577-14.526 45.037 8.341 16.493 28.322 23.026 44.657 14.653l55.662-28.607c-52.997 146.274-192.674 250.905-357.25 250.905-143.135 0-267.684-79.099-332.669-195.91l-65.208 11.513c72.471 146.687 223.186 247.829 397.878 247.829 192.929 0 356.615-123.28 417.827-295.212l28.195 55.757c8.278 16.366 28.132 22.867 44.37 14.526s22.708-28.386 14.431-44.751zM246.173 308.122c-7.992-15.7-27.212-21.947-42.944-13.955l-50.46 25.721c52.458-147.353 192.77-252.967 358.137-252.967 141.010 0 263.846 76.911 329.592 190.867l65.811-11.608c-73.454-143.927-222.741-242.692-395.403-242.692-194.641 0-359.438 125.469-419.318 299.78l-27.117-53.188c-7.961-15.604-27.053-21.82-42.658-13.86-15.604 7.929-21.82 27.053-13.86 42.658l60.768 119.284c4.029 7.897 10.942 13.321 18.808 15.795 7.866 2.664 16.683 2.315 24.676-1.744l120.013-61.148c15.7-8.025 21.947-27.244 13.955-42.944z" />
<glyph unicode="&#xe93a;" glyph-name="renyuan" d="M1010.297 69.949c1-3.584 1.715-7.287 1.715-11.204 0-3.096-0.393-6.073-1.036-8.966 0-0.191 0.024-0.357 0.024-0.548 0-11.883-10.907-26.254-37.804-35.899-93.3-33.434-199.792-77.321-464.286-77.321-278.138 0-456.26 76.666-456.26 76.666s-2.084 0.762-5.001 2.012c-15.204 1.988-27.647 12.621-32.529 27.028-1.798 3.703-3.12 7.644-3.12 12.062 0 320.43 311.965 106.337 320.537 314.191-76.726 66.427-120.471 179.706-120.471 238.87l36.113 109.421-2.298 161.858 79.69 20.622s54.222 61.247 175.050 61.247c151.226 0 252.444-110.326 252.444-243.728l38.613-109.421c0-57.080-43.043-187.981-102.861-239.691-2.786-183.242 306.94-16.895 321.477-297.2z" />
<glyph unicode="&#xe93b;" glyph-name="repaymentHistory" d="M866.288 536.949l117.573-86.17-121.365-88.949 121.365-88.949-459.653-336.881-484.068 336.881 127.812 88.949-127.812 88.949 123.818 86.17-123.818 86.17 484.068 336.881 459.653-336.881-117.573-86.17zM214.288 501.922l-74.081-51.556 380.817-265.024 361.609 265.024-67.242 49.281-291.183-213.409-309.92 215.685zM218.283 326.803l-78.076-54.335 380.817-265.024 361.609 265.024-71.034 52.061-287.391-210.63-305.925 212.904z" />
<glyph unicode="&#xe93c;" glyph-name="reportAdd" d="M512 960h25.6c21.208 0 38.4-17.192 38.4-38.4v-947.2c0-21.208-17.192-38.4-38.4-38.4h-25.6c-21.208 0-38.4 17.192-38.4 38.4v947.2c0 21.208 17.192 38.4 38.4 38.4zM38.4 499.2h947.2c21.208 0 38.4-17.192 38.4-38.4v-25.6c0-21.208-17.192-38.4-38.4-38.4h-947.2c-21.208 0-38.4 17.192-38.4 38.4v25.6c0 21.208 17.192 38.4 38.4 38.4z" />
</font>
</defs>
</svg>
