<?xml version="1.0" standalone="no"?>
<!DOCTYPE svg PUBLIC "-//W3C//DTD SVG 1.1//EN" "http://www.w3.org/Graphics/SVG/1.1/DTD/svg11.dtd" >
<svg xmlns="http://www.w3.org/2000/svg">
<metadata>Generated by IcoMoon</metadata>
<defs>
<font id="woqu" horiz-adv-x="1024">
<font-face units-per-em="1024" ascent="960" descent="-64" />
<missing-glyph horiz-adv-x="1024" />
<glyph unicode="&#x20;" horiz-adv-x="512" d="" />
<glyph unicode="&#xe900;" glyph-name="CUCC" d="M669.22 243.107c-1.465 3.572-3.247 7.33-5.879 10.053-11.68 12.077-23.708 23.817-35.618 35.667-3.448 3.448-28.103 27.974-52.761 52.497-35.37 35.156-48.049 47.736-60.705 60.339-1.599 1.594-2.866 2.805-5.122 0.515-20.643-20.96-41.437-41.772-62.080-62.735-15.043-15.278-29.854-30.787-44.892-46.071-14.288-14.525-28.78-28.849-43.092-43.348-5.411-5.482-7.807-12.372-8.443-19.949-0.529-6.334 1.682-12.069 3.902-17.787 6.247-16.089 21.639-26.662 41.224-27.775 2.422 0.487 7.33 0.926 11.821 2.536 4.488 1.608 9.261 3.631 12.681 6.798 10.864 10.058 21.196 20.694 31.58 31.256 0.747 0.762 0.94 3.349 0.287 4.023-13.702 14.167-27.496 28.252-41.47 42.15-2.14 2.128-1.815 3.086 0.028 4.898 19.475 19.174 36.857 36.369 54.199 53.601 0.835 0.828 1.902 0.907 3.662-0.899 8.803-9.037 17.757-17.927 26.663-26.869 4.984-5.005 9.945-10.035 14.982-14.98 1.047-1.028 2.025-2.628 3.942-0.633 13.548 14.093 27.239 28.047 40.761 42.161 2.349 2.451 3.702 2.032 5.79-0.272 4.505-4.969 9.273-9.707 13.991-14.478 13.491-13.64 25.945-26.175 38.427-38.683 1.389-1.394 1.328-2.57-0.239-4.16-13.828-14.010-27.601-28.073-41.386-42.124-1.307-1.334-1.7-2.401 0.010-4.025 8.984-8.529 18.092-16.954 26.64-25.907 9.404-9.851 20.823-14.203 34.121-14.154 2.582 0.009 5.248 0.848 7.718 1.736 5.061 1.821 10.829 2.915 14.861 6.122 12.744 10.139 18.648 23.714 16.824 40.169-0.389 3.501-1.1 7.093-2.429 10.33zM509.389 523.643c1.782-1.804 2.736-1.464 4.201 0 4.266 4.265 8.6 8.455 12.871 12.713 21.758 21.693 43.485 43.42 65.263 65.092 23.729 23.614 47.639 47.049 71.179 70.85 7.226 7.305 9.604 17.106 9.37 27.078-0.143 6.1-2.052 12.114-4.617 17.909-7.059 15.958-20.325 22.257-36.479 23.92-3.761 0.388-7.736-0.948-11.569-1.708-6.675-1.321-12.708-3.95-17.643-8.851-8.86-8.804-17.745-17.587-26.743-26.248-5.286-5.090-5.422-5.005-0.498-10.106 12.714-13.176 25.43-26.349 38.212-39.458 1.597-1.638 1.603-2.652-0.078-4.25-3.947-3.75-7.697-7.711-11.521-11.595-13.904-14.136-27.812-28.268-41.694-42.428-1.489-1.519-2.613-1.353-4.051 0.135-13.481 13.871-27.045 27.656-40.476 41.572-2.128 2.206-3.466 2.237-5.634 0.038-13.727-13.93-27.599-27.717-41.352-41.624-1.577-1.595-2.574-1.374-3.997 0.051-9.413 9.413-18.881 18.769-28.318 28.156-8.38 8.334-16.732 16.693-25.122 25.016-1.49 1.473-2.215 2.508-0.253 4.484 13.737 13.807 27.289 27.802 40.994 41.64 2.238 2.259 1.848 3.574-0.291 5.647-9.061 8.771-18.126 17.551-26.81 26.685-8.432 8.866-19.023 12.013-31.595 13.385-2.767-0.636-6.419-1.176-9.867-2.329-7.475-2.5-14.549-5.979-19.835-11.973-5.561-6.307-8.921-13.841-11.244-21.965-3.034-10.596-0.929-20.221 6.173-28.043 10.419-11.472 21.772-22.089 32.622-33.168 21.587-22.038 43.023-44.22 64.67-66.197 17.952-18.231 36.157-36.217 54.133-54.428zM215.921 465.943c-1.414 1.201-2.944 2.295-4.207 3.64-6.101 6.494-12.124 13.063-18.189 19.592-9.071 9.768-19.867 15.997-36.19 16.531-3.949 0.546-9.923-1.705-15.67-4.391-7.149-3.337-14.108-7.208-17.734-14.736-2.32-4.821-4.393-9.809-6.041-14.894-2.696-8.323-1.868-16.62 1.283-24.716 3.279-8.433 9.361-14.514 16.73-19.35 4.392-2.884 8.954-5.535 14.612-5.286 5.654 0.248 11.329 0.233 16.989 0.182 6.652-0.058 11.975 3.046 16.709 7.184 4.172 3.643 7.903 7.786 11.946 11.587 6.57 6.179 13.215 12.281 19.872 18.368 2.867 2.62 2.896 3.734-0.11 6.291zM512 960c-282.769 0-512-229.231-512-512s229.231-512 512-512c282.77 0 512 229.23 512 512s-229.23 512-512 512zM223.771 357.971c-5.596-3.586-12.102-7.074-18.877-10.063-6.424-2.741-12.349-4.165-18.17-5.674-3.547-0.919-7.264-1.167-10.898-1.781-11.915-2.016-23.843-0.712-35.729 0.125-5.016 0.353-10 1.686-14.899 2.954-4.414 1.139-8.856 2.443-12.996 4.319-6.137 2.787-11.266 5.581-16.174 8.691-5.608 3.541-11.837 7.448-17.29 12.184-5.715 4.96-10.958 10.611-15.67 16.542-5.152 6.482-9.762 13.448-14.044 20.543-4.159 6.886-7.089 14.337-9.011 22.276-2.965 12.24-3.85 24.6-3.679 38.495 0 3.717-0.466 8.878 0.127 13.915 0.665 5.664 2.29 11.217 3.49 16.82 2.050 9.584 6.592 18.131 11.347 26.528 8.323 14.707 18.923 27.747 31.949 38.413 8.105 6.638 17.164 12.299 27.327 15.725 4.897 1.649 9.632 3.836 14.6 5.177 4.552 1.23 9.309 2.22 13.994 2.314 14.128 0.286 28.286 0.493 42.397-0.127 5.618-0.246 11.345-2.218 16.655-4.327 7.043-2.794 13.959-6.092 20.5-9.91 6.422-3.751 12.518-8.156 18.371-12.762 6.808-5.355 13.455-10.968 19.687-16.975 6.248-6.020 11.961-12.603 17.762-19.075 1.73-1.931 2.439-2.158 4.388 0.040 5.683 6.413 11.791 12.446 17.741 18.619 7.716 8.005 15.484 15.962 23.128 24.033 1.354 1.429 2.193 1.678 3.638 0.211 13.682-13.908 26.113-26.476 38.579-39.010 5.043-5.068 10.636-10.455 16.196-15.874 1.362-1.326 1.352-2.43-0.040-3.807-13.504-13.371-26.942-26.802-40.446-40.169-3.528-3.492-3.459-3.887 0.095-7.373 13.472-13.229 26.801-26.609 40.31-39.797 2.896-2.827 0.3-4.074-1.146-5.522-16.597-16.624-33.258-33.183-49.892-49.768-4.621-4.607-4.514-4.531-9.083 0.008-12.92 12.835-25.96 25.548-38.865 38.397-2.446 2.438-3.946 1.124-5.76-0.665-10.063-9.919-19.909-20.082-30.368-29.572-5.856-5.32-12.524-9.852-19.242-14.079zM751.997 206.132c-2.577-13.012-7.492-25.064-13.746-36.56-6.708-12.327-14.357-24.251-25.162-33.356-7.344-6.191-15.691-11.341-24.070-16.112-7.258-4.132-15.049-7.448-22.869-10.42-6.168-2.342-12.815-3.384-19.115-5.414-7.736-2.492-15.654-1.967-23.458-1.539-6.591 0.36-13.293 1.491-19.609 3.398-9.196 2.776-18.214 6.263-27.062 10.016-5.126 2.175-9.957 5.194-14.587 8.323-7.048 4.765-14.186 9.521-20.6 15.073-7.6 6.581-14.518 13.96-21.645 21.079-2.368 2.366-4.506 4.963-6.677 7.515-1.362 1.597-2.286 2.133-4.064 0.148-7.556-8.448-15.121-16.905-23.093-24.955-4.286-4.329-9.269-8.013-14.156-11.692-9.194-6.919-19.153-12.664-29.738-17.088-9.078-3.796-18.491-6.531-28.268-8.481-12.511-2.492-24.958-2.112-37.378-1.291-7.343 0.487-14.549 3.217-21.792 5.030-8.537 2.135-16.141 6.353-23.66 10.748-11.996 7.009-22.146 16.184-31.646 26.251-9.026 9.573-15.65 20.655-20.933 32.494-2.92 6.549-4.978 13.618-6.411 20.659-1.559 7.647-1.945 15.533-2.843 23.317l0.993 0.081c0 4.989-0.523 10.046 0.121 14.953 0.914 6.945 1.838 14.099 4.284 20.587 4.082 10.815 9.19 21.26 14.203 31.704 5.964 12.436 14.675 22.737 24.541 32.408 30.513 29.913 60.59 60.271 90.811 90.481 15.633 15.634 31.2 31.341 46.849 46.961 1.967 1.965 1.703 3.304-0.185 5.182-21.588 21.488-43.105 43.047-64.638 64.588-28.011 28.016-56.098 55.955-83.936 84.144-3.725 3.771-6.479 8.623-9.142 13.284-4.475 7.837-8.831 15.776-12.624 23.954-2.691 5.795-4.341 12.069-6.501 18.111-5.662 15.831-4.243 32.269-3.535 48.502 0.299 6.846 2.778 13.739 5.102 20.313 2.444 6.915 5.533 13.665 8.978 20.148 6.596 12.399 16.132 22.479 26.387 31.936 8.799 8.114 18.469 14.929 29.512 19.565 8.028 3.371 16.097 6.878 24.462 9.161 9.501 2.591 19.454 2.884 29.299 2.353 7.936-0.43 15.975-0.809 23.721-2.418 7.351-1.524 14.59-4.128 21.486-7.148 8.488-3.715 16.836-7.91 24.759-12.696 11.299-6.826 21.399-15.303 30.345-25.060 4.996-5.45 9.923-10.968 14.701-16.608 1.712-2.021 2.66-1.446 4.063 0.18 9.545 11.055 19.79 21.376 31.107 30.668 10.962 8.994 22.793 16.597 35.583 22.556 7.452 3.472 15.425 5.837 23.177 8.668 9.522 3.48 19.442 4.252 29.395 3.459 7.075-0.562 14.199-1.649 21.053-3.44 8.193-2.14 16.351-4.759 24.104-8.132 7.319-3.189 14.363-7.221 21.038-11.626 6.422-4.236 12.662-8.959 18.178-14.301 7.649-7.414 13.812-16.173 18.799-25.612 4.062-7.682 8.232-15.391 11.325-23.481 4.79-12.541 7.718-25.614 6.667-39.204-0.589-7.589-1.242-15.221-2.649-22.685-1.031-5.468-3.143-10.77-5.124-16.012-2.389-6.307-4.948-12.563-7.79-18.675-5.034-10.824-11.31-20.721-20.028-29.181-18.279-17.74-36.127-35.927-54.147-53.938-17.848-17.843-35.687-35.702-53.541-53.543-12.55-12.555-25.054-25.027-37.576-37.48-2.372-2.356-2.374-3.592-0.79-5.171 31.096-30.969 59.376-59.175 87.637-87.4 20.932-20.91 42.878-42.519 64.279-64.653 4.951-5.121 8.288-11.932 11.793-18.28 3.48-6.304 6.524-12.891 9.224-19.571 2.006-4.967 3.095-10.3 4.69-15.438 2.447-7.878 3.505-15.938 3.9-24.169 0.408-8.49-0.118-16.778-1.78-25.169zM981.547 420.344c-3.957-8.779-8.264-17.542-13.616-25.505-5.313-7.909-11.503-15.475-18.454-21.964-6.925-6.468-15.116-11.657-23.064-16.932-5.016-3.331-10.416-6.269-15.987-8.515-5.685-2.289-11.725-3.889-17.75-5.102-5.977-1.203-12.117-2.041-18.199-2.158-10.523-0.202-21.186-0.692-31.548 0.711-13.491 1.825-26.321 6.526-37.874 14.088-6.725 4.401-13.825 8.353-20.020 13.411-8.236 6.727-15.819 14.263-23.552 21.592-4.204 3.983-8.148 8.242-12.185 12.402-1.604 1.654-3.069 1.726-4.759 0.043-13.711-13.67-27.503-27.265-41.145-41.005-1.795-1.809-2.715-1.712-4.406-0.008-17.368 17.511-34.769 34.989-52.263 52.369-2.387 2.37-2.698 3.812-0.083 6.364 13.5 13.174 26.753 26.6 40.218 39.81 2.121 2.083 2.028 3.344 0.022 5.333-13.663 13.555-27.197 27.238-40.886 40.768-2.071 2.051-1.689 3.226 0.168 5.068 17.578 17.419 34.131 33.909 50.641 50.443 5.41 5.414 5.282 5.427 10.214 0.245 13.025-13.673 26.105-27.291 39.171-40.924 0.147-0.153 0.409-0.199 1.174-0.548 4.621 5.254 8.848 10.827 13.857 15.583 8.375 7.95 16.916 15.797 25.998 22.902 7.556 5.907 15.661 11.325 24.147 15.769 7.454 3.905 15.627 6.669 23.744 9.029 12.975 3.772 26.366 3.203 39.681 2.165 7.483-0.582 15.074-0.859 22.37-2.429 6.619-1.426 13.191-3.837 19.262-6.864 7.767-3.875 15.555-8.108 22.33-13.461 7.279-5.752 13.696-12.704 19.932-19.634 7.517-8.356 13.499-17.883 18.165-28.121 2.613-5.733 4.742-11.702 6.858-17.648 5.423-15.241 4.244-31.138 3.439-46.754-0.533-10.248-1.271-20.925-5.599-30.521zM895.108 492.573c-8.537 8.098-18.833 12.55-30.908 13.498-3.678-0.796-7.349-1.659-11.046-2.372-7.029-1.358-12.932-4.903-17.929-9.785-9.751-9.53-19.243-19.322-28.875-28.972-1.518-1.525-1.295-2.872 0.17-4.137 3.324-2.865 6.861-5.501 10.015-8.536 7.843-7.54 15.226-15.585 23.396-22.742 3.632-3.182 8.542-5.217 13.204-6.816 3.279-1.127 7.139-1.026 10.697-0.784 5.591 0.38 11.416 0.537 16.632 2.295 4.729 1.592 8.99 4.913 13.086 7.971 8.905 6.647 12.743 16.225 13.598 26.872 0.367 4.582-0.882 9.341-1.724 13.96-1.376 7.559-4.782 14.301-10.316 19.548z" />
<glyph unicode="&#xe901;" glyph-name="add_device" d="M962.56 38.4h-901.12c-33.932 0-61.44 27.508-61.44 61.44v696.32c0 33.932 27.508 61.44 61.44 61.44h901.12c33.932 0 61.44-27.508 61.44-61.44v-696.32c0-33.932-27.508-61.44-61.44-61.44zM511.365 58.88h0.635c28.277 0 51.2 22.923 51.2 51.2s-22.923 51.2-51.2 51.2h-0.635c-28.277 0-51.2-22.923-51.2-51.2s22.923-51.2 51.2-51.2zM942.080 755.65c0 11.31-9.17 20.48-20.48 20.48h-819.2c-11.31 0-20.48-9.17-20.48-20.48v-532.93c0-11.31 9.17-20.48 20.48-20.48h819.2c11.31 0 20.48 9.17 20.48 20.48v532.93z" />
<glyph unicode="&#xe902;" glyph-name="add_shopping_point" d="M512 960q106.229 0 199.489-40.145t162.432-109.935 109.317-163.049 40.145-199.489-40.145-198.871-109.317-162.432-162.432-109.935-199.489-40.145-198.871 40.145-162.432 109.935-109.935 162.432-40.145 198.871 40.145 199.489 109.935 163.049 162.432 109.935 198.871 40.145zM812.159 215.16q6.176 17.293 9.882 38.91t6.176 46.321q-17.293 6.176-33.969 12.97t-33.969 14.205q-1.235-14.823-3.706-33.351t-6.176-41.998q-6.176-37.057-54.35-37.057h-37.057q-49.409-3.706-45.703 41.998v166.755l93.877 2.47 43.233-43.233 55.585 49.409q-48.174 43.233-95.73 85.23t-94.495 81.525l-48.174-37.057q6.176-6.176 15.44-14.205t21.616-20.381q27.175-23.469 38.292-38.292l-291.513-7.411q66.702 55.585 158.109 146.992h310.041v67.937h-260.632q-1.235 3.706-2.47 11.117l-4.941 17.293q-6.176 19.764-10.499 32.116t-5.559 19.764l-81.525-8.647q2.47-6.176 6.176-18.528t9.882-29.645q6.176-18.528 7.411-23.469h-286.572v-67.937h222.34q-58.055-64.232-118.581-112.405-27.175-27.175-64.232-43.233l35.821-67.937q9.882 2.47 29.028 4.941t51.262 4.941h29.645q0-92.642-40.762-133.404-35.821-43.233-153.168-80.289 2.47-4.941 6.176-10.499t9.882-14.205q9.882-13.587 16.676-23.469t10.499-17.293q239.633 74.113 224.811 285.337l90.171 2.47v-187.754q-2.47-86.466 88.936-82.76h80.289q87.701-3.706 102.524 61.761z" />
<glyph unicode="&#xe903;" glyph-name="anzhuo" d="M899.653 639.215c-35.533 0-64.597-28.758-64.597-63.915v-255.727c0-35.157 29.064-63.932 64.597-63.932s64.614 28.775 64.614 63.932v255.727c0 35.157-29.081 63.915-64.614 63.915zM124.347 639.215c-35.533 0-64.614-28.758-64.614-63.915v-255.727c0-35.157 29.081-63.932 64.614-63.932s64.597 28.775 64.597 63.932v255.727c0 35.157-29.064 63.915-64.597 63.915zM221.253 223.676c0-52.958 43.4-95.88 96.921-95.88h32.307v-127.864c0-35.157 29.064-63.932 64.597-63.932 35.55 0 64.614 28.775 64.614 63.932v127.864h64.614v-127.864c0-35.157 29.064-63.932 64.614-63.932 35.533 0 64.597 28.775 64.597 63.932v127.864h32.307c53.521 0 96.921 42.923 96.921 95.88v351.625h-581.496v-351.625zM631.723 869.479l40.892 77.721c2.065 3.891 0.512 8.738-3.43 10.769s-8.841 0.494-10.889-3.396l-41.506-78.899c-32.512 12.442-67.84 19.269-104.789 19.269s-72.277-6.827-104.789-19.269l-41.506 78.899c-2.048 3.891-6.946 5.427-10.889 3.396s-5.478-6.878-3.43-10.786l40.875-77.721c-91.495-40.96-157.73-127.437-169.216-230.246h577.895c-11.486 102.81-77.721 189.286-169.216 230.263z" />
<glyph unicode="&#xe904;" glyph-name="apple" d="M942.002 216.544c-22.757-51.601-33.673-74.639-62.996-120.252-40.9-63.723-98.553-143.009-169.999-143.72-63.508-0.579-79.814 42.289-165.981 41.777-86.149-0.463-104.143-42.504-167.651-41.908-71.446 0.662-126.090 72.29-167.022 135.98-114.397 178.12-126.354 387.166-55.801 498.288 50.145 78.971 129.248 125.196 203.622 125.196 75.747 0 123.361-42.471 185.959-42.471 60.746 0 97.759 42.537 185.314 42.537 66.17 0 136.277-36.864 186.256-100.571-163.714-91.772-137.104-330.885 28.297-394.856zM511.538 705.521c-10.353 57.702 16.241 117.043 48.458 157.066 35.475 44.075 96.254 77.879 148.218 81.568 8.765-60.283-15.381-119.242-47.2-161.035-34.052-44.72-92.748-79.384-149.475-77.598z" />
<glyph unicode="&#xe905;" glyph-name="backtop" d="M933.139 472.868l-420.706 422.867-420.706-422.867v64.178l420.706 422.954 420.706-422.954zM180.080-58.55v279.549h-104.441v37.453h251.265v-37.453h-104.874v-279.548h-41.95zM349.176 95.841c0 52.588 14.141 93.759 42.382 123.6 28.242 29.753 64.741 44.631 109.415 44.631 29.278 0 55.659-7.006 79.142-21.017 23.482-13.927 41.386-33.474 53.755-58.47 12.283-24.997 18.466-53.367 18.466-85.111 0-32.087-6.487-60.89-19.46-86.233-12.974-25.431-31.356-44.632-55.142-57.607-23.785-13.062-49.431-19.634-76.978-19.634-29.842 0-56.524 7.265-80.008 21.624-23.482 14.445-41.299 34.080-53.41 59.076-12.108 24.909-18.163 51.29-18.163 79.141zM392.423 95.148c0-38.143 10.249-68.243 30.834-90.214 20.5-22.056 46.274-33.040 77.284-33.040 31.57 0 57.561 11.16 77.974 33.301 20.368 22.228 30.575 53.712 30.575 94.538 0 25.774-4.368 48.35-13.105 67.552-8.692 19.288-21.45 34.165-38.23 44.802-16.823 10.554-35.68 15.829-56.566 15.829-29.71 0-55.27-10.207-76.634-30.531-21.451-20.414-32.133-54.493-32.133-102.238zM706.394-58.55v317.001h119.578c21.060 0 37.107-1.038 48.219-3.027 15.57-2.595 28.631-7.524 39.14-14.791 10.508-7.352 18.985-17.558 25.429-30.619 6.4-13.148 9.601-27.591 9.601-43.247 0-26.986-8.563-49.82-25.732-68.416-17.17-18.684-48.136-28.024-92.983-28.024h-81.304v-128.876h-41.95zM748.345 107.691h81.953c27.116 0 46.361 5.102 57.734 15.135 11.373 10.12 17.083 24.304 17.083 42.642 0 13.233-3.374 24.564-10.034 34.077-6.747 9.428-15.569 15.656-26.511 18.684-7.050 1.815-20.109 2.767-39.138 2.767h-81.087v-113.308z" />
<glyph unicode="&#xe906;" glyph-name="brokenHeart" d="M650.434 749.891s233.145 111.186 319.931-174.54c1.507-4.958 53.635-191.352-166.268-312.881-9.779-5.407-201.35-109.896-278.776-257.284 0 0-68.483 154.991-296.145 265.042-4.747 2.295-229.176 117.962-123.196 367.182 2.736 6.432 123.196 253.405 351.045 74.986l18.546-20.684-105.976-159.027 178.834-120.238-82.128-109.899 82.128-165.487-23.107 155.148 125.112 127.996-162.94 126.702 162.94 202.986z" />
<glyph unicode="&#xe907;" glyph-name="bumen" d="M26.947 811.789h26.947c14.883 0 26.947-12.065 26.947-26.947v0-26.947c0-14.883-12.065-26.947-26.947-26.947v0h-26.947c-14.883 0-26.947 12.065-26.947 26.947v0 26.947c0 14.883 12.065 26.947 26.947 26.947v0zM242.256 811.789h754.526c14.883 0 26.947-12.065 26.947-26.947v0-26.947c0-14.883-12.065-26.947-26.947-26.947v0h-754.526c-14.883 0-26.947 12.065-26.947 26.947v0 26.947c0 14.883 12.065 26.947 26.947 26.947v0zM26.947 488.421h26.947c14.883 0 26.947-12.065 26.947-26.947v0-26.947c0-14.883-12.065-26.947-26.947-26.947v0h-26.947c-14.883 0-26.947 12.065-26.947 26.947v0 26.947c0 14.883 12.065 26.947 26.947 26.947v0zM242.526 488.421h754.526c14.883 0 26.947-12.065 26.947-26.947v0-26.947c0-14.883-12.065-26.947-26.947-26.947v0h-754.526c-14.883 0-26.947 12.065-26.947 26.947v0 26.947c0 14.883 12.065 26.947 26.947 26.947v0zM26.947 165.053h26.947c14.883 0 26.947-12.065 26.947-26.947v0-26.947c0-14.883-12.065-26.947-26.947-26.947v0h-26.947c-14.883 0-26.947 12.065-26.947 26.947v0 26.947c0 14.883 12.065 26.947 26.947 26.947v0zM242.526 165.053h754.526c14.883 0 26.947-12.065 26.947-26.947v0-26.947c0-14.883-12.065-26.947-26.947-26.947v0h-754.526c-14.883 0-26.947 12.065-26.947 26.947v0 26.947c0 14.883 12.065 26.947 26.947 26.947v0z" />
<glyph unicode="&#xe908;" glyph-name="calendar" d="M976-64h-928c-26.496 0-48 21.472-48 48v832c0 26.496 21.504 48 48 48h80v-48c0-61.856 50.144-112 112-112s112 50.144 112 112v48h320v-48c0-61.856 50.144-112 112-112s112 50.144 112 112v48h80c26.496 0 48-21.504 48-48v-832c0-26.528-21.504-48-48-48zM256 640h-160v-160h160v160zM256 416h-160v-160h160v160zM256 192h-160v-160h160v160zM320 32h160v160h-160v-160zM320 256h160v160h-160v-160zM320 640v-160h160v160h-160zM704 640h-160v-160h160v160zM704 416h-160v-160h160v160zM704 192h-160v-160h160v160zM928 640h-160v-160h160v160zM928 416h-160v-160h160v160zM928 192h-160v-160h160v160zM784 768c-26.496 0-48 21.504-48 48v96c0 26.496 21.504 48 48 48s48-21.504 48-48v-96c0-26.496-21.504-48-48-48zM240 768c-26.496 0-48 21.504-48 48v96c0 26.496 21.504 48 48 48s48-21.504 48-48v-96c0-26.496-21.504-48-48-48z" />
<glyph unicode="&#xe909;" glyph-name="camera" d="M947.199 63.999h-870.399c-42.415 0-76.8 34.384-76.8 76.8v512c0 42.415 34.384 76.8 76.8 76.8h179.2l54.955 87.936c8.452 8.114 19.639 13.436 32.047 14.452l340.199 0.013c11.121-1.493 20.964-6.083 28.875-12.862l55.925-89.537h179.2c42.415 0 76.8-34.384 76.8-76.8v-512c0-42.415-34.384-76.8-76.8-76.8zM510.677 597.994c-117.82 0-213.333-95.512-213.333-213.333s95.512-213.333 213.333-213.333c117.82 0 213.333 95.512 213.333 213.333s-95.512 213.333-213.333 213.333zM512 213.333c-94.256 0-170.667 76.41-170.667 170.667s76.41 170.667 170.667 170.667c94.256 0 170.667-76.41 170.667-170.667s-76.41-170.667-170.667-170.667z" />
<glyph unicode="&#xe90a;" glyph-name="checkBill" d="M319.999 960c-35.415 0-63.998-28.589-63.998-63.998v-63.999h490.664c35.415 0 63.999-28.59 63.999-64.005v-661.334h64.004c35.41 0 63.999 28.589 63.999 64.004v725.333c0 35.409-28.589 63.998-63.999 63.998l-554.669 0.001zM149.33 789.331c-35.409 0-63.998-28.584-63.998-63.998v-725.334c0-35.415 28.589-63.999 63.998-63.999h554.67c35.415 0 63.998 28.584 63.998 63.999v725.333c0 35.415-28.583 63.998-63.998 63.998l-554.67 0.001zM170.665 554.667h512.002v-42.665h-512.002v42.665zM170.665 383.996h512.002v-42.665h-512.002v42.665zM170.665 213.333h341.332v-42.671h-341.332v42.671z" />
<glyph unicode="&#xe90b;" glyph-name="chexiao" d="M511.999-64c-226.091 0-417.237 146.859-484.992 350.208-6.357 9.941-11.008 21.077-11.008 33.749 0 35.371 28.672 64.043 64 64.043s64-28.672 64-64.043h1.323c41.557-149.035 156.885-255.957 324.011-255.957 212.096 0 426.667 171.904 426.667 384s-171.947 384-384 384c-132.907 0-249.259-68.053-318.080-170.667h147.413c23.552 0 42.667-19.115 42.667-42.709v-42.667c0-23.552-19.115-42.624-42.667-42.624h-333.653c0.853 5.035 2.219 9.899 3.2 14.891-3.243 3.712-5.973 7.808-7.808 12.501-1.92 4.693-3.072 9.813-3.072 15.232v298.667c0 23.595 19.115 42.709 42.667 42.709h42.667c23.552 0 42.667-19.115 42.667-42.709v-89.131c93.653 106.795 230.699 174.507 384 174.507 282.752 0 512-229.248 512-512 0-282.795-229.248-512-512-512z" />
<glyph unicode="&#xe90c;" glyph-name="chk" d="M512 917.265c258.867 0 469.265-210.534 469.265-469.265 0-258.799-210.398-469.333-469.265-469.333-258.799 0-469.265 210.534-469.265 469.333s210.398 469.265 469.265 469.265zM512 960c-282.761 0-512-229.239-512-512 0-282.692 229.239-512 512-512 282.692 0 512 229.308 512 512 0 282.761-229.308 512-512 512z" />
<glyph unicode="&#xe90d;" glyph-name="clear_leave" d="M228.217 501.895c-22.324 0-40.421-18.097-40.421-40.421v-26.947c0-22.324 18.097-40.421 40.421-40.421h565.032c22.324 0 40.421 18.097 40.421 40.421v26.947c0 22.324-18.097 40.421-40.421 40.421h-565.032zM512 960c282.77 0 512-229.23 512-512s-229.23-512-512-512c-282.77 0-512 229.23-512 512s229.23 512 512 512z" />
<glyph unicode="&#xe90e;" glyph-name="clock" d="M512-64c-282.77 0-512 229.23-512 512s229.23 512 512 512 512-229.23 512-512-229.23-512-512-512zM512 857.6c-226.216 0-409.6-183.384-409.6-409.6s183.384-409.6 409.6-409.6c226.216 0 409.6 183.384 409.6 409.6s-183.384 409.6-409.6 409.6zM768 345.6h-273.067c-28.277 0-51.2 22.923-51.2 51.2v307.2c0 28.277 22.923 51.2 51.2 51.2s51.2-22.923 51.2-51.2v-256h221.867c28.277 0 51.2-22.923 51.2-51.2s-22.923-51.2-51.2-51.2z" />
<glyph unicode="&#xe90f;" glyph-name="contactus" d="M744.28-58.151c-65.311 0-149.622 43.507-208.862 80.013-79.323 48.882-164.78 116.511-240.631 190.413l-0.277 0.27-24.081 24.093c-73.907 75.846-141.53 161.31-190.413 240.633-36.5 59.231-80.016 143.549-80.016 208.858 0 69.89 49.979 144.068 71.463 172.716 16.764 22.359 75.346 95.306 125.116 95.306 20.438 0 42.444-13.375 71.372-43.376 25.582-26.523 50.133-59.498 66.223-82.488 21.605-30.865 41.589-63.181 56.274-91.001 23.773-45.040 26.523-64.358 26.523-74.969 0-21.412-11.185-39.987-33.24-55.203-14.525-10.017-31.956-17.556-48.811-24.848-11.371-4.92-29.526-12.767-36.453-18.29 2.418-10.234 12.98-34.947 41.517-76.847 26.592-39.040 60.979-81.351 92.047-113.252 31.897-31.062 74.2-65.456 113.256-92.047 41.884-28.527 66.593-39.094 76.838-41.514 5.512 6.923 13.37 25.077 18.284 36.444 7.292 16.862 14.834 34.297 24.854 48.82 15.216 22.055 33.789 33.233 55.201 33.233 10.616 0 29.928-2.752 74.973-26.519 27.82-14.684 60.14-34.667 91.001-56.275 22.985-16.093 55.959-40.643 82.488-66.221 29.995-28.93 43.369-50.935 43.369-71.378 0-49.767-72.94-108.347-95.294-125.112-28.65-21.484-102.831-71.459-172.722-71.459zM336.637 254.949c72.768-70.881 154.489-135.583 230.147-182.202 73.346-45.205 138.043-71.131 177.495-71.131 35.144 0 85.245 21.466 134.032 57.408 21.382 15.766 40.845 33.316 54.806 49.425 13.095 15.122 17.884 24.986 19.099 28.967-5.063 10.874-35.127 44.87-105.287 93.271-27.524 18.984-55.98 36.435-80.124 49.129-30.319 15.937-42.956 18.69-45.847 19.143-1.126-0.772-4.426-3.534-9.446-11.946-5.62-9.422-11.019-21.909-16.241-33.983-6.426-14.867-13.078-30.236-21.235-42.642-13.264-20.173-29.552-30.409-48.405-30.419-0.336 0-0.694 0.006-1.062 0.018-9.172 0.193-37.107 0.785-112.94 52.429-41.864 28.524-87.331 65.498-121.602 98.931l-0.537 0.527c-33.422 34.287-70.397 79.742-98.915 121.602-51.652 75.833-52.252 103.768-52.445 112.948-0.41 19.197 9.721 35.765 30.1 49.26 12.463 8.248 27.963 14.953 42.951 21.442 12.073 5.219 24.556 10.62 33.977 16.233 8.414 5.015 11.185 8.321 11.946 9.446-0.454 2.891-3.203 15.528-19.143 45.848-12.694 24.14-30.144 52.601-49.124 80.12-48.405 70.17-82.401 100.227-93.271 105.293-3.983-1.221-13.849-6.010-28.967-19.105-16.112-13.95-33.664-33.422-49.419-54.806-35.948-48.777-57.408-98.881-57.408-134.027 0-39.449 25.921-104.143 71.122-177.493 46.629-75.66 111.325-157.381 182.201-230.147l23.542-23.536zM692.361 469.427c-10.431 0-19.67 7.478-21.543 18.107-5.363 30.399-22.967 56.813-49.568 74.374-26.983 17.806-59.961 24.421-92.872 18.618-11.919-2.106-23.275 5.857-25.375 17.769s5.854 23.275 17.769 25.378c43.988 7.758 88.242-1.193 124.609-25.203 36.753-24.256 61.111-60.949 68.584-103.328 2.1-11.914-5.857-23.275-17.769-25.375-1.291-0.226-2.57-0.338-3.833-0.338zM824.229 525.996c-10.427 0-19.67 7.475-21.543 18.101-10.403 58.996-44.491 110.207-95.984 144.197-51.877 34.239-115.207 46.967-178.326 35.836-11.919-2.1-23.271 5.857-25.375 17.769-2.1 11.914 5.854 23.275 17.769 25.375 74.196 13.082 148.797-1.979 210.063-42.42 61.646-40.686 102.486-102.179 114.997-173.149 2.101-11.912-5.854-23.275-17.769-25.375-1.151-0.209-2.477-0.33-3.83-0.332zM1000.295 542.326c-10.431 0-19.674 7.478-21.547 18.107-17.749 100.676-75.873 188.036-163.655 245.974-88.164 58.191-195.734 79.83-302.89 60.937-11.914-2.1-23.271 5.854-25.37 17.769-2.1 11.912 5.854 23.275 17.769 25.375 118.233 20.847 237.073-3.128 334.629-67.516 97.931-64.639 162.806-162.279 182.669-274.934 2.1-11.914-5.86-23.275-17.773-25.375-1.152-0.213-2.477-0.335-3.831-0.336z" />
<glyph unicode="&#xe910;" glyph-name="CPCC" d="M672.514-36.602v29.952h14.899l1.382 1.28 0.614 120.575v1.895l-0.666 1.945-3.379 0.666h-12.851v54.067l3.328-1.945 6.758-4.556 8.807-7.168 9.472-7.834 9.472-8.448 8.807-7.834 4.045-3.892 2.713-3.277 2.048-2.611 1.331-1.945 0.666-3.277v-2.611l0.666-127.027v-7.834l-1.331-1.945-38.605-33.229h-1.28l-16.948 15.001zM672.514 378.936l0.666 0.666 3.379 5.888 4.045 5.837 2.048 3.892 2.713 4.556 2.713 3.892 2.048 4.556 8.089 13.004 1.382 3.277 1.331 2.611h0.666v-5.12l1.331-5.12 2.048-0.666 2.713-0.666h7.424l2.713 0.666 2.048 1.28 4.096 3.892 0.666 2.611v3.892l-0.666 2.611-0.666 1.28v3.892l1.331 1.945 3.379 1.28 6.092 0.666 6.092 1.28h4.762l1.229-1.28 1.331-0.666 0.768-0.666 0.666-0.666-0.666-1.945-1.331-2.611-6.758-7.782-1.331-1.331v-3.994l0.666-1.945 0.666-0.666 1.382-0.563h0.82l1.177-0.563h5.478l4.71 1.945 4.762 1.945 4.045 1.28 4.762 1.28h2.048l2.048 1.28 2.663 1.331 0.666 1.945v1.28l-6.758 3.277-5.428 3.174 2.663 6.553 2.048 2.611 2.048 3.277 2.713 1.945 2.713 4.556 1.382 1.331v4.556l-1.382 2.611v0.666l-1.331 1.28h-5.428l-2.918-2.099-6.758-2.611-6.758-4.556-4.045-0.666-4.045-1.945h-3.379l-3.379-0.666h-4.045l-3.379 0.666-1.331 1.28h-3.379l-2.048-1.28h-1.331l-1.331-0.666-1.382 0.666h-1.331l-1.382 1.28-0.666 1.331-0.666 1.945-0.666 1.28v2.15l0.666 1.945 4.096 9.114 1.331 6.553 1.331 2.611 2.048 1.945v3.892h-1.331l-1.229 0.614h-0.666l-2.713-1.945-3.379-1.28-2.713-2.611-2.048-1.945-1.382-2.611v-2.202l-2.048-5.837-1.382-5.837-1.331-4.556-2.048-6.503-2.048-4.556-2.048-5.837-6.758-15.667-2.713-6.503-3.379-7.834-6.092-10.24-5.428-7.168v-14.951zM759.451 516.408l-2.048-0.666-2.713-0.666h-2.048l-0.87-0.512h-4.762l-4.096-1.434h-4.045l-3.379-0.666h-7.424l-3.379-0.666-3.379-1.28-2.713-1.28-2.048-1.28-3.379-0.666-2.713-1.28-2.048-1.331v-1.331l0.666-1.331 1.331-1.945 2.048-1.28 4.762-3.226 2.713-1.945h8.089l7.424 0.666 8.141 1.331 4.762 0.666 6.758 2.56 2.713 1.28 2.713 1.945 1.382 2.611 2.048 1.945 1.331 1.945 0.666 1.28v3.277l-0.666 0.666v1.28h-1.331l-2.048 1.331h-2.713zM843.418 511.185v-0.716h-1.382l-2.713-0.666-6.144-3.84-2.048-2.611-1.331-1.945-5.428-9.114-3.379-4.556-2.713-3.892-3.379-4.556-3.379-3.277-3.379-3.892-3.379-3.277-5.428-3.277-6.092-2.611-2.713-1.945-2.048-1.945 0.512-1.895 1.331-0.666 1.331-1.28h1.382l3.379-0.666h6.092l2.048 0.666h2.048l1.382 1.28 2.713 3.277 3.379 3.277 2.663 2.56h0.666l0.666 1.28h2.048l1.331-1.945v-6.707l0.666-6.4-0.666-6.503-1.331-3.892-3.379-3.892-1.331-2.611-1.331-3.277-3.379-1.28-2.048-1.945v-2.406l0.666-0.666 1.331-0.666h8.346l5.428 1.331 2.048 1.28 2.048 1.945 2.048 1.28 0.666 1.28 1.331 1.28 0.666 1.945 0.666 1.331 0.666 5.12v3.892l-0.922 4.199-0.666 5.12-0.666 6.503v6.503l-1.331 2.611-2.048 3.277-1.382 1.484-1.331 1.28-0.666 1.945-0.666 1.28 1.331 3.892 3.379 4.556 2.713 5.12 2.048 2.611 4.045 1.945 4.045 3.277 2.048 1.28 2.048 1.945 1.331 1.945v3.277h-0.666l-0.666 0.512-1.331 0.666-2.048 0.666zM907.469 508.010h4.66l3.379-1.331 1.331-0.666 1.382-0.666v-0.82l-1.382-1.945-2.048-1.945-1.331-1.28-1.331-1.945-3.379-2.611-4.045-2.611-5.428-5.837-6.092-5.12-3.379-1.945-4.045-2.611-4.813-1.945-2.713-3.892-2.048-3.277-0.666-4.556v-3.277l-0.666-4.556v-6.503l0.666-1.945 0.768-2.611 1.331-1.945 1.331-1.331 2.048-1.28 2.048-0.666 2.713-2.611 2.765-1.331 3.379-1.28 3.379-0.512 3.379-1.28h19.661l2.713 1.28h3.328l2.048 0.666 2.713 1.28 6.758 3.892 7.475 4.556 4.045 3.277 3.379 1.945 2.048 3.277 2.048 2.611 0.666 1.945v5.837l-0.666 4.556-0.666 3.277v5.12l1.331 10.24v8.448l-0.768 4.096v3.174l0.666 3.277 0.666 1.945 1.331 1.331h4.454l0.666-1.945 0.359-1.945 0.666-2.611v-15.565l1.331-9.114 1.382-3.277 2.048-3.277 1.331-1.331v-1.997l0.666-1.28v-1.28l-0.666-1.945v-2.048l-1.331-1.945-2.048-1.945-2.713-2.611-2.713-3.226-4.045-3.892-3.379-4.556-4.045-3.277-4.762-3.277-4.71-3.892-4.762-1.945-4.762-2.611-5.428-2.611-3.379-1.28-3.328-0.87-4.045-1.28-4.045-0.666h-13.568l-4.045 0.666h-9.472l-5.428 0.666h-3.379l-3.379 0.666-2.663 1.484-3.379 1.331-2.713 1.945-1.331 2.611-0.666 1.945-0.666 3.431 0.666 2.611v21.965l-0.82 2.816-0.666 0.666-1.331 1.28h-8.141l-1.331 2.56h0.666l1.382 1.28 0.666 1.945h0.563l3.379 1.28 3.379 1.945 2.048 1.28 2.663 2.56 0.666 1.945 1.331 2.611 0.666 2.611v1.945l-0.666 3.072v1.945l0.666 2.611 0.922 0.87 2.663 2.56 2.048 1.28 2.713 1.28 3.379 0.666h1.331l0.666-0.666 0.666-1.28 1.382-1.28v-2.099l2.663-1.331h2.048l2.713 0.973 4.096 2.56 2.048 1.945 3.379 3.892 4.045 2.611 2.048 1.28 3.379 0.666zM813.466 172.499l-56.319-50.175v-137.062l55.501-48.179 58.931 50.79h-73.113v43.622h73.113v40.959h-73.113v46.080l73.113 1.28v1.28h-0.666l-57.548 51.456zM938.65 155.756l-11.52-11.059-12.186-10.24-11.52-10.24-2.048-2.611-2.048-1.945-0.666-130.918v-7.168l0.666-1.945 5.428-5.837 6.092-4.556 6.092-5.888 6.092-5.837 4.762-3.277 3.379-3.892 4.045-3.277 4.045-3.892 4.096-3.892 2.713-2.611 2.048-0.666h0.666l1.434 0.666 2.713 1.945 2.713 2.611 3.379 3.277 10.804 10.393 7.475 7.168 7.424 6.503 6.758 6.503 7.424 6.503 2.048 1.945 2.048 2.611 2.713 1.331 1.331 2.611v42.342h-33.177v-43.571l-20.992-0.666-3.379-0.666h-8.807l-2.713 0.666v127.027h35.84v-44.544h32.511l0.666 10.24v11.059l-0.666 10.24v13.67l-0.666 2.611-52.838 49.511h-3.379zM672.514 393.732l-2.048-2.611-6.758-10.24-7.475-9.779-6.758-9.114-1.331-1.945v-12.134l3.379 2.611 1.331 2.611 2.048 2.611 4.71 5.12 4.045 5.12 2.713 3.277 2.048 3.277 2.048 3.892 2.048 2.611v15.001zM672.514 173.778l-0.666 0.666-10.854-9.779-11.52-9.114-1.331-1.945v-216.78h2.713l1.331 35.84 0.666 3.892v3.892h0.666l18.944-16.948v29.952l-16.23 0.666v125.696h16.282v54.067zM648.091 406.788l3.379 5.12 1.331 6.503 1.382 4.556 2.048 5.12 1.382 5.12 1.331 4.556 0.666 3.072 1.382 2.611 0.666 1.945 0.666 2.611-1.331 1.127v2.611l-1.382 2.611-0.666 3.892v4.762l-1.331 9.114v4.556l-0.666 3.892-0.666 4.556v7.834l-0.666 5.837-1.331 7.168v3.892l-1.382 3.277-1.331 2.611-1.331 1.945-1.434 0.716-0.666 0.666v-112.64zM648.143 519.019h-2.713l-2.048 0.666h-12.186l-3.379 0.614-4.762 0.666h-1.331v-12.544h6.81l2.713-0.666h2.048l2.713-1.945 1.331-1.945 0.666-3.892 0.666-2.611 0.666-3.277 0.666-1.792 0.716-3.328v-10.496l1.331-10.24 1.331-5.222v-15.001l0.563-3.892 1.331-4.556v-7.834l-0.666-2.611-0.666-3.277-1.331-3.892-0.666-1.28-1.331-1.28-2.048-1.331h-2.048l-2.713-0.666h-1.331l-1.382-0.666h-1.331v-3.226l1.434-1.945 1.382-1.945 1.331-3.277 2.048-3.277v-0.512l1.331-0.666h4.71l1.331 0.666 2.048 0.666 1.382 1.945 1.382 1.28v112.64zM648.143 360.351v-12.39l-2.048-2.356-4.045-4.556-4.045-3.892h-3.431l-0.666 1.331v1.997l0.666 0.666 4.045 5.837 8.089 10.24 1.382 2.611zM648.143 153.861v-216.882h-26.419v193.587l1.331 1.28 4.762 3.892 10.854 9.779 9.472 7.834zM621.724 410.014v15.001l2.048-0.666 1.331-1.945 1.382-1.741 0.666-2.611v-1.741l-0.666-2.611-1.382-1.945-3.379-1.28zM621.621 430.494v15.616l0.666-0.666 2.663-3.892 1.382-3.277 1.331-3.277 4.096-6.553v-1.28l-0.666-1.945h-0.666l-0.666-0.666h-1.69l-2.048 0.666-1.382 1.945-1.588 1.536-1.331 1.28v0.666zM621.724 454.507v13.056l0.666 0.666 1.331 1.945 2.048 1.28 1.331 1.331h0.614l1.382-0.666 0.666-0.666h0.973v-1.484l-0.666-2.611-1.331-1.945-1.382-2.611-2.713-4.556-2.918-3.072v-0.409zM621.724 489.937l1.331-1.28 2.048-0.666 1.382 0.666 1.331 0.666v4.762l-0.666 1.331-0.666 1.945-1.382 1.28-0.461 1.484h-1.588l-1.331 0.666v-11.059zM621.724 521.015h-2.048l-4.045-1.28-3.379-1.28-8.089-3.892-2.099-0.768v-9.164h1.484l5.428 2.611 5.428 0.666 6.605 0.922h0.716v12.39zM621.57 500.74h-2.713l-2.048 0.666-0.666-1.28-0.666-1.945v-3.277l4.045-3.892 2.202-1.024v11.059zM621.724 467.819l-0.666-0.666-0.666-1.945-1.331-0.666h-1.434l-1.331 1.331-0.666 1.28v3.635l-0.666 3.892 0.666 3.277v1.945l0.666 1.945v0.666l-2.713 2.611-3.379 1.945-5.428 9.114-2.048 1.28h-0.666v-23.859h0.666l0.666-0.666 0.768-0.82-0.666-0.666-0.666-1.28-0.666 0.666v-13.004l2.048 1.945 1.382 1.331 2.048 1.28h1.638l0.666-1.28h0.666l-1.331-2.867-2.048-3.277 2.048-1.331 2.713-1.945v-3.686l-1.382-1.28-1.331-3.277-2.713-4.556-2.048-3.892-2.713-3.277v-20.838h2.713l5.428-1.945 5.428-1.28 2.713 0.666 3.379 1.945v14.951l-2.713 0.666h-2.458l-1.895-0.666-2.048-0.666-2.048-1.28h-2.048l-0.666 1.28h-0.768l-0.666 0.666v0.614l4.71 7.168 4.045 6.503h0.666l1.382-1.741 1.331-1.28 2.048-3.277 1.382-2.611v15.462l-1.331 2.56 0.666 3.277 0.666 2.611v13.056zM621.724 131.077l-4.045-3.277-2.713-1.945-2.048-2.611 0.666-186.264h8.141v194.098zM603.445 442.116l1.331 1.28v3.277l-2.048 0.666h-0.666v-5.581zM602.063 514.052v-9.114l-6.092-3.277-4.045-0.666-3.379-0.666h-2.713l-2.15 1.075-0.666 1.28v1.331l0.666 0.666 0.666 1.331 2.713 1.945 2.713 1.28 5.428 1.331 4.762 1.945 2.048 1.331zM602.063 497.361h-0.666l-1.382-1.945-0.666-1.331 0.666-3.020 1.382-2.611 0.666-1.945-0.666-1.331-0.666-0.666-2.048-0.666-3.379-0.666h-4.045l-4.096-1.331-2.048-1.28-2.048-1.331-2.048-1.28-0.666-1.945-0.666-1.28v-2.56l1.382-0.666h1.331l2.048-0.666 2.713-0.666 1.382-1.331v-1.945l-2.048-2.611-1.331-3.277v-0.82l0.666-1.28 0.666-0.666 0.716-1.792 2.048-1.28v-0.666l0.666-0.666v-1.895l-1.331-3.277-2.713-1.945-2.713-2.611-2.048-2.611-2.713-1.945-2.048-3.277-1.331-0.666v-4.454l3.379-0.666 4.045 0.666 5.428 1.945 8.807 4.556 3.379 1.945 2.048 1.945v5.837l-1.382-0.666-2.713-1.331h-4.045l1.331 2.611 2.713 4.762 3.379 4.556 0.666 0.666v13.004h-0.666l-0.666 0.666 0.666 1.28 0.666 0.666v24.167zM601.96 431.723v-20.838h-3.379l-5.428 0.666h-8.141l-0.666 1.28-0.666 0.666-0.563 2.15v1.331l0.666 1.28 3.379 3.277 4.762 1.945 3.379 2.611 3.379 3.277 3.379 2.611zM556.648-31.687l10.24 10.24 12.186 11.725 3.379 3.277 3.379 3.892v126.821l-29.132 24.729v-180.786zM556.751 421.944v-0.614l1.331-3.277 0.666-0.716h1.331l2.713 0.666 2.048 1.945 2.048 2.611 1.331 1.945 0.666 3.277 1.331 3.892 0.666 3.892 0.666 3.277v37.119l-0.666 3.892-0.666 1.945-2.048 0.666-1.331-1.28-1.382-1.945-1.331-1.28-0.666-1.945v-4.556l-0.666-4.556v-4.506l-0.666-5.12v-5.12l-0.666-4.556-0.666-3.277-4.096-6.553v-15.565zM556.7 493.572v1.331l0.666 2.611-0.666 2.611v-6.246zM556.751 500.126l-0.666 1.28-1.382 1.945-2.048 0.666-4.045 0.666-4.762 0.666-3.379 0.666-8.089-1.331-2.713-0.666h-1.331l-1.382-0.666h-8.141l-1.382 0.666v-17.51l2.048-0.666 0.666-0.666h0.768l1.331-1.331-1.382-1.997-2.048-2.611-1.382-1.28v-26.214l2.048 0.666 5.428 1.28 5.428 0.666h2.048l1.331 0.666 0.666 1.28 0.666 0.666v1.28l-0.563 1.484-0.666 1.331-1.331 1.945-1.484 2.867-1.331 1.945v4.556l2.713 3.277 3.379 3.277 8.089 3.892 2.713 1.28 3.379 0.666 1.331 1.945 2.048 1.945 1.331 1.945 1.382 2.611 0.666 0.666v6.503zM556.7 436.279l-0.666-2.611v-8.192l0.666-3.277v14.336zM556.802 149.048l-29.132 24.729-10.24-9.114v-45.619h26.367v-122.47h-26.419v-53.811l5.428-5.12 3.379 1.945 6.092 5.12 8.141 7.168 8.807 8.448 7.475 7.834v181.094zM517.43 542.673v0zM439.555 917.659l2.048-0.666 1.331-0.666v-978.991l-0.666-0.666h-36.557l-40.652 375.858-1.536-374.577-0.666-1.28h-1.177l-35.891-0.666-2.713 1.331-0.512 934.038v2.611l0.512 3.277 1.331 1.28 3.277 2.611 5.53 2.048 5.428 2.611 11.52 5.12 6.758 2.509 2.048 0.666 2.713 0.666 1.331-3.174v-3.892l39.27-367.358h0.716l0.666 384.254v1.997l0.82 1.945 2.56 1.28 2.048 0.666h1.382l5.428 1.945 5.428 0.666 1.28 0.82h2.713l1.382 0.666h0.666l4.045 1.28 4.045 0.666 4.045 1.28zM517.43 547.024v-4.556h-0.666v-9.779l-0.666-6.503-0.666-8.448v-8.294l0.666-1.28 0.666-1.945v-1.331h0.666v-18.227h-2.048l-1.331-1.331-1.382-1.945-0.666-1.536v-2.611l0.666-0.512v-0.666l0.666-1.331h0.716l2.048 0.666 1.382 0.666v-26.060h-0.716l-2.713-1.28h-0.666l-1.382-1.434v-49.511l-0.666-3.892v-13.67l0.666-5.222v-6.503l-0.666-3.892-0.666-2.611-0.666-1.331-0.666-1.28h-4.096l-1.382 1.28-0.666 0.666-0.666 2.765-0.768 2.458v6.503l0.666 5.12-0.666 11.161v47.564l0.666 2.611v1.945l-0.666 0.666v1.28h-5.99l-1.331 1.331-2.048 0.666h-0.87l-0.666 1.28v3.892l0.666 1.28 1.382 1.331 0.666 1.28 2.048 1.945 2.713 1.28 2.713 3.277 2.713 2.611 0.666 1.945 0.666 2.611v9.164l-0.666 1.331h-2.663l-2.713-0.666-3.379-0.666-4.762-3.277-3.379-2.611-2.713-1.945-2.713-2.611-2.048-1.945-1.331-2.611-2.048-3.892-1.382-3.277-1.382-2.611-0.666-3.892-0.666-1.331-0.666-0.666-1.229-0.614h-4.045l-1.331 0.666-0.666 0.666-1.331 1.945-2.048 1.331-2.048 4.556-0.666 2.611 1.331 4.556 1.331 3.277 2.048 5.837 1.331 7.168 1.331 3.226 2.048 2.611 2.048 3.277 2.713 1.28 2.048 1.945h3.379l0.666-0.666 1.331-2.611 0.666-4.556v-1.28h0.461v-0.666h2.048l1.331 1.945 2.048 1.331 2.713 1.945 2.048 1.28 3.379 1.28 2.713 2.611 2.713 1.331 2.048 1.945 2.713 1.945 1.331 1.945 0.666 4.556v26.060l-0.666 3.277 0.666 3.892v3.942l0.666 3.277 0.666 1.28 1.331 1.331 1.382 1.28 0.922 1.28 2.048-0.512 2.048-0.666 0.666-1.28v-1.331h0.666zM517.43 164.665v-45.619l-8.807 0.666 0.666-122.879h8.141v-54.067l-48.077 46.080v134.144l48.077 41.677zM294.608 864.258l1.382-1.536 0.666-1.741v-15.616l-1.331-908.028-2.048-0.666h-3.379l-5.428-0.666h-17.612l-6.758 0.666h-4.096l-0.666 55.347v443.595l0.666 54.733v110.745l0.716 55.347v184.319l1.331 1.484 4.096 2.56 1.331 0.666 6.092 3.277 4.762 3.738 6.092 3.277 4.762 3.277 5.428 2.611 3.994 2.611zM224.873 425.834l2.048-0.666h2.048v-0.666l-4.762-2.099-4.045-2.406-10.854-6.553-5.428-3.892-4.762-3.277-4.045-3.277-3.379-2.611-14.233-11.725-6.092-5.837-6.092-6.503-6.553-5.837-5.428-7.168-5.428-5.12-5.428-6.503-6.758-7.834-6.092-7.834-6.758-7.834-6.092-7.834-4.762-7.834-5.428-8.448-5.428-7.168-4.045-8.448-4.915-8.5-3.379-8.448-8.089-16.896-0.666-3.892-1.331-3.892-0.666-3.892-1.229-4.045-0.666-4.556-0.666-3.892-0.666-4.556v-4.556l-0.666-4.556-0.666-3.892v-4.556l-0.666-3.892v-8.448l0.359-9.114 0.666-8.448 1.382-7.936 2.713-9.779 2.048-3.892 2.713-3.892 2.048-3.277 3.328-3.738 3.379-1.945 3.379-2.611 4.045-1.28 3.533-2.15 8.141-1.945 8.807-2.611 3.379-1.945 4.762-1.331 0.512-0.614 1.331-0.666 4.813-1.945 10.854-5.888 10.854-7.168 4.71-3.738 4.762-3.892 4.762-4.556 3.994-4.096 4.762-4.556 8.089-9.114 10.138-15.36 2.611-6.144 2.713-5.837 1.331-4.556 1.331-3.892 1.536-4.556 0.666-5.12 1.382-9.216v-19.559l-2.048-9.779-1.331-5.12-1.331-3.892-1.331-4.556-1.434-4.199-4.762-8.448-5.428-7.834-6.092-7.168-6.758-7.168-5.428-6.503-6.758-5.12-2.048-1.945-2.048-1.28h-21.606l-8.807-0.614h-8.807l-8.807 0.666-14.233-0.666h-56.319l-14.899 0.666h-28.364v0.666l6.144 3.788 4.762 5.12 10.854 9.114 32.563 29.337 11.52 9.779 5.428 5.12h5.53l2.713-0.666 2.048-0.666 4.045-0.666h14.644l2.713 0.666 3.379 1.28 3.379 1.331 5.428 3.277 6.092 3.892 4.045 3.892 4.045 4.556 2.048 3.277 2.048 4.556 1.331 5.12 1.331 5.837 0.666 5.12v10.24l-1.331 5.12-1.28 4.045-2.048 4.556-1.331 3.226-2.765 3.892-2.048 3.892-3.379 3.277-5.428 5.12-10.854 9.114-6.092 3.892-4.045 2.611-3.994 2.099-4.096 3.481-4.045 1.945-6.092 3.686-6.758 3.226-6.092 3.942-6.092 3.277-20.992 15.616-4.045 5.12-2.765 4.66-2.713 5.837-2.048 5.12-1.331 5.12-0.666 5.12-2.663 13.004v26.367l1.331 7.168 0.666 6.503 1.331 7.168 2.713 6.503 4.762 14.336 12.186 28.671 7.424 13.004 3.379 6.503 6.758 11.674 4.045 5.12 4.762 7.168 6.092 7.168 6.092 6.503 6.092 7.168 3.379 3.277 3.379 3.892 3.379 3.277 2.867 3.379 10.854 9.779 10.24 9.779 10.854 8.448 11.52 8.448 5.428 3.277 6.092 3.277 7.424 5.12 16.282 7.782 7.424 3.892 7.424 2.611 6.758 1.945 4.045 1.28 5.428 1.945 4.762 1.28 4.762 0.666h1.127zM488.962 959.336l12.8 0.666h37.939l23.040-1.331 11.52-1.28 10.854-1.28 11.52-1.945 32.563-5.837 16.23-3.892 16.282-3.277 30.72-9.114 16.948-6.503 16.64-6.503 16.896-7.885 15.36-7.834 15.36-8.448 15.36-9.114 14.899-9.779 15.308-10.445 14.233-11.059 14.438-11.111 13.568-11.725 12.851-12.39 13.568-12.34 25.037-26.726 11.52-13.67 7.424-9.779 6.758-9.114 6.092-10.24 6.092-9.779 4.762-9.268 6.092-9.216 4.762-9.114 5.428-9.114 5.428-9.779 4.762-9.779 4.045-9.114 4.045-10.24 4.71-12.493 4.762-13.004 3.379-13.004 4.045-13.056 3.379-12.39 3.379-13.004 2.713-13.004 4.096-27.341 1.331-14.336 0.666-14.336v-13.67l0.666-5.837v-5.12l0.768-5.376v-5.837l-1.331-13.67v-14.336l-0.666-14.336-1.331-14.336-3.379-17.612-3.379-18.227-4.045-17.562-4.762-16.948-5.428-16.282-6.092-16.282-6.86-16.18-6.092-16.948-3.379-6.503-3.379-7.168-4.045-7.168-3.379-5.837-8.141-14.336-8.141-13.056-5.428-6.553-2.048-3.892-2.713-3.277-5.428-7.834-6.092-8.448-6.092-7.834-6.758-7.834-4.045-5.888-4.762-4.556-4.045-5.837-4.71-4.556-6.758-7.168-6.758-5.837-2.048-0.666h-1.434l-3.379 1.945-2.048 2.611-4.71 3.277-4.045 3.892-4.762 3.892-4.762 3.277-1.997 1.997v0.563h0.666l2.713 3.892 6.758 6.553 2.713 3.277 17.612 19.559 8.141 9.779 7.475 10.24 7.424 9.779 6.092 9.114 6.656 9.882 6.092 9.779 7.475 12.39 6.092 13.004 5.939 13.004 5.428 12.39 6.092 15.001 6.092 14.336 2.713 7.834 2.713 7.168 2.713 7.834 1.331 7.834 4.045 17.612 3.379 18.227 4.096 37.785 1.331 18.893v19.456l-0.666 19.559-1.331 19.559-0.666 12.39-2.048 12.39-1.792 12.34-3.379 11.725-4.096 16.896-2.048 9.114-1.997 8.346-2.713 6.656-1.382 7.168-2.458 6.656-2.048 7.168-2.048 4.556-4.096 10.24-2.048 4.556-6.758 15.001-6.758 14.336-8.141 14.336-7.424 13.67-4.762 7.834-6.092 8.448-6.144 7.834-5.428 7.168-9.575 12.34-9.472 11.725-21.095 22.784-10.854 10.24-11.52 10.24-12.186 10.24-11.52 9.114-12.186 9.779-12.749 9.062-12.851 8.448-12.902 8.448-12.851 7.834-14.233 7.168-12.851 6.503-13.568 6.503-7.424 3.277-6.656 2.509-7.475 2.611-7.526 2.509-11.52 4.096-10.854 3.277-12.186 3.277-11.52 2.611-10.24 2.611-11.418 2.56-11.52 2.048-23.040 3.892-11.468 1.229-11.52 1.28h-45.363l-5.428-0.666-6.092-0.614-6.092-0.666-5.428-0.666-9.472-0.666-10.24-0.666-9.472-0.666-9.421-1.792-9.472-1.28-10.854-1.945-9.472-2.611-9.625-2.048-10.24-2.611-9.472-2.611-8.602-3.277-10.24-2.611-7.526-1.945-13.517-6.553-7.424-2.611-27.135-13.004-12.851-6.503-13.568-7.168-5.888-3.226-12.186-7.782-5.428-4.556h-1.382v-1.331h-1.331l-2.713-0.666-1.331-0.666-1.382-1.28-0.666-1.28-1.331-0.666-4.045-2.611-4.096-2.611-4.045-2.611-4.096-3.277-16.282-13.056-15.36-13.004-29.798-28.671-5.428-5.888-5.428-6.503-4.762-6.503h-0.82v53.453h0.666l6.758 7.117 4.762 4.608 5.428 5.12 5.478 3.994 5.12 4.556 5.12 3.892 4.608 3.942 4.762 3.892 4.045 4.556 24.371 18.227 12.851 8.653 12.186 8.448 7.424 3.892 6.553 3.020 7.68 3.379 6.758 4.556 5.428 2.611 6.758 3.277 6.144 2.56 6.092 3.277 15.36 5.837 14.899 6.503 15.104 5.888 16.23 5.888 6.092 1.945 8.141 2.56 6.758 1.331 4.762 1.28h3.379l2.713 1.331 3.379 0.666 4.045 0.666 3.635 0.614 3.379 1.28 3.84 0.87 4.762 0.666 3.379 0.461 4.045 0.666 5.428 1.28 4.762 0.666h6.758l2.713 0.666 2.713 1.28 8.089 1.331h6.092l6.758 1.331 3.84 0.563h4.045l3.379 0.666zM161.283 138.604l7.424-7.168 18.227-16.23 8.141-7.885 8.807-6.503 8.141-7.168 3.379-2.611 4.762-3.226 3.379-2.611 2.713-3.277h0.666l0.666 3.226v40.295l-1.331 1.331-2.048 1.945-1.331 2.611-2.713 2.048-5.428 3.277-4.096 2.611-5.837 5.171-5.428 5.12-6.092 5.837-4.762 5.12-14.848 15.667-6.758 9.114-5.683 6.707v-53.401zM161.283 756.125l-4.813-6.553-11.52-14.848-10.804-15.104-10.189-15.616-10.24-16.282-8.807-17.612-8.807-16.948-7.424-17.562-6.758-18.227-6.092-18.893-5.324-18.893-4.762-18.944-3.379-20.224-2.713-19.559-2.048-19.559-0.666-10.24v-9.779l-0.614-9.83 0.666-10.24v-9.114l0.666-9.779 2.663-18.227 1.127-9.984 1.588-9.114 1.331-9.114 1.382-9.318 3.379-15.36 0.666-3.277 1.382-3.328 0.512-3.226 0.666-3.892-0.666-1.997-0.666-1.945-1.229-2.816-1.331-1.945-4.045-3.892-3.379-3.277-4.096-6.246-4.762-6.503-1.331-1.28-1.331-1.945-1.382-2.048v-1.28h-1.331l-3.994 13.67-1.331 5.12-2.15 4.506-1.331 4.556-2.713 9.779-2.713 10.24-6.144 30.72-1.331 11.264-1.331 11.059-0.666 10.24-1.331 11.725v54.272l1.331 22.118 1.331 11.059 2.048 11.059 1.331 10.24 2.713 10.24 2.048 10.24 2.713 10.24 2.713 9.779 3.379 10.24 4.045 13.004 4.096 14.644 5.428 13.67 4.762 13.67 3.379 7.168 3.994 7.834 4.096 7.834 4.762 7.834 6.758 13.004 7.424 13.67 8.141 13.004 8.141 13.67 8.807 11.059 9.472 11.725 9.472 11.111 9.472 11.059 12.186 14.336 5.428 6.503v-53.351zM161.233 192.006v-53.401l-1.382 2.202-8.807 9.114-9.472 9.779-7.424 9.523-16.282 20.48-7.424 10.24-3.379 4.556-4.66 7.732-2.713 3.277-2.713 3.892-1.331 2.611-0.666 1.945 1.229 3.892 0.666 3.277 2.713 8.448 2.816 7.782 3.379 7.834 3.277 8.5 2.713-1.945 3.379-3.892 3.431-4.403 4.045-5.837 7.424-11.929 5.428-7.834 12.186-16.948 12.851-17.562z" />
<glyph unicode="&#xe911;" glyph-name="credit_card_payment" d="M877.713 838.095h-731.428c-80.774 0-146.286-65.512-146.286-146.286v-35.060h1023.998v35.060c0 80.774-65.512 146.286-146.286 146.286zM0.001 204.191c0-80.774 65.512-146.286 146.286-146.286h731.428c80.774 0 146.286 65.512 146.286 146.286v355.034h-1023.998v-355.034zM690.030 338.384h243.81l-98.523-170.667h-243.81l98.523 170.667z" />
<glyph unicode="&#xe912;" glyph-name="del" d="M986.094 714.34h-948.167c-20.936 0-37.926 16.992-37.926 37.926 0 20.972 16.992 37.964 37.926 37.964h227.559v113.74c0 20.972 16.992 37.964 37.926 37.964h417.193c20.936 0 37.926-16.992 37.926-37.964v-113.74h227.559c20.936 0 37.926-16.992 37.926-37.964 0-20.936-16.992-37.926-37.926-37.926zM682.68 866.048h-341.34v-75.815h341.34v75.815zM379.266 183.406v417.153c0 20.972 16.992 37.964 37.926 37.964s37.926-16.992 37.926-37.964v-417.153c0-20.972-16.992-37.926-37.926-37.926s-37.926 16.953-37.926 37.926zM568.9 183.406v417.153c0 20.972 16.992 37.964 37.926 37.964s37.926-16.992 37.926-37.964v-417.153c0-20.972-16.992-37.926-37.926-37.926s-37.926 16.953-37.926 37.926zM189.634 676.414c20.936 0 37.926-16.953 37.926-37.889v-606.826h568.898v606.826c0 20.936 16.992 37.889 37.926 37.889s37.926-16.953 37.926-37.889v-644.753c0-20.972-16.992-37.964-37.926-37.964h-644.753c-20.936 0-37.926 16.992-37.926 37.964v644.753c0 20.936 16.992 37.889 37.926 37.889z" />
<glyph unicode="&#xe913;" glyph-name="department" d="M955.733 38.401h-68.266c-37.718 0-68.266 30.583-68.266 68.301v136.499c0 37.718 30.55 68.266 68.266 68.266v136.534h-341.334v-136.534c37.718 0 68.266-30.55 68.266-68.266v-136.499c0-37.718-30.55-68.301-68.266-68.301h-68.266c-37.718 0-68.266 30.583-68.266 68.301v136.499c0 37.718 30.55 68.266 68.266 68.266v136.534h-341.334v-136.534c37.718 0 68.266-30.55 68.266-68.266v-136.499c0-37.718-30.55-68.301-68.266-68.301h-68.266c-37.718 0-68.266 30.583-68.266 68.301v136.499c0 37.718 30.55 68.266 68.266 68.266v136.534c0 37.718 30.55 68.266 68.266 68.266h341.334v136.567h-204.8c-37.718 0-68.266 30.55-68.266 68.266v68.233c0 37.718 30.55 68.266 68.266 68.266h477.866c37.718 0 68.266-30.55 68.266-68.266v-68.233c0-37.718-30.55-68.266-68.266-68.266h-204.8v-136.567h341.334c37.718 0 68.266-30.55 68.266-68.266v-136.534c37.683 0 68.266-30.55 68.266-68.266v-136.499c0-37.718-30.583-68.301-68.266-68.301z" />
<glyph unicode="&#xe914;" glyph-name="device" d="M597.319 748.435c0 23.56-19.099 42.66-42.66 42.66h-426.597c-23.56 0-42.66-19.099-42.66-42.66v-555.472c0-23.56 19.099-42.66 42.66-42.66h426.597c23.56 0 42.66 19.099 42.66 42.66v555.472zM917.267 747.54h-213.299c-11.78 0-21.33-9.55-21.33-21.33s9.55-21.33 21.33-21.33h213.299c11.78 0 21.33 9.55 21.33 21.33s-9.55 21.33-21.33 21.33zM917.267 662.22h-213.299c-11.78 0-21.33-9.55-21.33-21.33s9.55-21.33 21.33-21.33h213.299c11.78 0 21.33 9.55 21.33 21.33s-9.55 21.33-21.33 21.33zM917.267 576.901h-213.299c-11.78 0-21.33-9.55-21.33-21.33s9.55-21.33 21.33-21.33h213.299c11.78 0 21.33 9.55 21.33 21.33s-9.55 21.33-21.33 21.33zM938.597 320.942c0 23.56-19.099 42.66-42.66 42.66h-170.639c-23.56 0-42.66-19.099-42.66-42.66v-127.979c0-23.56 19.099-42.66 42.66-42.66h170.639c23.56 0 42.66 19.099 42.66 42.66v127.979zM140.136 347.007c4.493 4.96 9.16 9.516 14.091 13.773 3.348 2.788 6.837 5.291 10.501 7.536 19.606 12.072 42.123 19.526 66.258 20.99 65.668 10.599 57.179 42.935 59.014 42.935 0 4.693-0.597 11.134-0.597 15.869v14.675l-6.655 4.266c-13.129 10.031-23.439 23.107-29.965 38.201-11.788 3.219-20.358 13.186-20.799 25.229l-1.196 11.223c-1.053 2.89-1.662 6.227-1.662 9.707 0 9.082 4.149 17.195 10.655 22.546 5.511 0.040 7.303 3.581 6.108 10.065-0.566 7.743-0.887 16.774-0.887 25.88 0 11.78 0.539 23.434 1.595 34.938 0.967 19.756 14.542 37.565 33.362 44.814 4.598 1.229 9.466 1.866 14.482 1.866 2.919 0 5.787-0.215 8.589-0.631 5.429 4.19 12.432 6.954 20.028 7.704l30.378 6.456c7.641-0.965 14.222-4.867 18.682-10.52 4.030-4.404 8.61-8.115 13.676-11.087 2.796 0.050 5.733 0.164 8.696 0.164 6.411 0 12.699-0.533 18.819-1.557 23.525-3.449 21.094-36.34 22.928-47.516 0.677-7.050 1.064-15.241 1.064-23.523 0-0.017 0-0.038 0-0.058 0-10.761-0.646-21.371-1.9-31.794-1.595-2.813 1.434-5.715 3.865-5.16h1.195c6.958-4.198 11.539-11.716 11.539-20.304 0-1.969-0.241-3.882-0.695-5.71l0.034-12.635c0.002-0.105 0.002-0.23 0.002-0.355 0-2.007-0.23-3.96-0.666-5.834-4.233-10.585-13.276-18.83-24.459-21.947-4.938-14.466-12.847-26.725-23.168-36.453l-4.906-5.33-4.821-4.266-0.597-27.046-0.597-2.346c0-8.234-0.597-34.683 54.989-42.318 36.482-1.001 69.020-17.083 91.748-42.208 5.912-8.369 9.813-18.367 10.953-29.189l4.843-39.774h-426.597c-0.644 4.587-1.012 9.885-1.012 15.269 0 19.537 4.841 37.942 13.388 54.084zM85.403 875.519h853.194c47.121 0 85.319-38.199 85.319-85.319v-682.556c0-47.121-38.199-85.319-85.319-85.319h-853.194c-47.121 0-85.319 38.199-85.319 85.319v682.556c0 47.121 38.199 85.319 85.319 85.319z" />
<glyph unicode="&#xe915;" glyph-name="down" d="M48.399 775.476h923.904c29.616 0 51.702-31.265 34.349-62.244-13.911-24.811-437.356-520.324-461.307-562.632-15.705-27.823-53.28-27.321-68.985 0-17.569 30.405-442.519 527.924-462.024 563.923-14.342 26.389 1.435 60.953 34.062 60.953z" />
<glyph unicode="&#xe916;" glyph-name="email" d="M932.571 832h-841.142c-50.414 0-91.429-41.015-91.429-91.429v-585.142c0-50.414 41.015-91.429 91.429-91.429h841.142c50.414 0 91.429 41.015 91.429 91.429v585.142c0 50.414-41.015 91.429-91.429 91.429zM654.281 471.058l330.935 278.674c0.494 0.421 0.713 0.987 1.134 1.445 0.677-3.438 1.079-6.985 1.079-10.606v-585.142c0-5.285-0.987-10.295-2.395-15.141l-330.752 330.77zM932.571 795.429c14.025 0 26.697-5.449 36.389-14.117-2.615-0.658-5.138-1.737-7.333-3.584l-449.627-378.679-109.513 92.233c-0.274 0.329-0.384 0.731-0.695 1.042-0.768 0.768-1.737 1.115-2.597 1.719l-336.841 283.666c-2.194 1.847-4.718 2.926-7.333 3.584 9.71 8.686 22.382 14.135 36.407 14.135h841.142zM36.571 155.429v585.142c0 3.639 0.402 7.186 1.079 10.624 0.439-0.457 0.658-1.042 1.152-1.463l322.743-271.799-324.754-324.754c-0.018 0.768-0.219 1.481-0.219 2.249zM91.429 100.571c-17.207 0-32.402 8.119-42.459 20.553 4.645 0.037 9.271 1.792 12.818 5.339l327.845 327.826 110.592-93.129c0.878-0.731 1.902-1.097 2.853-1.646 0.677-0.384 1.28-0.859 1.993-1.152 2.231-0.914 4.553-1.499 6.912-1.499s4.681 0.585 6.912 1.499c0.713 0.293 1.298 0.768 1.993 1.134 0.969 0.549 1.993 0.914 2.889 1.664l102.418 86.235 336.018-336.018c0.457-0.457 1.042-0.622 1.518-1.006-8.85-6.144-19.566-9.801-31.159-9.801h-841.142z" />
<glyph unicode="&#xe917;" glyph-name="error" d="M512 960c-282.775 0-511.993-229.233-511.993-511.993 0-282.774 229.218-512.007 511.993-512.007 282.747 0 511.993 229.233 511.993 512.007 0 282.76-229.247 511.993-511.993 511.993zM568.889 135.108h-113.777v113.776h113.777v-113.776zM540.445 305.771h-56.888l-28.443 426.663h113.777l-28.445-426.663z" />
<glyph unicode="&#xe918;" glyph-name="fanhui" d="M512-64c282.773 0 512 229.227 512 512s-229.227 512-512 512-512-229.227-512-512 229.227-512 512-512zM736 416h-338.752l131.883-131.883c12.501-12.48 12.501-32.747 0-45.248s-32.747-12.501-45.248 0l-181.013 181.013c-7.68 7.68-10.069 18.176-8.32 28.117-1.749 9.941 0.64 20.437 8.32 28.117l181.013 181.035c12.501 12.48 32.747 12.48 45.248 0 12.501-12.501 12.501-32.768 0-45.269l-131.883-131.883h338.752c17.685 0 32-14.315 32-32 0-17.664-14.315-32-32-32z" />
<glyph unicode="&#xe919;" glyph-name="good" d="M286.829 518.062c-18.902-12.023-31.457-32.116-31.457-49.845v-478.322h1.348c6.245-30.75 33.44-53.895 65.996-53.895h567.663c37.193 0 67.344 29.902 67.344 67.369 0 37.206-30.179 67.369-67.344 67.369h40.803c44.497 0 80.569 36.285 80.569 80.842 0 44.648-36.283 80.842-80.569 80.842 44.497 0 80.569 36.285 80.569 80.842 0 44.648-36.283 80.842-80.569 80.842h-47.124c40.685 0 73.665 33.306 73.665 73.676v-12.615c0 40.69-33.142 75.084-73.78 76.698 0 0-122.105 5.567-252.607 8.305 12.389 46.196 36.419 158.117 15.732 271.619-27.014 148.21-189.095 121.263-189.095 0-13.507-107.789 0-107.789-27.014-175.157-21.133-52.704-97.733-95.513-130.079-111.652-4.886-1.783-9.076-3.832-13.011-6.255-0.911-0.377-1.563-0.661-1.563-0.661h0.522zM71.044 501.894c-32.471 0-58.794-26.094-58.794-58.732v-394.533c0-32.437 26.292-58.732 58.794-58.732h130.3v512h-130.3z" />
<glyph unicode="&#xe91a;" glyph-name="goout" d="M895.938 22.324c-70.681 0-127.979 57.298-127.979 127.979v42.66h-511.917v-42.66c0-70.681-57.298-127.979-127.979-127.979s-127.979 57.298-127.979 127.979v319.948c0.115 46.345 25.112 86.825 62.333 108.801-11.967 13.619-19.685 31.602-19.685 51.386 0 41.112 33.329 74.441 74.441 74.441h0.237c7.366-0.094 14.426-1.26 21.077-3.349l53.566 131.328c0 23.56 19.099 42.66 42.66 42.66h554.576c23.56 0 42.66-19.099 42.66-42.66l54.604-131.072c5.98 1.865 12.864 2.987 19.995 3.092l0.281 0.001c41.112 0 74.441-33.329 74.441-74.441 0-19.785-7.719-37.767-20.309-51.1 37.845-22.263 62.841-62.743 62.956-109.071v-319.965c0-70.681-57.298-127.979-127.979-127.979zM224.047 278.283c41.231 0 74.655 33.424 74.655 74.655s-33.424 74.655-74.655 74.655c-41.231 0-74.655-33.424-74.655-74.655s33.424-74.655 74.655-74.655zM852.489 579.034c-12.7 13.284-20.522 31.322-20.541 51.188 0 0.985 0.256 1.881 0.277 2.84l-42.937 114.477c-12.009 29.99-28.646 63.99-63.99 63.99h-426.597c-35.343 0-52.002-29.99-63.99-63.99l-42.937-114.52c0-0.96 0.277-1.856 0.277-2.837-0.018-19.869-7.841-37.908-20.567-51.22l-0.762-2.062h682.556zM799.953 427.592c-41.231 0-74.655-33.424-74.655-74.655s33.424-74.655 74.655-74.655c41.231 0 74.655 33.424 74.655 74.655s-33.424 74.655-74.655 74.655z" />
<glyph unicode="&#xe91b;" glyph-name="gps" d="M512-63.801c-59.028 0-426.501 369.35-426.501 602.134s190.945 421.468 426.501 421.468c235.556 0 426.501-188.684 426.501-421.468s-367.473-602.134-426.501-602.134zM512 874.501c-188.428 0-341.2-152.773-341.2-341.2s297.229-489.154 341.2-489.154c43.972 0 341.2 300.726 341.2 489.154s-152.773 341.2-341.2 341.2zM512 320.050c-117.757 0-213.25 95.494-213.25 213.25 0 117.799 95.494 213.25 213.25 213.25s213.25-95.451 213.25-213.25c0-117.757-95.494-213.25-213.25-213.25zM512 661.25c-70.672 0-127.95-57.279-127.95-127.95s57.279-127.95 127.95-127.95c70.672 0 127.95 57.279 127.95 127.95s-57.279 127.95-127.95 127.95z" />
<glyph unicode="&#xe91c;" glyph-name="gpsTwo" d="M512 17.623c-40.579 0-371.015 368.51-371.015 571.362 0 204.906 166.109 371.015 371.015 371.015s371.015-166.109 371.015-371.015c0-202.852-330.434-571.362-371.015-571.362zM512 895.072c-0.459 0.002-1.002 0.004-1.546 0.004-169.36 0-306.756-136.853-307.636-306.007 0-169.127 289.217-489.823 309.183-489.823s309.183 320.696 309.183 489.739c-0.88 169.238-138.276 306.091-307.636 306.091-0.544 0-1.087-0.001-1.63-0.004zM512 405.368c-100.685 1.016-181.913 82.873-181.913 183.701 0 101.46 82.25 183.71 183.71 183.71s183.71-82.25 183.71-183.71v-0.003c-0.512-101.565-82.964-183.701-184.601-183.701l-0.956 0.002zM512 711.594c-67.136-0.708-121.287-55.297-121.287-122.532 0-67.677 54.862-122.539 122.539-122.539s122.539 54.862 122.539 122.539v0.006c-0.355 67.747-55.356 122.528-123.152 122.528l-0.674-0.002zM299.976 152.058l50.899-44.788c-64.776-11.176-106.829-28.858-106.829-48.834 0-33.809 119.965-65.043 267.954-65.043s267.954 31.234 267.954 65.043c0 19.976-42.052 37.658-106.829 48.834l50.899 44.788c72.023-22.446 117.855-56.093 117.855-93.704 0-67.571-147.699-122.354-329.878-122.354s-329.878 54.783-329.878 122.354c0 37.646 45.82 71.27 117.855 93.704z" />
<glyph unicode="&#xe91d;" glyph-name="homeGPS" d="M993.879-63.999h-376.47c-2.62 0-5.105 0.452-7.529 1.069-2.424-0.617-4.909-1.069-7.529-1.069h-572.233c-16.64 0-30.118 13.493-30.118 30.118v963.777c0 16.625 13.478 30.103 30.118 30.103h572.233c16.64 0 30.118-13.478 30.118-30.103v-346.367h361.411c16.64 0 30.118-13.478 30.118-30.118v-587.292c0-16.625-13.478-30.118-30.118-30.118zM587.292 553.412v346.352c0 8.328-6.746 15.074-15.059 15.074h-511.999c-8.312 0-15.059-6.746-15.059-15.074v-903.511c0-8.328 6.746-15.074 15.059-15.074h135.529v195.78c0 16.625 13.478 30.103 30.118 30.103h180.706c16.64 0 30.118-13.478 30.118-30.103v-195.78h135.529c8.312 0 15.059 6.746 15.059 15.074v557.159zM978.821 523.294c0 8.328-6.746 15.074-15.059 15.074h-316.234c-8.312 0-15.059-6.746-15.059-15.074v-527.042c0-8.328 6.746-15.074 15.059-15.074h30.118v165.662c0 16.625 13.478 30.103 30.118 30.103h180.706c16.64 0 30.118-13.478 30.118-30.103v-165.662h45.176c8.312 0 15.059 6.746 15.059 15.074v527.042zM895.997 267.309h-195.765c-12.469 0-22.588 10.104-22.588 22.573 0 12.484 10.12 22.603 22.588 22.603h195.765c12.469 0 22.588-10.12 22.588-22.603 0-12.469-10.12-22.573-22.588-22.573zM895.997 402.824h-195.765c-12.469 0-22.588 10.12-22.588 22.588 0 12.484 10.12 22.603 22.588 22.603h195.765c12.469 0 22.588-10.12 22.588-22.603 0-12.469-10.12-22.588-22.588-22.588zM414.116 327.544c-12.469 0-22.588 10.104-22.588 22.573v421.646c0 12.484 10.12 22.603 22.588 22.603s22.588-10.12 22.588-22.603v-421.646c0-12.469-10.12-22.573-22.588-22.573zM218.352 327.544c-12.469 0-22.588 10.104-22.588 22.573v421.646c0 12.484 10.12 22.603 22.588 22.603s22.588-10.12 22.588-22.603v-421.646c0-12.469-10.12-22.573-22.588-22.573z" />
<glyph unicode="&#xe91e;" glyph-name="homeWIFI" d="M999.206 430.701h-112.432v-464.704c0-16.565-13.417-29.982-29.982-29.982h-239.765c-0.030 0-0.060-0.015-0.090-0.015h-209.874c-0.030 0-0.060 0.015-0.090 0.015h-239.765c-16.565 0-29.982 13.417-29.982 29.982v464.704h-112.432c-12.413 0-22.486 10.074-22.486 22.486 0.705 0.21 1.319 0.42 1.994 0.629h-1.949l477.851 488.614c17.555 17.569 46.038 17.569 63.592 0l477.312-489.020c0.21-0.090 0.374-0.135 0.584-0.225 0-12.413-10.074-22.486-22.486-22.486zM522.599 900.037c-5.847 5.847-15.35 5.847-21.197 0l-414.11-424.363h72.421c12.413 0 22.486-10.058 22.486-22.486 0-1.229-0.51-2.294-0.705-3.478h0.705v-468.721h194.883v209.858c0 16.565 13.417 29.982 29.982 29.982h209.874c16.565 0 29.982-13.417 29.982-29.982v-209.858h194.883v468.721h0.705c-0.195 1.185-0.705 2.249-0.705 3.478 0 12.428 10.074 22.486 22.486 22.486h71.537l-413.225 424.363zM512 310.774c-82.795 0-149.909 67.114-149.909 149.909s67.114 149.909 149.909 149.909c82.795 0 149.909-67.114 149.909-149.909s-67.114-149.909-149.909-149.909zM512 565.619c-57.955 0-104.937-46.981-104.937-104.937s46.981-104.937 104.937-104.937c57.955 0 104.937 46.981 104.937 104.937s-46.981 104.937-104.937 104.937z" />
<glyph unicode="&#xe91f;" glyph-name="jd" d="M460.651 442.783v118.799h-444.452v-119.104h189.013v-113.493c0-20.986-3.681-31.442-10.891-37.756-7.267-6.346-18.389-9.671-33.080-9.945v-35.421c38.192 1.214 66.128 9.472 83.87 24.922 17.63 15.4 26.554 39.064 26.554 70.731v100.964h188.988v0.305zM396.621 479.55h-316.293v44.968h316.293v-44.968zM271.943 651.655h-66.732v-27.98h-205.21v-37.065h476.847v37.065h-204.905zM0.001 247.014h37.831c80.9 70.469 102.029 170.891 102.029 170.891h-73.053c-8.893-71.073-38.79-130.93-66.807-170.891zM337.262 417.918s21.005-100.447 101.743-170.891h37.844c-28.005 39.961-57.84 99.793-66.714 170.891h-72.873zM546.818 247.014h37.8c80.887 70.469 101.985 170.891 101.985 170.891h-72.985c-8.924-71.073-38.815-130.93-66.801-170.891zM884.217 417.918s21.074-100.447 101.948-170.891h37.862c-28.005 39.961-57.908 99.793-66.795 170.891h-73.016zM714.583 623.676l13.090 28.203h-66.925l-13.127-28.203h-100.895v-37.065h83.596l-67.268-144.132h193.64v-113.487c0-21.927-3.624-31.448-10.854-37.756-7.311-6.346-18.352-9.677-33.049-9.964v-35.396c38.136 1.202 66.072 9.466 83.845 24.916 17.704 15.4 26.653 39.064 26.653 70.724v100.964h184.429v37.078h-184.429v79.623h-66.595v-79.629h-108.574l49.414 107.055h326.488v37.072h-309.437z" />
<glyph unicode="&#xe920;" glyph-name="offDay" horiz-adv-x="1325" d="M1264.781 380.515v-339.054c0-58.21-47.188-105.399-105.399-105.399s-105.399 47.188-105.399 105.399v451.71c0 0.006 0 0.013 0 0.020 0 74.842 60.672 135.512 135.512 135.512s135.512-60.672 135.512-135.512c0-46.777-23.7-88.018-59.749-112.37zM993.755 508.229v-165.627h-662.508v165.627c-0.054 89.089-64.61 163.085-149.493 177.818l-1.078 153.435c0 66.526 53.93 120.456 120.456 120.456h722.737c66.526 0 120.456-53.93 120.456-120.456v-153.28c-85.961-14.889-150.516-88.884-150.57-177.967zM271.020 493.171v-451.71c0-58.21-47.188-105.399-105.399-105.399s-105.399 47.188-105.399 105.399v339.054c-36.528 24.658-60.228 65.899-60.228 112.676 0 74.842 60.672 135.512 135.512 135.512s135.512-60.672 135.512-135.512c0-0.007 0-0.014 0-0.021zM993.755 26.405h-662.508v271.026h662.508v-271.026z" />
<glyph unicode="&#xe921;" glyph-name="jinzhi" d="M513.555 899.775c-248.292 0-449.583-201.304-449.583-449.625 0-248.299 201.293-449.596 449.583-449.596 248.282 0 449.637 201.297 449.637 449.596 0.001 248.322-201.355 449.625-449.637 449.625zM735.451 409.025h-443.742c-22.716 0-41.136 18.415-41.136 41.14 0 22.716 18.42 41.133 41.136 41.133h443.742c22.72 0 41.14-18.416 41.14-41.133 0-22.725-18.42-41.14-41.14-41.14z" />
<glyph unicode="&#xe922;" glyph-name="join_company" d="M1010.297 69.949c1-3.584 1.715-7.287 1.715-11.204 0-3.096-0.393-6.073-1.036-8.966 0-0.191 0.024-0.357 0.024-0.548 0-11.883-10.907-26.254-37.804-35.899-93.3-33.434-199.792-77.321-464.286-77.321-278.138 0-456.26 76.666-456.26 76.666s-2.084 0.762-5.001 2.012c-15.204 1.988-27.647 12.621-32.529 27.028-1.798 3.703-3.12 7.644-3.12 12.062 0 320.43 311.965 106.337 320.537 314.191-76.726 66.427-120.471 179.706-120.471 238.87l36.113 109.421-2.298 161.858 79.69 20.622s54.222 61.247 175.050 61.247c151.226 0 252.444-110.326 252.444-243.728l38.613-109.421c0-57.080-43.043-187.981-102.861-239.691-2.786-183.242 306.94-16.895 321.477-297.2z" />
<glyph unicode="&#xe923;" glyph-name="jujue" d="M618.288 446.409l371.335-371.335c29.581-29.581 29.581-77.488 0-107.069s-77.538-29.581-107.12 0l-371.285 371.285-373.506-373.456c-29.784-29.834-78.093-29.834-107.928 0-29.784 29.784-29.784 78.144 0 107.928l373.506 373.506-371.285 371.285c-29.632 29.581-29.632 77.488 0 107.069 29.531 29.581 77.488 29.581 107.069 0l371.285-371.285 375.879 375.879c29.834 29.784 78.144 29.784 107.928 0 29.834-29.834 29.834-78.144 0-107.978l-375.879-375.828z" />
<glyph unicode="&#xe924;" glyph-name="late_early" d="M1023.986 699.819c0.010-0.297 0.016-0.645 0.016-0.994 0-17.292-14.019-31.311-31.311-31.311s-31.311 14.019-31.311 31.311c0 4.027 0.76 7.877 2.145 11.412l-14.832-0.213c-46.956 68.604-107.646 124.383-178.447 164.349l-2.647 9.154c-1.142-0.348-2.519-0.646-3.931-0.834-17.567-0.031-31.575 13.978-31.575 31.259s14.009 31.289 31.289 31.289c1.61-0.21 3.037-0.513 4.422-0.916l-0.205 2.328c2.341-1.138 4.554-2.509 6.894-3.669 1.339-0.596 2.463-1.203 3.536-1.883 102.968-52.88 186.348-131.847 243.221-228.308l0.668-2.771c1.209-3.016 1.957-6.508 2.066-10.16zM260.015 882.662c-2.411 0.216-4.631 0.685-6.747 1.384l0.421-9.839c-72.262-41.21-132.012-96.421-177.225-162.377l-15.929-1.807c1.135-3.1 1.791-6.68 1.791-10.414 0-17.21-13.952-31.163-31.163-31.163s-31.163 13.952-31.163 31.163l0.001 0.22c0.123 3.775 0.913 7.331 2.255 10.603l-1.012-0.409c57.934 98.515 140.463 177.032 239.311 228.536 4.888 2.672 6.719 3.675 8.655 4.48 1.65 0.81 3.042 1.674 4.412 2.392v-1.371c1.841 0.605 3.99 1.052 6.209 1.256 0.126 0.009 0.137 0.009 0.148 0.009 17.304 0 31.332-14.027 31.332-31.332 0-17.293-14.010-31.314-31.298-31.332zM832.393 79.897l70.717-70.717c5.825-6.060 9.412-14.308 9.412-23.394 0-0.017 0-0.035 0-0.052 0-18.721-15.179-33.901-33.904-33.901-9.096 0-17.355 3.582-23.445 9.413l-75.301 75.301c-74.395-53.501-167.332-85.559-267.757-85.559-101.798 0-195.901 32.942-272.232 88.746 0.388-2.571-0.575-3.998-1.65-5.332l-74.509-74.496c-5.665-5.492-13.4-8.877-21.925-8.877-0.016 0-0.033 0-0.049 0-17.465 0-31.624 14.16-31.624 31.626 0 8.54 3.384 16.29 8.886 21.98l74.039 74.039c-89.281 84.718-144.828 204.234-144.828 336.725 0 256.181 207.675 463.856 463.856 463.856s463.856-207.675 463.856-463.856c0-131.867-55.025-250.881-143.368-335.336zM775.591 414.843h-263.554v305.723c0 17.467-14.16 31.626-31.626 31.626s-31.626-14.16-31.626-31.626v-337.35c0-17.467 14.16-31.626 31.626-31.626h295.181c17.467 0 31.626 14.16 31.626 31.626s-14.16 31.626-31.626 31.626z" />
<glyph unicode="&#xe925;" glyph-name="leave" d="M512-64c-282.77 0-512 229.23-512 512s229.23 512 512 512 512-229.23 512-512-229.23-512-512-512zM730.837 340.971l-197.504 117.696v330.667c0 23.564-19.103 42.667-42.667 42.667s-42.667-19.103-42.667-42.667v-362.667c0.016-12.331 5.294-23.426 13.708-31.162 0.867-0.792 1.771-1.54 2.71-2.243 0.935-0.778 1.977-1.563 3.056-2.299 0.771-0.499 1.176-0.925 1.688-1.224l214.976-128c5.591-2.978 12.226-4.727 19.271-4.727 16.206 0 30.25 9.258 37.132 22.773 4.882 7.313 7.727 16.031 7.727 25.415 0 14.482-6.778 27.381-17.334 35.697z" />
<glyph unicode="&#xe926;" glyph-name="legwork_sign" d="M512 17.481c40.702 0 372.15 367.841 372.15 570.369 0 205.532-166.617 372.15-372.15 372.15s-372.15-166.617-372.15-372.15c0-202.527 331.448-570.369 372.15-570.369zM512 404.517c-100.085 1.534-180.629 83.027-180.629 183.332 0 101.263 82.090 183.353 183.353 183.353s183.352-82.089 183.353-183.352c-0.774-101.42-83.17-183.338-184.698-183.338-0.483 0-0.968 0.002-1.45 0.006zM299.248 151.847l51.142-44.853c-64.989-11.165-107.16-28.793-107.16-48.771 0-33.69 120.322-64.833 268.771-64.833s268.771 31.143 268.771 64.833c0 19.978-42.19 37.606-107.16 48.771l51.142 44.853c72.119-22.525 118.050-56.018 118.050-93.625 0-67.574-148.115-122.222-330.802-122.222s-330.802 54.648-330.802 122.222c0 37.606 45.931 71.1 118.050 93.625z" />
<glyph unicode="&#xe927;" glyph-name="list" d="M0 524.8v-153.6h153.6v153.6h-153.6zM51.2 473.6h51.2v-51.2h-51.2v51.2zM0 883.2v-153.6h153.6v153.6h-153.6zM51.2 832h51.2v-51.2h-51.2v51.2zM0 166.4v-153.6h153.6v153.6h-153.6zM51.2 115.2h51.2v-51.2h-51.2v51.2zM281.6 832h716.8c14.138 0 25.6-11.462 25.6-25.6s-11.462-25.6-25.6-25.6h-716.8c-14.138 0-25.6 11.462-25.6 25.6s11.462 25.6 25.6 25.6zM281.6 473.6h716.8c14.138 0 25.6-11.462 25.6-25.6s-11.462-25.6-25.6-25.6h-716.8c-14.138 0-25.6 11.462-25.6 25.6s11.462 25.6 25.6 25.6zM281.6 115.2h716.8c14.138 0 25.6-11.462 25.6-25.6v0c0-14.138-11.462-25.6-25.6-25.6h-716.8c-14.138 0-25.6 11.462-25.6 25.6v0c0 14.138 11.462 25.6 25.6 25.6z" />
<glyph unicode="&#xe928;" glyph-name="Mood" d="M516.422-64c-285.207 0-516.422 231.215-516.422 516.422 0 253.312 182.528 463.616 423.145 507.578-42.903-67.479-68.108-147.34-68.108-233.228 0-240.652 195.084-435.735 435.735-435.735 85.888 0 165.748 25.193 233.228 68.108-43.962-240.617-254.266-423.145-507.578-423.145zM774.633 226.49c-267.392 0-484.143 216.751-484.143 484.143 0 53.248 8.913 104.332 24.797 152.262-148.608-75.031-250.74-228.596-250.74-406.47 0-251.764 204.113-455.866 455.878-455.866 177.873 0 331.439 102.121 406.47 250.729-47.919-15.884-99.014-24.797-152.262-24.797z" />
<glyph unicode="&#xe929;" glyph-name="more" d="M1008.118 639.889l-477.41-453.357c-13.256-12.752-34.721-12.752-47.978 0l-23.989 23.079c-0.806 0.773-1.111 1.783-1.817 2.623l-441.109 426.373c-13.222 12.718-13.222 33.342 0 46.061l23.921 23.046c13.189 12.718 34.653 12.718 47.876 0l419.78-405.715 428.794 407.163c13.256 12.752 34.721 12.752 47.978 0l23.955-23.079c13.29-12.752 13.29-33.443 0-46.195z" />
<glyph unicode="&#xe92a;" glyph-name="morning" d="M990.57 283.754h-106.495c-17.636 0-31.948 14.313-31.948 31.948s14.313 31.948 31.948 31.948h106.495c17.636 0 31.948-14.313 31.948-31.948s-14.313-31.948-31.948-31.948zM797.494 556.681c-12.481-12.481-32.716-12.481-45.176 0-12.481 12.481-12.481 32.694 0 45.176l75.292 75.313c12.481 12.46 32.716 12.46 45.197 0 12.46-12.481 12.46-32.716 0-45.197l-75.313-75.292zM807.462 273.104h-64.558c2.556 13.845 4.047 28.029 4.047 42.599 0 129.392-104.877 234.291-234.291 234.291-129.392 0-234.291-104.898-234.291-234.291 0-14.568 1.512-28.754 4.068-42.599h-64.558c-2.002 13.951-3.408 28.094-3.408 42.599 0 164.685 133.524 298.188 298.188 298.188 164.685 0 298.188-133.503 298.188-298.188 0-14.505-1.385-28.648-3.386-42.599zM511.34 656.489c-17.636 0-31.948 14.313-31.948 31.948v106.495c0 17.636 14.313 31.948 31.948 31.948s31.948-14.313 31.948-31.948v-106.495c0-17.636-14.313-31.948-31.948-31.948zM225.186 556.681l-75.313 75.292c-12.46 12.481-12.46 32.716 0 45.197 12.481 12.46 32.716 12.46 45.197 0l75.292-75.313c12.481-12.481 12.481-32.694 0-45.176-12.46-12.481-32.694-12.481-45.176 0zM170.553 315.702c0-17.636-14.313-31.948-31.948-31.948h-106.495c-17.636 0-31.948 14.313-31.948 31.948s14.313 31.948 31.948 31.948h106.495c17.636 0 31.948-14.313 31.948-31.948zM33.429 135.32h958.463c17.657 0 31.948-14.292 31.948-31.948 0-17.636-14.292-31.948-31.948-31.948h-958.463c-17.636 0-31.948 14.313-31.948 31.948 0 17.657 14.313 31.948 31.948 31.948z" />
<glyph unicode="&#xe92b;" glyph-name="neigou" d="M2.979 605.232l490.741-609.094-196.806 609.094h-293.937zM350.27 605.232l173.803-610.371 149.522 610.371h-323.325zM550.495-3.862l472.426 609.094h-291.651l-180.775-609.094zM1024 645.066l-141.661 242.2-141.669-242.2h283.33zM837.836 901.138h-283.321l141.661-250.476 141.661 250.476zM652.599 645.066l-141.661 242.191-141.669-242.191h283.33zM469.485 901.138h-283.321l141.661-250.476 141.661 250.476zM141.661 887.257l-141.661-242.191h283.33l-141.669 242.191z" />
<glyph unicode="&#xe92c;" glyph-name="new" d="M945.231 192.001h-748.309c-43.52 0-78.769 35.249-78.769 78.769v78.769l-118.154 98.462 118.154 98.461v78.769c0 43.52 35.249 78.769 78.769 78.769h748.309c43.52 0 78.769-35.249 78.769-78.769v-354.462c0-43.52-35.249-78.769-78.769-78.769zM433.231 388.924v157.539h-39.385v-118.154h-39.385v39.385h-39.385v39.385h-39.385v39.385h-39.385v-196.923h39.385v118.154h39.385v-39.385h39.385v-39.385h39.385v-39.385h39.385v39.385zM669.538 388.924h-157.538v39.385h157.538v39.385h-157.538v39.385h157.538v39.384h-196.923v-196.923h196.923v39.385zM905.846 428.309v118.154h-39.385v-157.539h-39.385v157.539h-39.385v-157.539h-39.385v157.539h-39.384v-157.539h39.384v-39.385h39.385v39.385h39.385v-39.385h39.385v39.385h39.385v39.385z" />
<glyph unicode="&#xe92d;" glyph-name="next" d="M782.12 401.604c-1.804-1.934-4.189-2.578-6.444-4.51l-445.021-444.635c-11.355-10.213-26.456-16.459-43.015-16.459-35.589 0-64.44 28.851-64.44 64.44 0 16.495 6.198 31.542 16.391 42.941l404.498 404.619-404.553 404.682c-10.139 11.336-16.337 26.384-16.337 42.879 0 35.589 28.851 64.44 64.44 64.44 16.559 0 31.66-6.246 43.074-16.511l444.963-444.583c1.934-1.934 4.317-2.578 6.444-4.51 11.561-12.015 18.683-28.374 18.683-46.397s-7.121-34.383-18.703-46.418z" />
<glyph unicode="&#xe92e;" glyph-name="night" d="M887.185 381.217l-41.272 20.369-41.272-20.369 5.654 47.571-31.165 34.972 44.767 9.038 22.016 41.984 22.016-41.984 44.767-9.038-31.165-34.972 5.654-47.571zM794.891 603.826l-82.543 40.715-82.543-40.715 11.309 95.121-62.308 69.966 89.533 18.098 44.010 83.946 44.010-83.946 89.533-18.098-62.308-69.966 11.309-95.121zM790.773 291.039c85.882 0 165.732 25.199 233.227 68.118-43.965-240.618-254.264-423.157-507.57-423.157-285.229 0-516.43 231.224-516.43 516.43 0 253.306 182.517 463.605 423.135 507.57-42.897-67.473-68.096-147.345-68.096-233.227 0-240.64 195.094-435.734 435.734-435.734zM290.482 710.634c0 53.248 8.927 104.337 24.799 152.264-148.614-75.041-250.724-228.597-250.724-406.461 0-251.77 204.088-455.88 455.858-455.88 177.887 0 331.442 102.133 406.483 250.746-47.928-15.894-99.016-24.799-152.264-24.799-267.398 0-484.152 216.754-484.152 484.129z" />
<glyph unicode="&#xe92f;" glyph-name="no_sign" d="M512-63.954c-41.842 0-413.501 381.997-413.501 610.407 0 228.371 185.13 413.501 413.501 413.501s413.501-185.13 413.501-413.501c0-228.411-371.659-610.407-413.501-610.407zM512 763.049c-119.622 0-216.596-96.973-216.596-216.596s96.973-216.596 216.596-216.596c119.622 0 216.596 96.973 216.596 216.596s-96.973 216.596-216.596 216.596z" />
<glyph unicode="&#xe930;" glyph-name="noon" d="M992 416.001h-106.667c-17.685 0-32 14.315-32 31.979 0 17.685 14.315 32.021 32 32.021h106.667c17.664 0 32-14.336 32-32.021 0-17.664-14.336-31.979-32-31.979zM798.613 689.344c-12.501-12.48-32.768-12.48-45.248 0-12.501 12.501-12.501 32.768 0 45.269l75.413 75.435c12.501 12.48 32.768 12.48 45.248 0 12.501-12.523 12.501-32.768 0-45.269l-75.413-75.435zM513.323 149.291c-164.928 0-298.667 133.717-298.667 298.667s133.739 298.667 298.667 298.667c164.949 0 298.667-133.717 298.667-298.667s-133.717-298.667-298.667-298.667zM513.323 682.624c-129.6 0-234.667-105.067-234.667-234.667s105.067-234.667 234.667-234.667c129.621 0 234.667 105.067 234.667 234.667s-105.045 234.667-234.667 234.667zM512 789.333c-17.685 0-32 14.336-32 32v106.667c0 17.664 14.315 32 32 32 17.664 0 32-14.336 32-32v-106.667c0-17.664-14.336-32-32-32zM225.387 689.344l-75.435 75.435c-12.48 12.501-12.48 32.747 0 45.269 12.501 12.48 32.768 12.48 45.269 0l75.413-75.435c12.501-12.501 12.501-32.768 0-45.269-12.501-12.48-32.747-12.48-45.248 0zM170.667 447.978c0-17.664-14.336-31.979-32-31.979h-106.667c-17.685 0-32 14.315-32 31.979 0 17.685 14.315 32.021 32 32.021h106.667c17.664 0 32-14.336 32-32.021zM225.387 206.635c12.501 12.501 32.747 12.501 45.248 0s12.501-32.747 0-45.248l-75.413-75.435c-12.501-12.501-32.768-12.501-45.269 0-12.48 12.501-12.48 32.768 0 45.248l75.435 75.435zM512 106.667c17.664 0 32-14.336 32-32v-106.667c0-17.664-14.336-32-32-32-17.685 0-32 14.336-32 32v106.667c0 17.664 14.315 32 32 32zM798.613 206.635l75.413-75.435c12.501-12.48 12.501-32.747 0-45.248-12.48-12.501-32.747-12.501-45.248 0l-75.413 75.435c-12.501 12.501-12.501 32.747 0 45.248 12.48 12.501 32.747 12.501 45.248 0z" />
<glyph unicode="&#xe931;" glyph-name="normal" d="M234.666 960c-70.692 0-128-57.308-128-128v-768c0-70.692 57.308-128 128-128h554.667c70.692 0 128 57.308 128 128v640l-256 255.147zM853.333 704h-128c-35.346 0-64 28.654-64 64v128zM693.333 192h-362.667c-17.673 0-32 14.327-32 32s14.327 32 32 32h362.667c17.673 0 32-14.327 32-32s-14.327-32-32-32zM693.333 384h-362.667c-17.673 0-32 14.327-32 32s14.327 32 32 32h362.667c17.673 0 32-14.327 32-32s-14.327-32-32-32z" />
<glyph unicode="&#xe932;" glyph-name="oil_card_recharge" d="M895.785 488.279h-72.467v231.593l-148.238 79.516v112.954c0 21.748-17.628 39.377-39.377 39.377h-529.425c-21.748 0-39.379-17.628-39.379-39.377v-885.057h-66.899v-77.036h741.981v77.036h-66.901v405.245h92.49v-360.028c0-70.702 57.517-128.222 128.215-128.222s128.215 57.521 128.215 128.222v287.562c0 70.697-57.518 128.215-128.215 128.215zM133.801 878.737h466.272v-351.086h-466.272v351.086zM503.365 276.515v-47.954h-108.395v-120.879h-47.957v120.879h-108.395v47.954h108.395v47.955h-108.395v47.96h59.154l-23.953 71.854h56.071l23.953-71.854h34.303l23.953 71.854h56.070l-23.953-71.854h59.15v-47.96h-108.395v-47.955h108.394zM767.571 488.279h-92.49v247.847l92.49-49.612v-198.236zM968.252 72.502c0-39.963-32.507-72.474-72.467-72.474-39.957 0-72.467 32.511-72.467 72.474v360.028h72.467c39.96 0 72.467-32.508 72.467-72.466v-287.562z" />
<glyph unicode="&#xe933;" glyph-name="overtime" d="M515.374-63.069c-284.658 0.119-515.374 230.908-515.374 515.583 0 251.744 180.424 461.347 419.016 506.555-39.44-65.562-64.79-146.279-64.79-232.917 0-240.035 194.588-434.623 434.623-434.623 86.643 0 167.365 25.353 235.151 69.045-47.259-242.952-256.839-423.532-508.615-423.643z" />
<glyph unicode="&#xe934;" glyph-name="phone_recharge" d="M423.305 168.79c0 22.14 2.592 43.628 7.452 64.275h-288.836v605.765h484.629v-399.81c17.785 5.358 38.46 9.088 59.784 10.423l0.8 419.702c0 49.959-40.894 90.855-90.878 90.855h-424.052c-49.959 0-90.856-40.894-90.856-90.855v-787.568c0-49.938 40.898-90.856 90.856-90.856h314.745c-39.799 48.533-63.691 110.57-63.645 178.066zM263.058 914.599h242.342v-30.317h-242.342v30.317zM705.002 410.225c-130.933 0.047-237.25-106.177-237.346-236.971-0.069-130.887 106.53-237.254 237.674-237.159 130.561 0.047 236.925 106.271 237.159 236.782 0.164 130.935-106.315 237.346-237.486 237.346zM812.955 77.402c-3.973-2.758-9.063-4.16-15.181-4.16h-64.602v-18.451c0-5.558-2.29-10.93-6.916-16.116-4.625-5.231-10.626-7.566-17.984-6.958-7.404 0-13.546 1.725-18.475 5.092-4.928 3.361-7.684 9.385-8.29 17.981v18.453h-62.735c-6.164 0-11.256 1.68-15.228 5.093-4.018 3.364-5.7 7.52-5.093 12.427 0 5.558 2.008 9.993 6.027 13.408 3.97 3.36 8.735 5.092 14.293 5.092h62.735v32.277h-62.735c-6.164 0-11.071 1.82-14.783 5.558-3.688 3.642-5.535 7.986-5.535 12.892s2.008 9.531 6.027 13.828c3.97 4.296 8.735 6.445 14.293 6.445h62.735l0.888 19.388c-11.073 11.072-21.209 21.534-30.434 31.39-7.988 8.596-15.391 16.585-22.141 23.964l-13.828 12.94c-3.082 3.691-5.862 8.782-8.338 15.229-2.426 6.447-1.214 13.031 3.738 19.807 5.511 6.166 12.283 7.848 20.273 5.092 8.012-2.804 14.457-6.306 19.386-10.65 2.477-3.038 6.775-7.661 12.916-13.78l44.261-44.333c10.486 9.857 19.991 18.78 28.633 26.766 7.381 6.776 14.762 13.359 22.143 19.854 7.38 6.447 12.612 10.93 15.671 13.359 5.561 4.906 11.702 7.381 18.475 7.381s12.283-2.756 16.583-8.316c7.988-9.201 4.952-19.992-9.226-32.28-3.666-3.082-9.222-8.405-16.605-16.116-7.62-7.945-14.836-15.309-22.13-22.597-8.607-9.26-18.158-18.79-28.599-28.645v-17.519h59.977c8.596 0 14.901-2.008 18.872-5.979 4.042-4.018 6.027-8.456 6.027-13.408 0-5.511-1.846-10.277-5.534-14.296-3.714-4.014-9.835-5.698-18.475-5.045l-59.932-0.932-0.933-31.392h59.044c17.213 0 25.831-6.449 25.831-19.385 0.608-6.12-1.072-10.603-5.091-13.359z" />
<glyph unicode="&#xe935;" glyph-name="play" d="M410.282 220.721c-2.824 0-5.643 0.683-8.253 2.005-5.997 3.068-10.030 9.204-10.031 16.282v417.989c0.004 7.003 3.94 13.087 9.719 16.163 6.099 3.19 13.423 2.727 18.991-1.151l292.575-203.532c4.71-3.303 7.774-8.678 7.86-14.772 0.001-0.077 0.001-0.152 0.001-0.228 0-6.037-2.917-11.393-7.419-14.734l-292.624-214.447c-3.213-2.357-7.001-3.575-10.819-3.575zM512 925.090c263.069 0 477.091-214.022 477.091-477.091s-214.024-477.090-477.091-477.090-477.091 214.021-477.091 477.090 214.022 477.091 477.091 477.091zM512 960c-282.77 0-512-229.23-512-512s229.231-512 512-512 512 229.229 512 511.999-229.23 512.001-512 512.001z" />
<glyph unicode="&#xe936;" glyph-name="prev" d="M243.076 406.784c1.599-1.292 3.419-2.414 5.373-3.289l451.54-450.78c10.334-10.327 24.607-16.714 40.372-16.714 31.543 0 57.114 25.57 57.114 57.114 0 15.778-6.398 30.062-16.743 40.4l-415.377 414.808 415.377 414.808c10.336 10.234 16.736 24.427 16.736 40.116s-6.399 29.88-16.731 40.111c-10.359 10.287-24.625 16.643-40.376 16.643s-30.016-6.355-40.375-16.641l-451.222-450.652c-2.191-0.955-4.081-2.112-5.785-3.489-10.149-10.624-16.456-25.165-16.456-41.179s6.306-30.555 16.571-41.275z" />
<glyph unicode="&#xe937;" glyph-name="qq" d="M518.453 950.496c314.664 0 330.14-300.49 330.14-300.49 47.732-63.206 21.943-119.943 21.943-119.943 153.465-241.18 54.171-310.859 27.088-315.996-27.088-5.138-52.902 29.681-52.902 29.681s-9.003-34.791-30.952-52.895c79.986-37.361 65.777-83.818 65.777-83.818s-16.774-140.257-349.484-51.596l-28.382 5.166c-318.895-115.102-358.525 39.989-358.525 39.989s-12.906 64.45 48.997 88.99c-36.121 21.943-48.997 68.346-48.997 68.346s-32.256-52.867-74.81-33.526c-42.562 19.344-68.345 190.855 91.559 314.663 0 0-23.188 73.516 29.679 117.375 0 0 14.205 294.054 328.87 294.054zM238.58 639.668c-69.643-59.309-23.213-118.672-23.213-118.672-153.464-94.156-126.38-246.319-126.38-246.319s24.482 12.27 41.892 47.726c17.413 35.46 44.497-5.802 44.497-5.802s16.774-81.252 68.131-113.080c51.36-31.829-2.264-52.138-2.264-52.138s-56.532-0.821-51.663-39.208c4.863-38.388 187.203-86.451 296.62-1.298l58.030-7.74c190.89-66.383 285.018-4.474 291.304 7.402 6.288 11.877-28.834 35.187-61.117 48.696-32.287 13.516-40.593 27.754-12.033 46.767 28.563 19.007 39.842 56.736 56.558 95.787 16.709 39.055 41.891 19.979 45.13 9.003 3.233-10.971 27.081-47.694 27.081-47.694s62.179 65.893-67.073 260.5c0 0 28.050 58.309-19.349 105.733 0 0-11.577 273.433-291.478 273.433-279.9 0.001-274.674-263.093-274.674-263.093z" />
<glyph unicode="&#xe938;" glyph-name="rechargeMobile" d="M810.667 835.883c-0.287 21.483-17.769 38.787-39.293 38.787-0.181 0-0.362-0.001-0.543-0.004h-517.69c-0.153 0.002-0.334 0.003-0.515 0.003-21.524 0-39.006-17.305-39.292-38.76v-775.792c0.287-21.483 17.769-38.787 39.293-38.787 0.181 0 0.362 0.001 0.543 0.004h517.69c0.153-0.002 0.334-0.003 0.515-0.003 21.524 0 39.006 17.305 39.292 38.76v775.792zM711.125 137.685h-398.251c-0.153-0.002-0.334-0.003-0.515-0.003-21.524 0-39.006 17.305-39.292 38.76v581.872c0.287 21.483 17.769 38.787 39.293 38.787 0.181 0 0.362-0.001 0.543-0.004h398.181c0.153 0.002 0.334 0.003 0.515 0.003 21.524 0 39.006-17.305 39.292-38.76v-581.872c-0.287-21.482-17.769-38.787-39.293-38.787-0.166 0-0.332 0.001-0.498 0.003zM452.267 835.883h119.467v-19.413h-119.467v19.413zM482.133 98.901h59.733c0.038 0.001 0.084 0.001 0.129 0.001 5.375 0 9.741-4.321 9.812-9.679v-19.42c-0.072-5.365-4.437-9.686-9.813-9.686-0.045 0-0.091 0-0.136 0.001h-59.726c-0.038-0.001-0.084-0.001-0.129-0.001-5.375 0-9.741 4.321-9.812 9.679v19.42c0.072 5.365 4.437 9.686 9.813 9.686 0.045 0 0.091 0 0.136-0.001z" />
<glyph unicode="&#xe939;" glyph-name="refresh" d="M1015.73 622.343l-63.241-125.151c-0.095-0.159-0.254-0.254-0.349-0.444 0-0.19 0.063-0.349 0.063-0.54l-0.444 0.095c-3.362-6.153-8.659-10.339-14.463-13.258-9.198-4.757-20.14-5.677-30.035-0.603l-124.897 64.162c-16.366 8.404-22.867 28.577-14.526 45.037 8.341 16.493 28.322 23.026 44.657 14.653l55.662-28.607c-52.997 146.274-192.674 250.905-357.25 250.905-143.135 0-267.684-79.099-332.669-195.91l-65.208 11.513c72.471 146.687 223.186 247.829 397.878 247.829 192.929 0 356.615-123.28 417.827-295.212l28.195 55.757c8.278 16.366 28.132 22.867 44.37 14.526s22.708-28.386 14.431-44.751zM246.173 308.609c-7.992-15.7-27.212-21.947-42.944-13.955l-50.46 25.721c52.458-147.353 192.77-252.967 358.137-252.967 141.010 0 263.846 76.911 329.592 190.867l65.811-11.608c-73.454-143.927-222.741-242.692-395.403-242.692-194.641 0-359.438 125.469-419.318 299.78l-27.117-53.188c-7.961-15.604-27.053-21.82-42.658-13.86-15.604 7.929-21.82 27.053-13.86 42.658l60.768 119.284c4.029 7.897 10.942 13.321 18.808 15.795 7.866 2.664 16.683 2.315 24.676-1.744l120.013-61.148c15.7-8.025 21.947-27.244 13.955-42.944z" />
<glyph unicode="&#xe93a;" glyph-name="renyuan" d="M1010.297 69.949c1-3.584 1.715-7.287 1.715-11.204 0-3.096-0.393-6.073-1.036-8.966 0-0.191 0.024-0.357 0.024-0.548 0-11.883-10.907-26.254-37.804-35.899-93.3-33.434-199.792-77.321-464.286-77.321-278.138 0-456.26 76.666-456.26 76.666s-2.084 0.762-5.001 2.012c-15.204 1.988-27.647 12.621-32.529 27.028-1.798 3.703-3.12 7.644-3.12 12.062 0 320.43 311.965 106.337 320.537 314.191-76.726 66.427-120.471 179.706-120.471 238.87l36.113 109.421-2.298 161.858 79.69 20.622s54.222 61.247 175.050 61.247c151.226 0 252.444-110.326 252.444-243.728l38.613-109.421c0-57.080-43.043-187.981-102.861-239.691-2.786-183.242 306.94-16.895 321.477-297.2z" />
<glyph unicode="&#xe93b;" glyph-name="repaymentHistory" d="M866.287 536.949l117.573-86.17-121.365-88.949 121.365-88.949-459.653-336.881-484.068 336.881 127.812 88.949-127.812 88.949 123.818 86.17-123.818 86.17 484.068 336.881 459.653-336.881-117.573-86.17zM214.288 501.922l-74.081-51.556 380.817-265.024 361.609 265.024-67.242 49.281-291.183-213.409-309.92 215.685zM218.282 326.803l-78.076-54.335 380.817-265.024 361.609 265.024-71.034 52.061-287.391-210.63-305.925 212.904z" />
<glyph unicode="&#xe93c;" glyph-name="reportAdd" d="M955.733 379.733h-375.466v-375.466c0-37.703-30.564-68.267-68.267-68.267s-68.267 30.564-68.267 68.267v375.466h-375.466c-37.703 0-68.267 30.564-68.267 68.267s30.564 68.267 68.267 68.267h375.466v375.466c0 37.703 30.564 68.267 68.267 68.267s68.267-30.564 68.267-68.267v-375.466h375.466c37.703 0 68.267-30.564 68.267-68.267s-30.564-68.267-68.267-68.267z" />
<glyph unicode="&#xe93d;" glyph-name="return_shopping_point" d="M512 959.999c-282.769 0-511.999-229.23-511.999-511.999s229.23-512.001 511.999-512.001c282.77 0 512.001 229.23 512.001 512.001s-229.23 511.999-512.001 511.999zM387.183 682.155c0 11.241 0.813 21.188 2.459 29.861 1.635 8.661 4.797 15.918 9.485 21.78 4.677 5.852 11.241 10.188 19.673 12.998s19.432 4.215 33.023 4.215l46.372-0.702c38.874 0 83.611 1.405 134.199 4.215 51.049 2.811 94.852 6.324 131.388 10.539 3.743 0.461 8.079 0.813 12.998 1.054 4.597 0.224 9.983 0.351 15.399 0.351 0.144 0 0.288 0 0.432 0 11.22 0 20.003-3.282 26.326-9.837 6.324-6.565 9.486-16.16 9.486-28.806 0-12.186-3.162-21.671-9.486-28.455-6.323-6.795-16.050-11.593-29.158-14.403-13.591-2.811-52.938-5.621-118.039-8.432-65.584-2.811-128.346-4.215-188.299-4.215-5.16 0-8.903-1.296-11.241-3.864-2.349-2.58-3.513-8.080-3.513-16.511v-13.35c0-7.026 3.513-10.539 10.539-10.539h231.861c34.186 0 58.195-3.633 72.017-10.89 13.811-7.269 20.727-20.024 20.727-38.292 0-18.74-9.376-48.249-28.104-88.528-9.376-20.145-18.268-37.71-26.7-52.696-8.43-14.996-16.632-27.172-24.591-36.536-1.877-2.349-1.404-4.689 1.405-7.026 42.617-33.726 70.722-57.614 84.313-71.666 13.58-13.591 20.376-26.699 20.376-39.347 0-12.186-5.863-22.483-17.565-30.914-5.621-4.216-10.78-7.498-15.458-9.836-4.687-2.35-9.255-3.403-13.701-3.163-4.456 0.231-9.255 1.866-14.403 4.92-5.16 3.040-11.241 7.607-18.267 13.7-17.335 14.985-31.388 27.281-42.156 36.887-10.782 9.595-18.741 16.271-23.889 20.024l-16.863 13.35c-3.754 3.272-8.201 3.042-13.349-0.702-22.023-19.212-46.614-37.479-73.774-54.804-27.171-17.805-45.67-28.344-55.507-31.617-10.308-3.753-19.443-5.619-27.402-5.619-15.929 0-27.401 4.917-34.427 14.754s-10.539 18.62-10.539 26.348 2.339 14.162 7.026 19.322c4.677 4.677 16.863 11.703 36.536 21.078 19.673 8.892 40.751 21.539 63.235 37.941 22.483 15.918 33.725 25.754 33.725 29.509 0 0.462-0.472 1.164-1.405 2.109-0.471 0.46-9.134 6.553-25.996 18.267-16.402 11.703-32.562 22.242-48.48 31.617-15.458 8.892-23.186 19.201-23.186 30.915 0 7.487 4.677 16.391 14.052 26.699 8.892 10.298 18.729 15.458 29.511 15.458 10.297 0 25.172-5.621 44.615-16.863 19.432-11.241 42.035-25.997 67.801-44.264 0.462-1.405 1.285-2.108 2.46-2.108 1.163 0 2.81 1.164 4.918 3.513 2.108 2.339 5.027 6.203 8.783 11.593 3.743 5.379 8.43 12.757 14.052 22.133 7.026 11.703 12.757 23.417 17.213 35.13 4.446 11.703 6.675 19.202 6.675 22.484 0 3.744-1.053 6.083-3.162 7.026-2.108 0.933-6.444 1.405-12.998 1.405h-210.782c-7.026 0-10.539-3.282-10.539-9.837-1.877-65.584-7.498-122.725-16.863-171.437-8.432-47.777-17.334-78.23-26.699-91.339-9.375-12.186-19.212-18.268-29.51-18.268-9.837 0-19.442 2.57-28.806 7.729-8.903 5.621-13.35 12.647-13.35 21.078 0 9.365 3.744 28.808 11.241 58.316 16.391 64.64 24.591 155.035 24.591 271.206v31.617c-0.003 10.77-0.245 22.011-0.706 33.725zM191.858 748.902c7.959 10.77 16.622 16.16 25.997 16.16 9.365 0 18.267-2.108 26.699-6.324 4.677-1.877 11.593-5.39 20.727-10.539 9.134-5.16 20.958-12.186 35.481-21.078 29.037-17.808 46.372-30.453 51.993-37.941 6.081-7.498 9.134-15.93 9.134-25.293 0-9.375-4.456-19.212-13.35-29.51-9.375-9.837-18.971-14.754-28.806-14.754-7.97 0-16.16 2.811-24.591 8.432-19.212 13.58-36.305 25.173-51.29 34.779-14.997 9.595-28.104 17.444-39.346 23.537-15.929 8.432-23.889 19.432-23.889 33.023 0 9.365 3.744 19.202 11.241 29.51zM843.527 149.929c-5.862-6.784-12.768-10.649-20.727-11.593-3.754-0.46-12.296-0.933-25.645-1.404-13.35-0.462-31.266-0.933-53.75-1.404-44.966-1.407-95.554-2.109-151.763-2.109-28.104 0-53.398 0.352-75.883 1.054-22.483 0.702-42.156 1.526-59.018 2.459-34.67 2.349-60.424 7.497-77.287 15.456-17.806 7.5-38.885 23.658-63.235 48.48-8.432 8.433-16.632 12.647-24.591 12.647-7.97 0-14.293-4.918-18.971-14.753-11.714-27.162-21.78-46.022-30.212-56.561s-16.632-15.809-24.591-15.809c-7.498 0-18.267 3.282-32.32 9.837-13.591 6.564-20.376 17.334-20.376 32.32 0 20.145 10.77 41.223 32.32 63.235 22.484 22.483 39.346 36.997 50.588 43.561 3.744 2.811 5.621 5.852 5.621 9.135v169.328c0 9.365-3.513 14.052-10.539 14.052h-32.32c-13.119 0-23.427 3.744-30.915 11.241-7.498 7.487-11.241 17.565-11.241 30.212s3.744 22.715 11.241 30.212c7.487 7.487 17.796 11.241 30.915 11.241h77.287c11.241 0 20.135-1.296 26.699-3.864 6.554-2.58 11.593-6.916 15.107-12.998 3.513-6.093 5.852-14.172 7.026-24.24 1.164-10.078 1.757-22.374 1.757-36.887v-191.11c0-4.215 1.405-7.269 4.215-9.135 1.405-0.943 3.623-2.7 6.675-5.27 3.041-2.58 6.906-6.213 11.593-10.889 4.677-4.689 9.134-8.673 13.35-11.946 4.215-3.282 8.19-6.093 11.945-8.43 7.487-4.677 18.026-8.541 31.617-11.593 13.58-3.041 31.617-5.27 54.101-6.674 22.945-1.866 53.98-2.811 93.096-2.811 39.104 0 81.382 0.702 126.821 2.108l115.228 2.81c15.918 0 27.401-3.623 34.427-10.889 7.026-7.257 10.539-17.213 10.539-29.861s-2.931-22.364-8.783-29.16z" />
<glyph unicode="&#xe93e;" glyph-name="rightMore" d="M794.895 447.324c0.465-11.459-3.255-23.002-11.797-31.755l-29.218-29.894c-4.397-4.524-9.556-7.527-15.011-9.598l-407.269-422.871c-16.194-16.575-42.41-16.575-58.604 0l-29.302 29.979c-16.194 16.575-16.194 43.382 0 59.957l390.779 405.789-389.172 404.14c-16.152 16.533-16.152 43.34 0 59.83l29.218 29.936c16.152 16.533 42.325 16.533 58.477 0l404.648-420.208c6.131-1.987 11.966-4.99 16.828-9.937l29.302-29.979c9.471-9.683 12.727-22.79 11.12-35.391z" />
<glyph unicode="&#xe93f;" glyph-name="rili" d="M972.8 166.4h-435.2v-179.2h179.2c14.138 0 25.6-11.462 25.6-25.6s-11.462-25.6-25.6-25.6h-409.6c-14.138 0-25.6 11.462-25.6 25.6s11.462 25.6 25.6 25.6h179.2v179.2h-435.2c-28.277 0-51.2 22.923-51.2 51.2v691.2c0 28.277 22.923 51.2 51.2 51.2h921.6c28.277 0 51.2-22.923 51.2-51.2v-691.2c0-28.277-22.923-51.2-51.2-51.2zM972.8 883.2c0 14.138-11.462 25.6-25.6 25.6h-870.4c-14.138 0-25.6-11.462-25.6-25.6v-640c0-14.138 11.462-25.6 25.6-25.6h870.4c14.138 0 25.6 11.462 25.6 25.6v640zM409.6 576l-204.8-179.2v51.2l204.8 179.2 128-128 281.6 230.4v-51.2l-281.6-230.4z" />
<glyph unicode="&#xe940;" glyph-name="roundCheck" d="M995.762 673.022l-574.018-575.479c-0.437-0.851-0.969-1.581-1.596-2.216-15.772-15.999-37.684-25.911-61.911-25.911s-46.139 9.912-61.902 25.901l-269.497 269.365c-16.553 15.943-26.834 38.297-26.834 63.053 0 48.323 39.173 87.496 87.496 87.496 24.811 0 47.21-10.327 63.133-26.917l205.633-205.59 514.166 515.672c16.039 16.034 38.194 25.95 62.665 25.95 48.953 0 88.637-39.684 88.637-88.637 0-24.482-9.925-46.646-25.972-62.687z" />
<glyph unicode="&#xe941;" glyph-name="roundDel" d="M512 960c-282.759 0-512-229.214-512-512 0-282.759 229.241-512 512-512s512 229.241 512 512c0 282.786-229.241 512-512 512zM201.27 501.895h618.927c22.339 0 40.421-18.082 40.421-40.421v-26.947c0-22.312-18.082-40.421-40.421-40.421h-618.927c-22.339 0-40.421 18.109-40.421 40.421v26.947c0 22.339 18.082 40.421 40.421 40.421z" />
<glyph unicode="&#xe942;" glyph-name="scan" d="M884.347-64h-232.717v93.087h232.717c25.692 0 46.543 20.851 46.543 46.59v232.671h93.087v-232.671c0-77.123-62.508-139.677-139.63-139.677zM977.434 401.434h-930.867c-25.692 0-46.543 20.851-46.543 46.59 0 25.692 20.851 46.497 46.543 46.497h930.867c25.692 0 46.543-20.805 46.543-46.497 0-25.739-20.851-46.59-46.543-46.59zM930.89 820.37c0 25.692-20.851 46.497-46.543 46.497h-232.717v93.133h232.717c77.123 0 139.63-62.554 139.63-139.63v-232.764h-93.087v232.764zM93.11 820.37v-232.764h-93.087v232.764c0 77.076 62.508 139.63 139.63 139.63h232.717v-93.133h-232.717c-25.692 0-46.543-20.805-46.543-46.497zM93.11 75.677c0-25.739 20.851-46.59 46.543-46.59h232.717v-93.087h-232.717c-77.123 0-139.63 62.554-139.63 139.677v232.671h93.087v-232.671z" />
<glyph unicode="&#xe943;" glyph-name="shebeiguanli" d="M962.56 38.4h-901.12c-33.935 0-61.44 27.505-61.44 61.44v696.32c0 33.935 27.505 61.44 61.44 61.44h901.12c33.935 0 61.44-27.505 61.44-61.44v-696.32c0-33.935-27.505-61.44-61.44-61.44zM511.365 58.88h0.635c28.283 0 51.2 22.917 51.2 51.2s-22.917 51.2-51.2 51.2h-0.635c-28.283 0-51.2-22.917-51.2-51.2s22.917-51.2 51.2-51.2zM942.080 755.651c0 11.325-9.175 20.48-20.48 20.48h-819.2c-11.305 0-20.48-9.155-20.48-20.48v-532.91c0-11.305 9.175-20.48 20.48-20.48h819.2c11.305 0 20.48 9.175 20.48 20.48v532.91z" />
<glyph unicode="&#xe944;" glyph-name="shopping" d="M766.79 701.649c0 28.087-22.845 50.931-50.931 50.931s-50.931-22.845-50.931-50.931v-101.863c0-84.392-68.401-152.659-152.659-152.659s-152.659 68.401-152.659 152.659v101.863c0 28.087-22.845 50.931-50.931 50.931s-50.931-22.845-50.931-50.931v-101.863c0-140.564 113.956-254.522 254.522-254.522s254.522 113.956 254.522 254.522v101.863zM995.242 23.551c-20.023-22.173-45.691-33.596-75.524-33.596h-815.303c-29.967 0-55.635 11.423-75.658 33.73s-28.758 48.916-25.668 78.748l49.856 712.366c5.509 52.14 48.781 91.246 101.19 91.246h715.053c52.543 0 95.949-39.106 101.325-91.515l50.394-712.231c3.091-29.967-5.644-56.575-25.668-78.748z" />
<glyph unicode="&#xe945;" glyph-name="shopping-cart" d="M338.016 160q19.008 0 36-7.008t29.504-19.488 20-29.504 7.488-36-7.488-36-20-29.504-29.504-20-36-7.488q-20 0-36.992 7.488t-29.504 20-20 29.504-7.488 36 7.488 36 20 29.504 29.504 19.488 36.992 7.008zM754.016 157.984q19.008 0 36.512-7.008t30.016-19.488 20-29.504 7.488-36-7.488-36-20-29.504-30.016-20-36.512-7.488-36 7.488-29.504 20-20 29.504-7.488 36 7.488 36 20 29.504 29.504 19.488 36 7.008zM922.016 725.984q28 0 43.488-7.488t22.016-18.496 6.016-23.488-3.488-21.504-12.992-36.992-21.504-61.504-23.008-66.496-18.496-52q-12.992-40-32.512-55.488t-48.512-15.488h-524.992l14.016-90.016h504.992q48 0 48-40.992 0-20-9.504-34.496t-37.504-14.496h-524q-20 0-33.504 8.992t-22.496 23.488-14.496 31.488-8.512 32q-0.992 6.016-5.504 28.992t-11.008 57.504-14.496 76.992-16 85.504q-19.008 100.992-43.008 224.992h-75.008q-15.008 0-24.992 7.488t-16.512 18.016-8.992 22.496-2.496 22.016q0 20 13.504 32.992t36.512 12.992h100.992q20 0 32-6.016t19.008-15.008 10.016-19.008 4.992-16.992q2.016-8 4-22.496t4-29.504q3.008-18.016 6.016-38.016h684zM847.008 757.984h-366.016l132 132q23.008 23.008 50.496 23.488t50.496-22.496z" />
<glyph unicode="&#xe946;" glyph-name="Sun" d="M864 416v64.012h160v-64.012h-160zM738.269 719.535l113.14 113.14 45.254-45.254-113.14-113.14-45.254 45.254zM480 960h64v-160h-64v160zM832 448c0-176.733-143.267-320-320-320s-320 143.267-320 320 143.267 320 320 320 320-143.267 320-320zM256 448c0-141.382 114.618-256 256-256s256 114.618 256 256-114.618 256-256 256-256-114.618-256-256zM127.337 787.421l45.254 45.254 113.129-113.14-45.254-45.254-113.129 113.14zM160 416h-160v64.012h160v-64.012zM285.719 176.477l-113.129-113.14-45.254 45.254 113.129 113.14 45.254-45.254zM544-64h-64v160h64v-160zM896.663 108.591l-45.254-45.254-113.14 113.14 45.254 45.254 113.14-113.14z" />
<glyph unicode="&#xe947;" glyph-name="switch_shift" d="M957.028-19.28h-890.057c-36.868 0-66.754 29.887-66.754 66.754v734.297c0 36.868 29.887 66.754 66.754 66.754h178.012v22.251c0 24.578 19.924 44.503 44.503 44.503s44.503-19.924 44.503-44.503v-22.251h356.023v22.251c0 24.578 19.924 44.503 44.503 44.503s44.503-19.924 44.503-44.503v-22.251h178.012c36.868 0 66.754-29.887 66.754-66.754v-734.297c0-36.868-29.887-66.754-66.754-66.754zM248.454 213.67l2.225-2.225c0.563-0.649 1.145-1.24 1.763-1.79l109.227-110.535c0.334-0.378 0.667-0.712 1.046-1.046l0.868-0.89h0.289c3.75-3.317 8.709-5.342 14.142-5.342 0.014 0 0.028 0 0.042 0 10.818 0 19.77 7.995 21.272 18.399l0.77 0.382v70.359h356.023c12.289 0 22.251 9.963 22.251 22.251v22.251c0 12.289-9.963 22.251-22.251 22.251h-492.357l-0.311-0.712c-10.435-1.595-18.35-10.462-18.447-21.196 0.109-4.364 1.518-8.379 3.852-11.696zM244.983 358.994c0-12.289 9.963-22.251 22.251-22.251h492.313l0.311 0.667c10.455 1.274 18.476 10.097 18.476 20.793 0 4.486-1.41 8.642-3.812 12.049l0.311 0.557-2.225 2.225c-0.526 0.601-1.072 1.148-1.651 1.657l-111.186 112.537h-0.311c-3.748 3.308-8.701 5.327-14.125 5.327-0.014 0-0.027 0-0.041 0-10.805 0-19.749-7.976-21.266-18.362l-0.77-0.405v-70.292h-356.023c-12.289 0-22.251-9.963-22.251-22.251v-22.251zM934.777 737.268c0 12.289-9.963 22.251-22.251 22.251h-133.509v-44.503c0-24.578-19.924-44.503-44.503-44.503s-44.503 19.924-44.503 44.503v44.503h-356.023v-44.503c0-24.578-19.924-44.503-44.503-44.503s-44.503 19.924-44.503 44.503v44.503h-133.509c-12.289 0-22.251-9.963-22.251-22.251v-111.257c0-12.289 9.963-22.251 22.251-22.251h801.051c12.289 0 22.251 9.963 22.251 22.251v111.257z" />
<glyph unicode="&#xe948;" glyph-name="tianjiaBold" d="M955.733 379.733h-375.466v-375.466c0-37.703-30.564-68.267-68.267-68.267s-68.267 30.564-68.267 68.267v375.466h-375.466c-37.703 0-68.267 30.564-68.267 68.267s30.564 68.267 68.267 68.267h375.466v375.466c0 37.703 30.564 68.267 68.267 68.267s68.267-30.564 68.267-68.267v-375.466h375.466c37.703 0 68.267-30.564 68.267-68.267s-30.564-68.267-68.267-68.267z" />
<glyph unicode="&#xe949;" glyph-name="pointTicket" d="M213.334 832c-70.692 0-128-57.308-128-128v-512c0-70.692 57.308-128 128-128h597.333c70.692 0 128 57.308 128 128v512c0 70.692-57.308 128-128 128h-597.333zM181.334 780.8h661.333c23.564 0 42.667-19.103 42.667-42.667v-580.267c0-23.564-19.103-42.667-42.667-42.667h-661.333c-23.564 0-42.667 19.103-42.667 42.667v580.267c0 23.564 19.103 42.667 42.667 42.667zM741.377 688.128c0.066 0.001 0.144 0.001 0.221 0.001 10.386 0 18.841-8.264 19.149-18.576l0.001-0.583c-0.308-10.34-8.764-18.604-19.149-18.604-0.078 0-0.156 0-0.233 0.001h-139.039v-44.501h82.133c0.291 0.005 0.634 0.008 0.978 0.008 16.945 0 32.221-7.142 42.983-18.58 5.537-5.226 10.065-11.391 13.352-18.263 3.14-6.823 4.879-14.375 4.879-22.332 0-0.589-0.010-1.176-0.028-1.76l0.002-31.446c0.017-0.509 0.027-1.106 0.027-1.706 0-7.961-1.739-15.517-4.858-22.307-3.626-6.994-8.118-13.297-13.382-18.863-11.286-11.089-26.812-17.97-43.946-18.010h-360.2c-17.331 0.032-33.050 6.907-44.605 18.066-11.14 10.799-18.087 25.906-18.157 42.636v31.714c-0.002 0.193-0.004 0.422-0.004 0.651 0 16.419 6.984 31.208 18.143 41.556 11.376 11.521 27.121 18.636 44.528 18.636 0.033 0 0.067 0 0.1 0h84.987v44.501h-139.051c-0.066-0.001-0.144-0.001-0.221-0.001-10.386 0-18.841 8.264-19.149 18.576l-0.001 0.583c0.308 10.34 8.764 18.604 19.149 18.604 0.078 0 0.156 0 0.233-0.001h471.156zM469.334 223.403c0.514-0.049 1.112-0.077 1.717-0.077 5.892 0 11.164 2.654 14.686 6.832 4.137 3.637 6.797 8.816 7.062 14.618l0.002 74.968h-140.459c-0.167-1.104-0.375-2.055-0.638-2.984-14.512-44.351-32.801-82.932-55.228-118.651-1.393-2.046-5.812-5.002-10.949-5.673-1.502-0.393-3.129-0.614-4.806-0.614-3.691 0-7.133 1.068-10.033 2.911l-1.673 1.064c-4.995 3.187-8.259 8.7-8.259 14.976 0 3.657 1.109 7.055 3.008 9.877 16.582 25.513 31.252 54.893 42.483 85.92 2.149 6.39 3.899 9.206 5.221 13.174h-39.509c-10.070 0.081-18.262 8.006-18.771 17.96l-0.002 1.155c0.236 10.237 8.521 18.463 18.76 18.603h467.64c10.252-0.14 18.537-8.365 18.773-18.581v-1.131c-0.511-10-8.704-17.924-18.765-18.005h-33.416l43.989-102.4c0.863-2.061 1.365-4.456 1.365-6.968 0-7.841-4.885-14.541-11.777-17.223-2.519-1.292-5.353-2.025-8.358-2.025-2.543 0-4.964 0.525-7.16 1.472-4.68 1.771-8.436 5.403-10.376 9.99l-47.576 110.541c-0.759 1.654-1.201 3.588-1.201 5.626 0 0.408 0.018 0.811 0.052 1.21l-133.209-0.052v-74.923c-0.257-25.035-16.132-46.296-38.335-54.524-7.543-2.913-15.801-4.564-24.433-4.654h-12.838c-0.178-0.006-0.388-0.010-0.598-0.010-10.312 0-18.681 8.314-18.773 18.604v0.393c0.091 10.299 8.461 18.612 18.773 18.612 0.21 0 0.42-0.003 0.628-0.010l12.983 0.001zM736.897 425.6c0.066 0.001 0.144 0.001 0.221 0.001 10.386 0 18.841-8.264 19.149-18.576l0.001-0.583c-0.331-10.321-8.777-18.561-19.148-18.561-0.078 0-0.156 0-0.234 0.001h-461.983c-0.066-0.001-0.144-0.001-0.223-0.001-10.371 0-18.817 8.241-19.147 18.531l-0.001 0.628c0.308 10.34 8.764 18.604 19.149 18.604 0.078 0 0.156 0 0.233-0.001h461.77zM448.812 490.923h114.389v76.544h-114.603v-76.8zM308.012 561.323c-3.989-4.268-6.439-10.018-6.443-16.341v-31.531c0.004-6.323 2.454-12.073 6.455-16.355 4.026-3.827 9.502-6.19 15.53-6.19 0.311 0 0.62 0.006 0.928 0.019l84.777-0.001v76.544h-84.992c-0.314 0.016-0.682 0.025-1.052 0.025-5.988 0-11.431-2.332-15.471-6.137zM684.716 490.923c0.027 0 0.059 0 0.090 0 6.278 0 12.008 2.346 16.362 6.209 3.96 4.248 6.409 9.997 6.417 16.317v31.575c-0.004 6.323-2.454 12.073-6.455 16.355-4.302 3.778-9.996 6.091-16.231 6.091-0.154 0-0.308-0.001-0.462-0.004h-82.11v-76.8h82.133zM448.598 605.867h114.603v44.501h-114.603v-44.501z" />
</font>
</defs>
</svg>
