<?xml version="1.0" standalone="no"?>
<!DOCTYPE svg PUBLIC "-//W3C//DTD SVG 1.1//EN" "http://www.w3.org/Graphics/SVG/1.1/DTD/svg11.dtd" >
<svg xmlns="http://www.w3.org/2000/svg">
<metadata>
<json>
<![CDATA[
{
	"fontFamily": "wqmenu",
	"majorVersion": 1,
	"minorVersion": 0,
	"version": "Version 1.0",
	"fontId": "wqmenu",
	"psName": "wqmenu",
	"subFamily": "Regular",
	"fullName": "wqmenu",
	"description": "Font generated by IcoMoon."
}
]]>
</json>
</metadata>
<defs>
<font id="wqmenu" horiz-adv-x="1024">
<font-face units-per-em="1024" ascent="960" descent="-64" />
<missing-glyph horiz-adv-x="1024" />
<glyph unicode="&#x20;" horiz-adv-x="512" d="" />
<glyph unicode="&#xe900;" glyph-name="shrinkLeft" data-tags="shrinkLeft" d="M15.063 481.102l509.414 464.21c9.659 8.528 22.426 13.735 36.408 13.735s26.75-5.206 36.468-13.787l-0.060 0.052c9.252-8.104 15.064-19.941 15.064-33.136s-5.811-25.032-15.013-33.092l-0.051-0.044-473.108-431.074 473.006-430.972c9.252-8.104 15.064-19.941 15.064-33.136s-5.811-25.032-15.013-33.092l-0.051-0.044c-9.651-8.548-22.42-13.769-36.408-13.769s-26.758 5.22-36.466 13.819l0.058-0.050-509.312 464.107c-9.252 8.104-15.064 19.941-15.064 33.136s5.811 25.032 15.013 33.092l0.051 0.044zM426.706 481.102l509.414 464.21c9.659 8.528 22.426 13.735 36.408 13.735s26.75-5.206 36.468-13.787l-0.060 0.052c9.252-8.104 15.064-19.941 15.064-33.136s-5.811-25.032-15.013-33.092l-0.051-0.044-473.108-431.074 473.006-430.972c9.252-8.104 15.064-19.941 15.064-33.136s-5.811-25.032-15.013-33.092l-0.051-0.044c-9.651-8.548-22.42-13.769-36.408-13.769s-26.758 5.22-36.466 13.819l0.058-0.050-509.312 464.107c-9.252 8.104-15.064 19.941-15.064 33.136s5.811 25.032 15.013 33.092l0.051 0.044z" />
<glyph unicode="&#xe901;" glyph-name="shrinkRight" data-tags="shrinkRight" d="M1008.937 414.898l-509.414-464.21c-9.659-8.528-22.426-13.735-36.408-13.735s-26.75 5.206-36.468 13.787l0.060-0.052c-9.252 8.104-15.064 19.941-15.064 33.136s5.811 25.032 15.013 33.092l0.051 0.044 473.108 431.074-473.006 430.972c-9.252 8.104-15.064 19.941-15.064 33.136s5.811 25.032 15.013 33.092l0.051 0.044c9.651 8.548 22.42 13.769 36.408 13.769s26.758-5.22 36.466-13.819l-0.058 0.050 509.312-464.107c9.252-8.104 15.064-19.941 15.064-33.136s-5.811-25.032-15.013-33.092l-0.051-0.044zM597.294 414.898l-509.414-464.21c-9.659-8.528-22.426-13.735-36.408-13.735s-26.75 5.206-36.468 13.787l0.060-0.052c-9.252 8.104-15.064 19.941-15.064 33.136s5.811 25.032 15.013 33.092l0.051 0.044 473.108 431.074-473.006 430.972c-9.252 8.104-15.064 19.941-15.064 33.136s5.811 25.032 15.013 33.092l0.051 0.044c9.651 8.548 22.42 13.769 36.408 13.769s26.758-5.22 36.466-13.819l-0.058 0.050 509.312-464.107c9.252-8.104 15.064-19.941 15.064-33.136s-5.811-25.032-15.013-33.092l-0.051-0.044z" />
<glyph unicode="&#xe902;" glyph-name="wageTrends" data-tags="wageTrends" d="M995.556 846.222v0c15.709 0 28.444 12.735 28.444 28.444s-12.735 28.444-28.444 28.444h-967.111c-15.709 0-28.444-12.735-28.444-28.444s12.735-28.444 28.444-28.444h28.444v-625.778h-28.444c-15.709 0-28.444-12.735-28.444-28.444s12.735-28.444 28.444-28.444h426.667v-113.778h-142.222c-15.709 0-28.444-12.735-28.444-28.444s12.735-28.444 28.444-28.444h398.222c15.709 0 28.444 12.735 28.444 28.444s-12.735 28.444-28.444 28.444h-142.222v113.778h426.667c15.709 0 28.444 12.735 28.444 28.444s-12.735 28.444-28.444 28.444h-28.444v625.778h28.444zM369.778 334.222h284.444c15.709 0 28.444-12.735 28.444-28.444s-12.735-28.444-28.444-28.444v0h-284.444c-15.709 0-28.444 12.735-28.444 28.444s12.735 28.444 28.444 28.444v0zM768 533.333c-15.709 0-28.444 12.735-28.444 28.444v0 76.345l-176.924-150.3c-3.107-4.194-7.27-7.442-12.1-9.377l-0.188-0.066c-3.174-1.487-6.891-2.355-10.812-2.355-7.849 0-14.886 3.479-19.653 8.978l-0.027 0.032c-1.291 1.651-2.449 3.519-3.393 5.508l-0.077 0.181-113.152 68.039-115.541-97.849c-7.467-8.179-18.175-13.291-30.077-13.291-8.211 0-15.853 2.433-22.246 6.617l0.155-0.095c-4.452 5.513-7.147 12.606-7.147 20.328 0 11.281 5.751 21.219 14.481 27.043l0.119 0.074 123.278 104.334c7.476 8.286 18.252 13.471 30.239 13.471 8.143 0 15.726-2.393 22.087-6.513l-0.159 0.096c2.866-2.623 5.032-5.965 6.215-9.741l0.042-0.157 106.78-64.341 161.052 136.818h-66.731c-15.709 0-28.444 12.735-28.444 28.444s12.735 28.444 28.444 28.444v0h142.222c15.709 0 28.444-12.735 28.444-28.444v0-142.222c0-15.709-12.735-28.444-28.444-28.444v0z" />
<glyph unicode="&#xe903;" glyph-name="legwork" data-tags="legwork" d="M967.111-7.111h-910.222c-31.419 0-56.889 25.47-56.889 56.889v0 682.667c0 31.419 25.47 56.889 56.889 56.889v0h227.556v56.889c0 31.419 25.47 56.889 56.889 56.889v0h341.333c31.419 0 56.889-25.47 56.889-56.889v0-56.889h227.556c31.419 0 56.889-25.47 56.889-56.889v0-682.667c0-31.419-25.47-56.889-56.889-56.889v0zM682.667 817.778c0 15.709-12.735 28.444-28.444 28.444v0h-284.444c-15.709 0-28.444-12.735-28.444-28.444v0-28.444h341.333v28.444zM910.222 561.778h-796.444v-56.889h796.444v56.889z" />
<glyph unicode="&#xe904;" glyph-name="addValue" data-tags="addValue" horiz-adv-x="1154" d="M1153.531 604.495l-0.054-0.253c0.307 1.214 0.554 2.452 0.76 3.908 0 0.834-0.449 1.475-0.449 2.308v-0.011c0 0.070 0.001 0.141 0.001 0.211 0 9.188-3.482 17.562-9.17 23.846l-249.459 306.145c-1.618 3.754-3.933 7.138-6.781 9.988l0.005-0.005c-2.933 2.88-6.401 5.218-10.457 6.93l0.21-0.079c-3.83 1.618-8.039 2.514-12.458 2.516h-577.102c-0.105 0.001-0.21 0.002-0.315 0.002-4.305 0-8.412-0.849-11.949-2.31l-0.22-0.084c-3.831-1.647-7.296-3.981-10.233-6.841l0.003 0.003c-2.835-2.862-5.147-6.242-6.864-10.198l-249.291-305.91c-5.75-6.285-9.259-14.655-9.259-23.845 0-0.080 0-0.161 0.001-0.229-0.064-0.834-0.449-1.475-0.449-2.308l0.024-0.198c0.183-1.259 0.429-2.497 0.682-3.457l0.011 0.106c-0.109-0.882-0.166-1.78-0.166-2.692 0-5.332 1.925-10.214 5.092-13.958l552.916-646.091c5.404-3.309 11.759-5.216 18.559-5.216s13.156 1.907 18.404 5.128l553.046 646.020c3.193 3.775 5.119 8.658 5.119 13.989 0 0.912-0.056 1.81-0.155 2.586zM32.062 639.379h1090.112c17.707 0 32.062-14.355 32.062-32.062v0 0c0-17.707-14.355-32.062-32.062-32.062v0h-1090.112c-17.707 0-32.062 14.355-32.062 32.062v0 0c0 17.707 14.355 32.062 32.062 32.062v0zM611.874 936.531l214.688-303.179c4.659-6.289 7.458-14.2 7.458-22.766 0-12.581-6.038-23.751-15.375-30.771l-0.099-0.071c-4.531-1.959-9.808-3.099-15.35-3.099-15.858 0-29.537 9.33-35.847 22.799l-0.102 0.242-214.752 303.179c-4.627 6.275-7.405 14.159-7.405 22.693 0 12.586 6.043 23.76 15.386 30.779l0.099 0.071c4.532 1.964 9.809 3.106 15.353 3.106 15.824 0 29.476-9.305 35.78-22.743l0.102-0.242zM542.427 936.531l0.102 0.242c6.295 13.461 19.959 22.787 35.801 22.787 5.585 0 10.9-1.159 15.461-3.151l0.099-0.071c9.343-7.020 15.386-18.194 15.386-30.779 0-8.534-2.778-16.418-7.405-22.693l-214.854-303.421c-6.311-13.47-19.989-22.799-35.847-22.799-5.542 0-10.819 1.14-15.35 3.099l-0.099 0.071c-9.337 7.020-15.375 18.19-15.375 30.771 0 8.565 2.799 16.477 7.458 22.766l214.688 303.179zM382.565 624.245l221.613-637.395c-1.288-20.749-11.513-38.876-26.837-50.732l-0.16-0.119c-12.47 8.988-23.074 19.592-31.782 31.655l-0.28 0.407-220.267 623.929c-2.718 4.611-4.324 10.158-4.324 16.081 0 11.998 6.59 22.456 16.347 27.953l0.161 0.083c4.767 2.714 10.474 4.314 16.554 4.314 12.169 0 22.841-6.407 28.827-16.032l0.083-0.144zM771.735 624.245l0.084 0.145c5.98 9.654 16.668 16.085 28.859 16.085 6.119 0 11.859-1.62 16.649-4.367l0.161-0.083c9.758-5.497 16.347-15.956 16.347-27.953 0-5.923-1.606-11.47-4.324-16.081l-220.267-623.929c-9.939-16.352-14.877-41.488-32.062-32.062l-0.296 0.113c-16.218 6.966-27.576 23.083-27.576 41.852 0 3.144 0.319 6.214 0.875 8.885l221.613 637.395z" />
<glyph unicode="&#xe905;" glyph-name="EAM" data-tags="EAM" d="M910.222 504.889c-0.78-11.11-5.807-20.913-13.451-27.904l-0.032-0.029c-37.931 17.674-82.348 27.986-129.172 27.986-96.598 0-182.946-43.886-240.193-112.808l-0.413-0.512q-21.333-0.512-43.406-0.512c-235.634 0-426.667 51.2-426.667 113.778v-80.27c81.408-53.76 241.835-90.396 426.667-90.396h6.030c-21.86-41.35-34.692-90.382-34.692-142.411 0-30.327 4.36-59.636 12.487-87.334l-0.551 2.19c-227.897 2.56-409.941 52.395-409.941 113.778v-80.27c81.408-53.76 241.835-90.396 426.667-90.396h5.689c23.036-44.386 54.758-81.292 93.177-109.645l0.86-0.606c-32.028-2.219-65.593-3.527-99.726-3.527-267.036 0-483.556 76.402-483.556 170.667v682.667c0 94.265 216.519 170.667 483.556 170.667s483.556-76.402 483.556-170.667v-355.954c-16.59 13.68-35.242 26.007-55.134 36.269l-1.755 0.823v34.418zM910.222 789.333c0-62.578-191.033-113.778-426.667-113.778s-426.667 51.2-426.667 113.778v-80.27c81.408-53.76 241.835-90.396 426.667-90.396s345.259 36.636 426.667 90.396v80.27zM768 448c141.385 0 256-114.615 256-256s-114.615-256-256-256c-141.385 0-256 114.615-256 256v0c0 141.385 114.615 256 256 256v0zM654.222 163.556c-15.709 0-28.444-12.735-28.444-28.444s12.735-28.444 28.444-28.444v0h85.333v-56.889c0-15.709 12.735-28.444 28.444-28.444s28.444 12.735 28.444 28.444v0 56.889h85.333c15.709 0 28.444 12.735 28.444 28.444s-12.735 28.444-28.444 28.444v0h-85.333v56.889h85.333c15.709 0 28.444 12.735 28.444 28.444s-12.735 28.444-28.444 28.444v0h-45.113l35.783 35.385c5.375 5.296 8.706 12.656 8.706 20.793s-3.33 15.496-8.702 20.789l-0.004 0.003c-5.407 5.319-12.83 8.604-21.020 8.604s-15.613-3.284-21.024-8.608l0.004 0.004-63.033-62.578-63.090 62.578c-5.407 5.319-12.83 8.604-21.020 8.604s-15.613-3.284-21.024-8.608l0.004 0.004c-5.375-5.296-8.706-12.656-8.706-20.793s3.33-15.496 8.702-20.789l0.004-0.003 35.726-35.385h-43.748c-15.709 0-28.444-12.735-28.444-28.444s12.735-28.444 28.444-28.444v0h85.333v-56.889h-85.333z" />
<glyph unicode="&#xe906;" glyph-name="payPermissions" data-tags="payPermissions" d="M967.111-7.111h-341.333c-31.419 0-56.889 25.47-56.889 56.889v0 227.556c0 31.419 25.47 56.889 56.889 56.889v0c0 94.257 76.41 170.667 170.667 170.667s170.667-76.41 170.667-170.667v0c31.419 0 56.889-25.47 56.889-56.889v0-227.556c0-31.419-25.47-56.889-56.889-56.889v0zM796.444 448c-62.838 0-113.778-50.94-113.778-113.778v0h227.556c0 62.838-50.94 113.778-113.778 113.778v0zM796.444 561.778c-105.367-0.108-193.956-71.813-219.745-169.079l-0.358-1.587h-35.897c-15.709 0-28.444-12.735-28.444-28.444v0-369.778h-455.111c-31.419 0-56.889 25.47-56.889 56.889v0 682.667h1024v-341.333h-7.452c-26.148 98.854-114.737 170.558-220.091 170.667h-0.012zM170.667 248.889c0 15.709-12.735 28.444-28.444 28.444s-28.444-12.735-28.444-28.444v0-113.778c0-15.709 12.735-28.444 28.444-28.444s28.444 12.735 28.444 28.444v0 113.778zM284.444 248.889c0 15.709-12.735 28.444-28.444 28.444s-28.444-12.735-28.444-28.444v0-113.778c0-15.709 12.735-28.444 28.444-28.444s28.444 12.735 28.444 28.444v0 113.778zM398.222 248.889c0 15.709-12.735 28.444-28.444 28.444s-28.444-12.735-28.444-28.444v0-113.778c0-15.709 12.735-28.444 28.444-28.444s28.444 12.735 28.444 28.444v0 113.778zM0 846.222c0 31.419 25.47 56.889 56.889 56.889v0h910.222c31.419 0 56.889-25.47 56.889-56.889v0-56.889h-1024v56.889z" />
<glyph unicode="&#xe907;" glyph-name="flowManagement" data-tags="flowManagement" d="M853.333 49.778c-94.257 0-170.667 76.41-170.667 170.667s76.41 170.667 170.667 170.667c94.257 0 170.667-76.41 170.667-170.667v0c0-94.257-76.41-170.667-170.667-170.667v0zM729.998 724.196c5.637 18.090 9.097 38.932 9.553 60.514l0.004 0.243c128.872-75.691 216.264-209.959 225.617-365.273l0.061-1.262c-16.776 9.605-36.192 17.421-56.706 22.436l-1.548 0.32c-15.523 118.938-81.557 219.906-175.501 282.101l-1.48 0.921zM512 618.667c-94.257 0-170.667 76.41-170.667 170.667s76.41 170.667 170.667 170.667c94.257 0 170.667-76.41 170.667-170.667v0c0-94.257-76.41-170.667-170.667-170.667v0zM117.020 441.344c-22.063-5.334-41.479-13.15-59.368-23.34l1.114 0.584c9.473 156.509 96.851 290.704 223.548 365.206l2.13 1.158c0.394-21.818 3.796-42.691 9.809-62.426l-0.422 1.612c-95.306-63.1-161.263-163.971-176.595-280.78l-0.216-2.014zM341.333 220.444c0-94.257-76.41-170.667-170.667-170.667s-170.667 76.41-170.667 170.667c0 94.257 76.41 170.667 170.667 170.667v0c94.257 0 170.667-76.41 170.667-170.667v0zM512-7.111c0.028 0 0.062 0 0.095 0 72.23 0 139.943 19.341 198.243 53.127l-1.901-1.016c15.729-13.042 33.705-24.215 53.097-32.763l1.459-0.574c-70.6-47.378-157.499-75.616-250.994-75.616s-180.394 28.238-252.634 76.651l1.64-1.035c20.852 9.117 38.828 20.29 54.934 33.641l-0.377-0.304c56.399-32.769 124.112-52.11 196.342-52.11 0.034 0 0.067 0 0.101 0h-0.005z" />
<glyph unicode="&#xe908;" glyph-name="expenseMangement" data-tags="expenseMangement" d="M455.111 192c0-0.013 0-0.030 0-0.046 0-105.482 52.291-198.75 132.366-255.297l0.982-0.658h-531.57c-31.419 0-56.889 25.47-56.889 56.889v0 910.222c0 31.419 25.47 56.889 56.889 56.889v0h853.333c31.419 0 56.889-25.47 56.889-56.889v0-469.732c-53.656 44.517-123.229 71.53-199.111 71.53-172.804 0-312.889-140.085-312.889-312.889 0-0.007 0-0.014 0-0.021v0.001zM256 220.444h56.889c15.709 0 28.444 12.735 28.444 28.444s-12.735 28.444-28.444 28.444v0h-56.889c-15.709 0-28.444-12.735-28.444-28.444s12.735-28.444 28.444-28.444v0zM256 448h170.667c15.709 0 28.444 12.735 28.444 28.444s-12.735 28.444-28.444 28.444v0h-170.667c-15.709 0-28.444-12.735-28.444-28.444s12.735-28.444 28.444-28.444v0zM597.333 732.444h-341.333c-15.709 0-28.444-12.735-28.444-28.444s12.735-28.444 28.444-28.444v0h341.333c15.709 0 28.444 12.735 28.444 28.444s-12.735 28.444-28.444 28.444v0zM512 192c0 141.385 114.615 256 256 256s256-114.615 256-256c0-141.385-114.615-256-256-256v0c-141.385 0-256 114.615-256 256v0zM654.222 163.556c-15.709 0-28.444-12.735-28.444-28.444s12.735-28.444 28.444-28.444v0h85.333v-56.889c0-15.709 12.735-28.444 28.444-28.444s28.444 12.735 28.444 28.444v0 56.889h85.333c15.709 0 28.444 12.735 28.444 28.444s-12.735 28.444-28.444 28.444v0h-85.333v56.889h85.333c15.709 0 28.444 12.735 28.444 28.444s-12.735 28.444-28.444 28.444v0h-45.113l35.726 35.385c5.375 5.296 8.706 12.656 8.706 20.793s-3.33 15.496-8.702 20.789l-0.004 0.003c-5.407 5.319-12.83 8.604-21.020 8.604s-15.613-3.284-21.024-8.608l0.004 0.004-63.033-62.578-63.090 62.578c-5.407 5.319-12.83 8.604-21.020 8.604s-15.613-3.284-21.024-8.608l0.004 0.004c-5.375-5.296-8.706-12.656-8.706-20.793s3.33-15.496 8.702-20.789l0.004-0.003 35.783-35.385h-43.748c-15.709 0-28.444-12.735-28.444-28.444s12.735-28.444 28.444-28.444v0h85.333v-56.889h-85.333z" />
<glyph unicode="&#xe909;" glyph-name="developApi" data-tags="developApi" d="M967.111-7.111h-910.222c-31.419 0-56.889 25.47-56.889 56.889v0 625.778h1024v-625.778c0-31.419-25.47-56.889-56.889-56.889v0zM341.333 504.889h-56.889l-113.778-341.333h56.889l28.444 85.333h113.778l28.444-85.333h56.889zM625.778 504.889h-113.778v-341.333h56.889v113.778h56.889c62.838 0 113.778 50.94 113.778 113.778s-50.94 113.778-113.778 113.778v0zM853.333 504.889h-56.889v-341.333h56.889v341.333zM625.778 334.222h-56.889v113.778h56.889c31.419 0 56.889-25.47 56.889-56.889s-25.47-56.889-56.889-56.889v0zM312.889 419.556l37.945-113.778h-75.89zM0 846.222c0 31.419 25.47 56.889 56.889 56.889v0h910.222c31.419 0 56.889-25.47 56.889-56.889v0-113.778h-1024v113.778zM341.333 789.333h56.889v56.889h-56.889v-56.889zM227.556 789.333h56.889v56.889h-56.889v-56.889zM113.778 789.333h56.889v56.889h-56.889v-56.889z" />
<glyph unicode="&#xe90a;" glyph-name="notice" data-tags="notice" d="M967.111-7.111h-910.222c-31.419 0-56.889 25.47-56.889 56.889v0 625.778c0 31.419 25.47 56.889 56.889 56.889v0h113.778l285.582 181.703c5.4 26.25 28.317 45.709 55.78 45.709s50.38-19.459 55.716-45.341l0.063-0.368 285.525-181.703h113.778c31.419 0 56.889-25.47 56.889-56.889v0-625.778c0-31.419-25.47-56.889-56.889-56.889v0zM256 163.556h312.889c15.709 0 28.444 12.735 28.444 28.444s-12.735 28.444-28.444 28.444v0h-312.889c-15.709 0-28.444-12.735-28.444-28.444s12.735-28.444 28.444-28.444v0zM256 334.222h455.111c15.709 0 28.444 12.735 28.444 28.444s-12.735 28.444-28.444 28.444v0h-455.111c-15.709 0-28.444-12.735-28.444-28.444s12.735-28.444 28.444-28.444v0zM256 504.889h199.111c15.709 0 28.444 12.735 28.444 28.444s-12.735 28.444-28.444 28.444v0h-199.111c-15.709 0-28.444-12.735-28.444-28.444s12.735-28.444 28.444-28.444v0zM554.553 865.678c-10.369-12.041-25.633-19.618-42.667-19.618s-32.298 7.577-42.605 19.545l-0.062 0.073-209.18-133.234h503.865z" />
<glyph unicode="&#xe90b;" glyph-name="recommended" data-tags="recommended" d="M455.566 448l21.163-190.976 320.512-321.024h-740.352c-31.419 0-56.889 25.47-56.889 56.889v0 910.222c0 31.419 25.47 56.889 56.889 56.889v0h853.333c31.419 0 56.889-25.47 56.889-56.889v0-797.98l-320.967 321.536zM256 220.444h113.778c15.709 0 28.444 12.735 28.444 28.444s-12.735 28.444-28.444 28.444v0h-113.778c-15.709 0-28.444-12.735-28.444-28.444s12.735-28.444 28.444-28.444v0zM256 448h113.778c15.709 0 28.444 12.735 28.444 28.444s-12.735 28.444-28.444 28.444v0h-113.778c-15.709 0-28.444-12.735-28.444-28.444s12.735-28.444 28.444-28.444v0zM540.444 732.444h-284.444c-15.709 0-28.444-12.735-28.444-28.444s12.735-28.444 28.444-28.444v0h284.444c15.709 0 28.444 12.735 28.444 28.444s-12.735 28.444-28.444 28.444v0zM555.349 262.827l-42.951 128.284 128.171-42.951 234.553-234.553-85.333-85.333zM960.455 28.274c4.381-5.888 7.013-13.303 7.013-21.333s-2.632-15.445-7.081-21.429l0.068 0.096-42.667-42.61c-5.888-4.381-13.303-7.013-21.333-7.013s-15.445 2.632-21.429 7.081l0.096-0.068-42.667 42.61 85.333 85.333z" />
<glyph unicode="&#xe90c;" glyph-name="smartSalary" data-tags="smartSalary" d="M958.692 539.364c-5.505 25.782-12.207 47.956-20.5 69.335l1.044-3.060c16.473 20.991 26.418 47.788 26.418 76.908 0 14.315-2.403 28.068-6.828 40.878l0.264-0.88c-8.065 13.506-20.25 23.835-34.799 29.368l-0.472 0.158c-18.087 24.297-37.063 45.763-57.676 65.535l-0.18 0.172c6.136 0.863 13.225 1.355 20.429 1.355 51.331 0 96.822-25.003 124.959-63.495l0.305-0.437c28.615-53.077 6.258-130.844-52.964-215.836zM595.911 293.035c-18.546-11.378-36.978-22.016-55.296-32.313v101.945h113.778c15.709 0 28.444 12.735 28.444 28.444s-12.735 28.444-28.444 28.444v0h-113.778v56.889h113.778c15.709 0 28.444 12.735 28.444 28.444s-12.735 28.444-28.444 28.444v0h-83.058l75.036 87.836c4.961 6.099 7.965 13.963 7.965 22.528s-3.005 16.429-8.017 22.594l0.052-0.066c-4.53 5.711-11.47 9.342-19.257 9.342s-14.727-3.63-19.218-9.291l-0.039-0.051-96.199-112.64-96.37 112.64c-4.531 5.69-11.457 9.306-19.228 9.306s-14.698-3.615-19.19-9.256l-0.038-0.050c-4.961-6.099-7.965-13.963-7.965-22.528s3.005-16.429 8.017-22.594l-0.052 0.066 75.15-87.836h-82.204c-15.709 0-28.444-12.735-28.444-28.444s12.735-28.444 28.444-28.444v0h113.778v-56.889h-113.778c-15.709 0-28.444-12.735-28.444-28.444s12.735-28.444 28.444-28.444v0h113.778v-113.778c0.144-5.922 2.129-11.355 5.401-15.776l-0.053 0.075c-88.252-49.743-191.446-85.024-301.192-99.539l-4.358-0.471c-77.982 81.547-125.982 192.331-125.982 314.325 0 251.351 203.76 455.111 455.111 455.111 194.567 0 360.617-122.094 425.713-293.846l1.041-3.128c-89.924-128.755-204.775-233.794-338.244-309.935l-5.080-2.669zM238.251 84.764c-110.876-18.375-194.958-1.252-225.849 55.751-7.419 18.089-11.725 39.084-11.725 61.085 0 32.148 9.195 62.149 25.099 87.515l-0.403-0.689c9.891-29.647 20.762-54.748 33.484-78.717l-1.341 2.771c-0.206-2.043-0.323-4.416-0.323-6.816 0-11.875 2.874-23.079 7.965-32.954l-0.189 0.403c21.718-26.387 54.382-43.084 90.947-43.084 9.758 0 19.238 1.189 28.304 3.43l-0.808-0.169c16.71-17.343 34.619-33.25 53.696-47.696l1.145-0.831zM958.692 539.364c5.937-27.572 9.337-59.247 9.337-91.716 0-251.351-203.76-455.111-455.111-455.111-103.674 0-199.252 34.666-275.774 93.039l1.107-0.811c145.916 30.237 275.159 84.643 389.944 159.386l-4.352-2.657c132.352 78.504 243.583 177.947 332.798 295.065l2.050 2.805z" />
<glyph unicode="&#xe90d;" glyph-name="wageSetting" data-tags="wageSetting" d="M1014.158 412.046c-10.020 17.123-28.321 28.443-49.266 28.443-10.473 0-20.285-2.83-28.712-7.767l0.269 0.145-26.226-15.132v30.265c0 31.419-25.47 56.889-56.889 56.889v0h-113.778c-31.419 0-56.889-25.47-56.889-56.889v0-30.265l-26.226 15.132c-8.159 4.791-17.971 7.621-28.444 7.621-20.945 0-39.247-11.319-49.121-28.174l-0.145-0.268-56.889-98.532c-4.791-8.159-7.621-17.971-7.621-28.444 0-20.945 11.319-39.247 28.174-49.121l0.268-0.145 26.226-15.36-26.226-15.132c-17.123-10.020-28.443-28.321-28.443-49.266 0-10.473 2.83-20.285 7.767-28.712l-0.145 0.269 56.889-98.532 18.603-36.181h-540.444c-31.419 0-56.889 25.47-56.889 56.889v0 682.667h1024v-337.465zM170.667 248.889c0 15.709-12.735 28.444-28.444 28.444s-28.444-12.735-28.444-28.444v0-113.778c0-15.709 12.735-28.444 28.444-28.444s28.444 12.735 28.444 28.444v0 113.778zM284.444 248.889c0 15.709-12.735 28.444-28.444 28.444s-28.444-12.735-28.444-28.444v0-113.778c0-15.709 12.735-28.444 28.444-28.444s28.444 12.735 28.444 28.444v0 113.778zM398.222 248.889c0 15.709-12.735 28.444-28.444 28.444s-28.444-12.735-28.444-28.444v0-113.778c0-15.709 12.735-28.444 28.444-28.444s28.444 12.735 28.444 28.444v0 113.778zM0 846.222c0 31.419 25.47 56.889 56.889 56.889v0h910.222c31.419 0 56.889-25.47 56.889-56.889v0-56.889h-1024v56.889zM584.078 170.382l36.978 20.196c-2.477 8.704-4.276 18.89-5.034 29.364l-0.029 0.502c0.785 11.074 2.605 21.358 5.381 31.241l-0.261-1.090-36.978 20.196c-8.991 4.671-15.026 13.913-15.026 24.564 0 5.282 1.484 10.217 4.058 14.411l-0.069-0.12 30.094 49.266c5.612 8.639 15.215 14.272 26.133 14.272 5.503 0 10.672-1.431 15.155-3.942l-0.157 0.081 36.636-19.968c15.683 13.012 33.963 23.598 53.854 30.828l1.272 0.404v10.524c0 31.419 25.47 56.889 56.889 56.889v0h7.111c31.419 0 56.889-25.47 56.889-56.889v0-10.524c21.162-7.634 39.443-18.22 55.428-31.476l-0.303 0.244 36.636 19.968c4.316 2.415 9.47 3.838 14.956 3.838 10.908 0 20.503-5.623 26.045-14.129l30.167-49.386c2.505-4.074 3.99-9.009 3.99-14.291 0-10.651-6.035-19.893-14.873-24.492l-0.153-0.072-37.035-20.196c2.512-8.791 4.331-19.074 5.091-29.651l0.029-0.5c-0.121-10.983-1.316-21.616-3.486-31.89l0.187 1.056 35.214-19.228c8.991-4.671 15.026-13.913 15.026-24.564 0-5.282-1.484-10.217-4.058-14.411l0.069 0.12-30.094-49.266c-5.614-8.625-15.209-14.248-26.118-14.248-5.486 0-10.64 1.422-15.114 3.919l0.158-0.081-35.499 19.399c-16.088-13.017-34.83-23.579-55.181-30.718l-1.31-0.4v-38.457c-0.469-15.814-13.401-28.456-29.286-28.456-0.284 0-0.568 0.004-0.85 0.012l0.041-0.001h-60.302c-0.241-0.007-0.524-0.011-0.809-0.011-15.885 0-28.817 12.641-29.285 28.412l-0.001 0.043v38.571c-21.344 7.672-39.78 18.357-55.876 31.756l0.296-0.239-36.409-19.911c-4.326-2.43-9.495-3.861-14.998-3.861-10.918 0-20.52 5.633-26.059 14.151l-0.073 0.12-30.094 49.266c-2.505 4.074-3.99 9.009-3.99 14.291 0 10.651 6.035 19.893 14.873 24.492l0.153 0.072zM796.444 163.556c31.419 0 56.889 25.47 56.889 56.889s-25.47 56.889-56.889 56.889c-31.419 0-56.889-25.47-56.889-56.889v0c0-31.419 25.47-56.889 56.889-56.889v0z" />
<glyph unicode="&#xe90e;" glyph-name="kpiManagement" data-tags="kpiManagement" d="M58416.924 36674.844c-5.156-5.197-12.3-8.414-20.196-8.414s-15.040 3.217-20.194 8.412l-0.002 0.002-463.644 409.202-99.556-87.609 64.284-56.889 35.271 31.516 397.084-356.068 1.138-326.997c0-31.419-25.47-56.889-56.889-56.889v0h-256v227.556c-0.132 21.043-11.95 39.296-29.286 48.608l-0.296 0.145 1.138-219.42c0-31.419-25.47-56.889-56.889-56.889v0h-256v8.704c-8.052-5.237-17.849-8.448-28.377-8.703l-0.067-0.001h-256v8.704c-8.052-5.237-17.849-8.448-28.377-8.703l-0.067-0.001h-256v227.556c0 31.419-25.47 56.889-56.889 56.889v0h-56.889c-31.419 0-56.889-25.47-56.889-56.889v0-227.556h-256c-10.594 0.285-20.384 3.49-28.663 8.836l0.219-0.132v-8.704h-256c-10.594 0.285-20.384 3.49-28.663 8.836l0.219-0.132v-8.704h-256c-10.594 0.285-20.384 3.49-28.663 8.836l0.219-0.132v-8.704h-256c-31.419 0-56.889 25.47-56.889 56.889v0l1.308 327.111 396.914 356.068 35.1-31.516 64.228 56.661-99.328 87.609-463.701-409.202c-5.147-5.146-12.257-8.328-20.11-8.328s-14.963 3.183-20.11 8.328v0c-5.146 5.147-8.328 12.257-8.328 20.11s3.183 14.963 8.328 20.11v0l483.271 426.667s0 0.512 0.284 0.683c5.139 5.099 12.218 8.251 20.033 8.251 0.117 0 0.234-0.001 0.351-0.002h-0.018c0.099 0.001 0.216 0.002 0.334 0.002 7.815 0 14.893-3.151 20.034-8.253l-0.002 0.002c0.094-0.272 0.19-0.498 0.299-0.715l-0.015 0.033 121.572-107.292 121.572 107.008s0 0.512 0.284 0.683c5.139 5.099 12.218 8.251 20.033 8.251 0.117 0 0.234-0.001 0.351-0.002h-0.018c0.099 0.001 0.216 0.002 0.334 0.002 7.815 0 14.893-3.151 20.034-8.253l-0.002 0.002s0-0.455 0.284-0.683l121.572-107.292 121.572 107.292s0 0.512 0.284 0.683c5.139 5.099 12.218 8.251 20.033 8.251 0.117 0 0.234-0.001 0.351-0.002h-0.018c0.099 0.001 0.216 0.002 0.334 0.002 7.815 0 14.893-3.151 20.034-8.253l-0.002 0.002s0-0.455 0.284-0.683l121.572-107.292 121.742 107.292v0.683c5.139 5.1 12.219 8.252 20.034 8.252 0.157 0 0.313-0.001 0.469-0.004h-0.024c0.133 0.002 0.289 0.003 0.446 0.003 7.815 0 14.895-3.152 20.036-8.254l-0.002 0.002v-0.683l7.964-6.884 7.964 6.884v0.683c5.139 5.1 12.219 8.252 20.034 8.252 0.157 0 0.313-0.001 0.469-0.004h-0.024c0.133 0.002 0.289 0.003 0.446 0.003 7.815 0 14.895-3.152 20.036-8.254l-0.002 0.002v-0.683l93.298-82.204 93.298 82.204v0.683c5.139 5.1 12.219 8.252 20.034 8.252 0.157 0 0.313-0.001 0.469-0.004h-0.024c0.133 0.002 0.289 0.003 0.446 0.003 7.815 0 14.895-3.152 20.036-8.254l-0.002 0.002v-0.683l7.964-6.884 7.964 6.884v0.683c5.139 5.1 12.219 8.252 20.034 8.252 0.157 0 0.313-0.001 0.469-0.004h-0.024c0.133 0.002 0.289 0.003 0.446 0.003 7.815 0 14.895-3.152 20.036-8.254l-0.002 0.002v-0.683l93.298-82.204 93.298 82.204v0.683c5.139 5.1 12.219 8.252 20.034 8.252 0.157 0 0.313-0.001 0.469-0.004h-0.024c0.133 0.002 0.289 0.003 0.446 0.003 7.815 0 14.895-3.152 20.036-8.254l-0.002 0.002v-0.683l7.964-6.884 7.964 6.884v0.683c5.139 5.1 12.219 8.252 20.034 8.252 0.157 0 0.313-0.001 0.469-0.004h-0.024c0.133 0.002 0.289 0.003 0.446 0.003 7.815 0 14.895-3.152 20.036-8.254l-0.002 0.002v-0.683l121.742-107.292 121.742 107.292v0.683c5.139 5.1 12.219 8.252 20.034 8.252 0.157 0 0.313-0.001 0.469-0.004h-0.024c0.133 0.002 0.289 0.003 0.446 0.003 7.815 0 14.895-3.152 20.036-8.254l-0.002 0.002v-0.683l483.556-426.667c4.899-5.183 7.911-12.196 7.911-19.911s-3.012-14.728-7.924-19.925l0.013 0.014zM56269.483 36939.036l-42.496-37.433 64.569-57.913 64.569 57.913-64.569 56.889zM56433.778 37083.932l-99.328-87.609 64.228-56.889 35.1 31.516 35.1-31.516 64.228 56.661zM56576 36958.436l-2.674-2.389-61.895-54.556 64.569-57.913 64.512 57.913-42.439 37.433zM56718.222 37083.932l-99.328-87.609 18.489-16.327 45.511-40.334 35.1 31.516 35.1-31.516 64.228 56.661zM56911.076 36913.721l-7.964 7.054-14.222 12.572-64.796-56.889 36.352-32.597 59.164 52.85 3.413 3.356 1.707 1.707zM57031.111 37058.844l-99.556-87.666 35.84-31.516 35.271 31.516 28.444-25.543 28.444 25.543 6.827-6.201 35.84 31.346zM57173.333 36933.348l-35.84-31.858 35.84-32.37 7.396 6.827 28.444 25.543zM57315.556 37058.844l-71.111-62.578 35.84-31.346 6.827 6.201 28.444-25.543 28.444 25.543 6.827-6.201 35.84 31.346zM57457.778 36933.348l-35.84-31.858 35.84-32.37 35.84 32.37zM57600 37058.844l-71.111-62.578 35.84-31.346 6.827 6.201 28.444-25.543 28.444 25.543 35.271-31.516 35.84 31.516zM57742.222 36933.348l-35.84-31.858 64.284-57.913 36.409 32.597zM967.111-7.111h-56.889c-31.419 0-56.889 25.47-56.889 56.889v0 284.444c0 31.419 25.47 56.889 56.889 56.889v0h56.889c31.419 0 56.889-25.47 56.889-56.889v0-284.444c0-31.419-25.47-56.889-56.889-56.889v0zM967.111 504.889c-31.419 0-56.889 25.47-56.889 56.889v0 93.98l-368.014-364.089c-10.060-9.875-23.86-15.97-39.083-15.97s-29.023 6.095-39.091 15.978l0.009-0.008-156.331 154.453-213.276-211.115c-10.060-9.875-23.86-15.97-39.083-15.97s-29.023 6.095-39.091 15.978l0.009-0.008c-9.994 9.814-16.188 23.469-16.188 38.571s6.194 28.756 16.18 38.563l0.008 0.008 252.302 249.628c10.075 9.958 23.932 16.11 39.225 16.11s29.15-6.151 39.23-16.115l156.041-154.107 328.533 324.779h-92.046c-31.419 0-56.889 25.47-56.889 56.889s25.47 56.889 56.889 56.889v0h227.556c31.419 0 56.889-25.47 56.889-56.889v0-227.556c0-31.419-25.47-56.889-56.889-56.889v0zM56.889 163.556h56.889c31.419 0 56.889-25.47 56.889-56.889v0-56.889c0-31.419-25.47-56.889-56.889-56.889v0h-56.889c-31.419 0-56.889 25.47-56.889 56.889v0 56.889c0 31.419 25.47 56.889 56.889 56.889v0zM341.333 220.444h56.889c31.419 0 56.889-25.47 56.889-56.889v0-113.778c0-31.419-25.47-56.889-56.889-56.889v0h-56.889c-31.419 0-56.889 25.47-56.889 56.889v0 113.778c0 31.419 25.47 56.889 56.889 56.889v0zM625.778 277.333h56.889c31.419 0 56.889-25.47 56.889-56.889v0-170.667c0-31.419-25.47-56.889-56.889-56.889v0h-56.889c-31.419 0-56.889 25.47-56.889 56.889v0 170.667c0 31.419 25.47 56.889 56.889 56.889v0z" />
<glyph unicode="&#xe90f;" glyph-name="recommended2" data-tags="recommended2" d="M967.111 163.556v0c31.419 0 56.889 25.47 56.889 56.889v625.778c0 31.419-25.47 56.889-56.889 56.889h-910.222c-31.419 0-56.889-25.47-56.889-56.889v-853.333l284.444 170.667h682.667zM768 618.667h-341.333c-15.709 0-28.444 12.735-28.444 28.444s12.735 28.444 28.444 28.444v0h341.333c15.709 0 28.444-12.735 28.444-28.444s-12.735-28.444-28.444-28.444v0zM426.667 448h227.556c15.709 0 28.444-12.735 28.444-28.444s-12.735-28.444-28.444-28.444v0h-227.556c-15.709 0-28.444 12.735-28.444 28.444s12.735 28.444 28.444 28.444v0z" />
<glyph unicode="&#xe910;" glyph-name="attendancePermissions" data-tags="attendancePermissions" d="M967.111-7.111h-341.333c-31.419 0-56.889 25.47-56.889 56.889v0 227.556c0 31.419 25.47 56.889 56.889 56.889v0 0c0 94.257 76.41 170.667 170.667 170.667s170.667-76.41 170.667-170.667v0c31.419 0 56.889-25.47 56.889-56.889v0-227.556c0-31.419-25.47-56.889-56.889-56.889v0zM796.444 448c-62.838 0-113.778-50.94-113.778-113.778v0h227.556c0 62.838-50.94 113.778-113.778 113.778v0zM796.444 561.778c-105.367-0.108-193.956-71.813-219.745-169.079l-0.358-1.587h-35.897c-15.709 0-28.444-12.735-28.444-28.444v0-369.778h-455.111c-31.419 0-56.889 25.47-56.889 56.889v0 682.667h1024v-341.333h-7.452c-26.148 98.854-114.737 170.558-220.091 170.667h-0.012zM0 846.222c0 31.419 25.47 56.889 56.889 56.889v0h910.222c31.419 0 56.889-25.47 56.889-56.889v0-56.889h-1024v56.889z" />
<glyph unicode="&#xe911;" glyph-name="couture" data-tags="couture" d="M753.38 22.187l-281.6 281.6-234.496-234.496-160.882 160.939 234.439 234.439-281.6 281.6c-10.291 10.294-16.656 24.514-16.656 40.22s6.365 29.926 16.656 40.221l120.718 120.661c10.294 10.291 24.514 16.656 40.22 16.656s29.926-6.365 40.221-16.656l281.6-281.543 160.882 160.882 160.882-160.882-160.882-160.939 281.6-281.6c10.291-10.294 16.656-24.514 16.656-40.22s-6.365-29.926-16.656-40.221l-120.661-120.661c-10.294-10.291-24.514-16.656-40.22-16.656s-29.926 6.365-40.221 16.656v0zM270.62 826.709l-40.22 40.22-80.441-80.441 40.22-40.22zM391.339 706.048l-40.277 40.22-80.441-80.441 40.22-40.277zM753.38 344.007l-40.22 40.22-80.441-80.441 40.22-40.22zM874.041 223.346l-40.22 40.22-80.441-80.441 40.22-40.22zM793.6 947.371c10.294 10.291 24.514 16.656 40.22 16.656s29.926-6.365 40.221-16.656l80.441-80.441c10.291-10.294 16.656-24.514 16.656-40.22s-6.365-29.926-16.656-40.221l-80.441-80.441-160.939 160.882zM-4.039-11.15l40.22 201.159 160.882-160.882z" />
<glyph unicode="&#xe912;" glyph-name="expenseSearch" data-tags="expenseSearch" horiz-adv-x="1226" d="M1090.014 449.056c0-0.954 0.681-1.976 0.681-2.929-39.284 23.252-86.581 36.992-137.086 36.992-150.5 0-272.503-122.004-272.503-272.503s122.004-272.503 272.503-272.503c0.054 0 0.108 0 0.162 0h-885.645c-37.625 0-68.126 30.501-68.126 68.126v0 306.566c75.25 0 136.252 61.002 136.252 136.252s-61.002 136.252-136.252 136.252v0 306.566c0 37.625 30.501 68.126 68.126 68.126v0h1090.014c37.625 0 68.126-30.501 68.126-68.126v0-306.566c-75.25 0-136.252-61.002-136.252-136.252v0zM579.070 483.119c18.812 0 34.063 15.25 34.063 34.063s-15.25 34.063-34.063 34.063v0h-69.488l59.951 73.372c5.729 7.023 9.2 16.084 9.2 25.956s-3.471 18.933-9.259 26.031l0.059-0.075c-4.798 6.558-12.467 10.769-21.119 10.769s-16.321-4.211-21.068-10.696l-0.051-0.073-85.157-103.892-84.476 103.892c-4.935 6.564-12.707 10.764-21.46 10.764s-16.525-4.2-21.41-10.695l-0.049-0.069c-5.422-7.133-8.686-16.163-8.686-25.956s3.264-18.823 8.764-26.063l-0.078 0.107 59.951-73.372h-68.126c-18.812 0-34.063-15.25-34.063-34.063s15.25-34.063 34.063-34.063v0h102.189v-68.126h-102.189c-18.812 0-34.063-15.25-34.063-34.063s15.25-34.063 34.063-34.063v0h102.189v-102.189c0-18.812 15.25-34.063 34.063-34.063s34.063 15.25 34.063 34.063v0 102.189h102.189c18.812 0 34.063 15.25 34.063 34.063s-15.25 34.063-34.063 34.063v0h-102.189v68.126h102.189zM953.762 6.238c-112.875 0-204.378 91.503-204.378 204.378s91.503 204.378 204.378 204.378c112.875 0 204.378-91.503 204.378-204.378v0c0.001-0.229 0.001-0.5 0.001-0.771 0-43.677-14.047-84.072-37.87-116.916l0.399 0.578 94.695-95.376c6.322-6.446 10.224-15.285 10.224-25.036s-3.902-18.59-10.23-25.042l0.006 0.006c-6.347-6.4-15.144-10.362-24.866-10.362s-18.519 3.962-24.864 10.36l-0.002 0.002-94.695 95.376c-32.611-23.249-73.265-37.178-117.172-37.197h-0.005zM953.762 346.867c-75.25 0-136.252-61.002-136.252-136.252s61.002-136.252 136.252-136.252c75.25 0 136.252 61.002 136.252 136.252v0c0 75.25-61.002 136.252-136.252 136.252v0z" />
<glyph unicode="&#xe913;" glyph-name="schedulingManagement" data-tags="schedulingManagement" d="M950.044 260.608c10.909 21.857 17.294 47.613 17.294 74.86 0 94.257-76.41 170.667-170.667 170.667s-170.667-76.41-170.667-170.667c0-27.247 6.385-53.003 17.741-75.853l-0.447 0.993c-79.398-51.204-131.236-139.179-131.3-239.265v-0.009c0-9.614 0.512-19.115 1.422-28.444h-456.533c-31.419 0-56.889 25.47-56.889 56.889v0 682.667h1024v-540.956c-20.495 27.284-44.988 50.239-72.862 68.45l-1.093 0.67zM256 277.333h142.222c15.709 0 28.444 12.735 28.444 28.444s-12.735 28.444-28.444 28.444v0h-142.222c-15.709 0-28.444-12.735-28.444-28.444s12.735-28.444 28.444-28.444v0zM512 561.778h-256c-15.709 0-28.444-12.735-28.444-28.444s12.735-28.444 28.444-28.444v0h256c15.709 0 28.444 12.735 28.444 28.444s-12.735 28.444-28.444 28.444v0zM0 846.222c0 31.419 25.47 56.889 56.889 56.889v0h910.222c31.419 0 56.889-25.47 56.889-56.889v0-56.889h-1024v56.889zM796.444 220.444c125.668 0 227.556-73.444 227.556-199.111 0-15.701-101.888-28.444-227.556-28.444s-227.556 12.743-227.556 28.444c0 125.668 101.888 199.111 227.556 199.111zM682.667 334.222c0 62.838 50.94 113.778 113.778 113.778s113.778-50.94 113.778-113.778c0-62.838-50.94-113.778-113.778-113.778v0c-62.838 0-113.778 50.94-113.778 113.778v0z" />
<glyph unicode="&#xe914;" glyph-name="kpiManagement2" data-tags="kpiManagement2" d="M967.111-64v0c31.419 0 56.889 25.47 56.889 56.889v910.222c0 31.419-25.47 56.889-56.889 56.889h-910.222c-31.419 0-56.889-25.47-56.889-56.889v-910.222c0-31.419 25.47-56.889 56.889-56.889h910.222zM142.222 732.444h227.556c15.709 0 28.444-12.735 28.444-28.444s-12.735-28.444-28.444-28.444v0h-227.556c-15.709 0-28.444 12.735-28.444 28.444s12.735 28.444 28.444 28.444v0zM256 846.222c15.709 0 28.444-12.735 28.444-28.444v0-227.556c0-15.709-12.735-28.444-28.444-28.444s-28.444 12.735-28.444 28.444v0 227.556c0 15.709 12.735 28.444 28.444 28.444v0zM654.222 732.444h227.556c15.709 0 28.444-12.735 28.444-28.444s-12.735-28.444-28.444-28.444v0h-227.556c-15.709 0-28.444 12.735-28.444 28.444s12.735 28.444 28.444 28.444v0zM175.787 324.779l210.489-210.489c6.275-6.637 10.133-15.617 10.133-25.499 0-20.517-16.632-37.148-37.148-37.148-9.796 0-18.707 3.792-25.344 9.988l0.022-0.020-210.489 210.489c-6.77 6.727-10.96 16.044-10.96 26.34 0 20.506 16.623 37.129 37.129 37.129 10.211 0 19.458-4.122 26.171-10.792l-0.002 0.002zM386.276 324.779c6.847-6.681 11.093-16 11.093-26.311s-4.246-19.63-11.085-26.304l-210.496-210.496c-6.616-6.176-15.526-9.968-25.322-9.968-20.517 0-37.148 16.632-37.148 37.148 0 9.881 3.858 18.861 10.149 25.516l-0.016-0.018 210.489 210.489c6.672 6.729 15.92 10.895 26.141 10.895 10.249 0 19.52-4.189 26.193-10.948l0.004-0.004zM654.222 220.444h227.556c15.709 0 28.444-12.735 28.444-28.444s-12.735-28.444-28.444-28.444v0h-227.556c-15.709 0-28.444 12.735-28.444 28.444s12.735 28.444 28.444 28.444v0zM768 334.222c15.709 0 28.444-12.735 28.444-28.444s-12.735-28.444-28.444-28.444c-15.709 0-28.444 12.735-28.444 28.444v0c0 15.709 12.735 28.444 28.444 28.444v0zM768 106.667c15.709 0 28.444-12.735 28.444-28.444s-12.735-28.444-28.444-28.444c-15.709 0-28.444 12.735-28.444 28.444v0c0 15.709 12.735 28.444 28.444 28.444v0z" />
<glyph unicode="&#xe915;" glyph-name="attendanceSetting" data-tags="attendanceSetting" d="M1014.158 412.046c-10.020 17.123-28.321 28.443-49.266 28.443-10.473 0-20.285-2.83-28.712-7.767l0.269 0.145-26.226-15.132v30.265c0 31.419-25.47 56.889-56.889 56.889v0h-113.778c-31.419 0-56.889-25.47-56.889-56.889v0-30.265l-26.226 15.132c-8.159 4.791-17.971 7.621-28.444 7.621-20.945 0-39.247-11.319-49.121-28.174l-0.145-0.268-56.889-98.532c-4.791-8.159-7.621-17.971-7.621-28.444 0-20.945 11.319-39.247 28.174-49.121l0.268-0.145 26.226-15.36-26.226-15.132c-17.123-10.020-28.443-28.321-28.443-49.266 0-10.473 2.83-20.285 7.767-28.712l-0.145 0.269 56.889-98.532c10.020-17.123 28.321-28.443 49.266-28.443 10.473 0 20.285 2.83 28.712 7.767l-0.269-0.145 26.226 15.303v-30.322s0 0 0-0.398h-625.778c-31.419 0-56.889 25.47-56.889 56.889v0 682.724h1024v-337.465zM0 846.222c0 31.419 25.47 56.889 56.889 56.889v0h910.222c31.419 0 56.889-25.47 56.889-56.889v0-56.889h-1024v56.889zM644.267 71.851c-4.326-2.43-9.495-3.861-14.998-3.861-10.918 0-20.52 5.633-26.059 14.151l-0.073 0.12-30.094 49.266c-2.505 4.074-3.99 9.009-3.99 14.291 0 10.651 6.035 19.893 14.873 24.492l0.153 0.072 35.044 19.115c-2.086 9.328-3.282 20.041-3.282 31.033s1.195 21.705 3.463 32.016l-0.181-0.983-35.157 19.172c-8.991 4.671-15.026 13.913-15.026 24.564 0 5.282 1.484 10.217 4.058 14.411l-0.069-0.12 30.094 49.266c5.612 8.639 15.215 14.272 26.133 14.272 5.503 0 10.672-1.431 15.155-3.942l-0.157 0.081 35.897-19.627c15.969 12.941 34.581 23.428 54.798 30.496l1.295 0.394v39.026c0 15.709 12.735 28.444 28.444 28.444v0h63.488c15.709 0 28.444-12.735 28.444-28.444v0-38.912c21.512-7.462 40.124-17.949 56.438-31.162l-0.346 0.271 35.897 19.627c4.326 2.43 9.495 3.861 14.998 3.861 10.918 0 20.52-5.633 26.059-14.151l0.073-0.12 30.094-49.266c2.505-4.074 3.99-9.009 3.99-14.291 0-10.651-6.035-19.893-14.873-24.492l-0.153-0.072-35.157-19.172c2.017-9.336 3.214-20.091 3.299-31.111v-0.065c-0.117-11.002-1.313-21.655-3.486-31.948l0.187 1.057 35.1-19.172c8.991-4.671 15.026-13.913 15.026-24.564 0-5.282-1.484-10.217-4.058-14.411l0.069 0.12-30.094-49.266c-5.612-8.639-15.215-14.272-26.133-14.272-5.503 0-10.672 1.431-15.155 3.942l0.157-0.081-35.499 19.342c-16.105-13.018-34.866-23.58-55.236-30.718l-1.312-0.4v-38.457c-0.469-15.814-13.401-28.456-29.286-28.456-0.284 0-0.568 0.004-0.85 0.012l0.041-0.001h-59.961c-0.241-0.007-0.524-0.011-0.809-0.011-15.885 0-28.817 12.641-29.285 28.412l-0.001 0.043v38.571c-21.606 7.5-40.297 18.066-56.657 31.384l0.337-0.266zM796.444 163.556c31.419 0 56.889 25.47 56.889 56.889s-25.47 56.889-56.889 56.889c-31.419 0-56.889-25.47-56.889-56.889v0c0-31.419 25.47-56.889 56.889-56.889v0z" />
<glyph unicode="&#xe916;" glyph-name="staffManagement" data-tags="staffManagement" d="M853.333-64h-682.667c-62.838 0-113.778 50.94-113.778 113.778v0 796.444c0 62.838 50.94 113.778 113.778 113.778v0h682.667c62.838 0 113.778-50.94 113.778-113.778v0-796.444c0-62.838-50.94-113.778-113.778-113.778v0zM227.556 675.556h-56.889v-455.111h56.889v455.111zM625.778 675.556c-62.838 0-113.778-50.94-113.778-113.778s50.94-113.778 113.778-113.778c62.838 0 113.778 50.94 113.778 113.778v0c0 62.838-50.94 113.778-113.778 113.778v0zM625.778 448c-125.668 0-227.556-73.444-227.556-199.111 0-15.701 101.888-28.444 227.556-28.444s227.556 12.743 227.556 28.444c0 125.668-101.888 199.111-227.556 199.111z" />
<glyph unicode="&#xe917;" glyph-name="wageReport" data-tags="wageReport" d="M995.556 846.222h-28.444v-625.778h28.444c15.709 0 28.444-12.735 28.444-28.444s-12.735-28.444-28.444-28.444v0h-426.667v-113.778h142.222c15.709 0 28.444-12.735 28.444-28.444s-12.735-28.444-28.444-28.444v0h-398.222c-15.709 0-28.444 12.735-28.444 28.444s12.735 28.444 28.444 28.444v0h142.222v113.778h-426.667c-15.709 0-28.444 12.735-28.444 28.444s12.735 28.444 28.444 28.444v0h28.444v625.778h-28.444c-15.709 0-28.444 12.735-28.444 28.444s12.735 28.444 28.444 28.444v0h967.111c15.709 0 28.444-12.735 28.444-28.444s-12.735-28.444-28.444-28.444v0zM426.667 561.778c15.709 0 28.444 12.735 28.444 28.444s-12.735 28.444-28.444 28.444v0h-73.387l64.228 63.829c5.388 5.333 8.725 12.73 8.725 20.907s-3.336 15.574-8.722 20.904l-0.002 0.002c-5.395 5.346-12.822 8.65-21.020 8.65s-15.626-3.303-21.023-8.652l0.002 0.002-63.033-62.578-63.033 62.578c-5.389 5.36-12.818 8.673-21.020 8.673s-15.632-3.313-21.022-8.674l0.001 0.001c-5.388-5.333-8.725-12.73-8.725-20.907s3.336-15.574 8.722-20.904l0.002-0.002 64.228-63.829h-72.476c-15.709 0-28.444-12.735-28.444-28.444s12.735-28.444 28.444-28.444v0h85.333v-56.889h-85.333c-15.709 0-28.444-12.735-28.444-28.444s12.735-28.444 28.444-28.444v0h85.333v-85.333c0-15.709 12.735-28.444 28.444-28.444s28.444 12.735 28.444 28.444v0 85.333h85.333c15.709 0 28.444 12.735 28.444 28.444s-12.735 28.444-28.444 28.444v0h-85.333v56.889h85.333zM654.222 391.111h123.278c11.135 2.771 19.256 12.682 19.256 24.49 0 1.396-0.114 2.765-0.332 4.1l0.020-0.146c0.199 1.189 0.312 2.558 0.312 3.954 0 11.808-8.121 21.72-19.083 24.454l-0.174 0.037h-123.278c-15.709 0-28.444-12.735-28.444-28.444s12.735-28.444 28.444-28.444v0zM654.222 504.889h56.889c15.709 0 28.444 12.735 28.444 28.444s-12.735 28.444-28.444 28.444v0h-56.889c-15.709 0-28.444-12.735-28.444-28.444s12.735-28.444 28.444-28.444v0zM824.889 675.556h-170.667c-15.709 0-28.444-12.735-28.444-28.444s12.735-28.444 28.444-28.444v0h170.667c15.709 0 28.444 12.735 28.444 28.444s-12.735 28.444-28.444 28.444v0z" />
<glyph unicode="&#xe918;" glyph-name="specialSetting" data-tags="specialSetting" d="M937.756 577.308l-38.684-22.187c6.544-25.189 10.911-54.437 12.147-84.492l0.027-0.841c-41.564 21.997-90.857 34.91-143.165 34.91-41.911 0-81.886-8.29-118.374-23.32l2.069 0.754c-15.398 80.149-84.965 139.881-168.482 139.881-94.665 0-171.406-76.741-171.406-171.406 0-89.249 68.212-162.567 155.346-170.664l0.678-0.051c-8.118-26.459-12.792-56.874-12.792-88.38 0-99.005 46.16-187.229 118.132-244.325l0.644-0.493c-9.184-6.668-20.677-10.674-33.104-10.695h-114.465c-0.101-0.001-0.221-0.001-0.341-0.001-31.419 0-56.889 25.47-56.889 56.889 0 0 0 0.001 0 0.001v0 45.511c-72.691 20.456-135.161 57.295-185.61 106.418l0.095-0.092-39.822-22.756c-8.211-4.795-18.076-7.625-28.603-7.625-21.017 0-39.399 11.285-49.417 28.125l-0.146 0.264-57.173 98.588c-4.821 8.149-7.67 17.96-7.67 28.435 0 20.954 11.397 39.247 28.331 49.016l0.273 0.145 38.912 22.414c-8.685 32.075-13.675 68.902-13.675 106.894s4.99 74.819 14.349 109.861l-0.674-2.967-38.684 22.187c-17.289 9.894-28.751 28.231-28.751 49.244 0 10.419 2.818 20.18 7.733 28.562l-0.144-0.266 57.173 98.361c10.163 17.105 28.545 28.39 49.563 28.39 10.527 0 20.392-2.831 28.876-7.772l-0.274 0.147 38.912-22.244c50.536 49.526 113.352 86.711 183.452 106.559l3.030 0.733v44.089c0 31.419 25.47 56.889 56.889 56.889v0h115.029c31.419 0 56.889-25.47 56.889-56.889v0-44.089c73.129-20.581 135.945-57.766 186.553-107.362l-0.071 0.070 38.912 22.3c8.211 4.795 18.076 7.625 28.603 7.625 21.017 0 39.399-11.285 49.417-28.125l0.146-0.264 57.173-98.361c4.821-8.149 7.67-17.96 7.67-28.435 0-20.954-11.397-39.247-28.331-49.016l-0.273-0.145zM768 448c141.385 0 256-114.615 256-256s-114.615-256-256-256c-141.385 0-256 114.615-256 256v0c0 141.385 114.615 256 256 256v0zM768 49.778c15.709 0 28.444 12.735 28.444 28.444s-12.735 28.444-28.444 28.444c-15.709 0-28.444-12.735-28.444-28.444v0c0-15.709 12.735-28.444 28.444-28.444v0zM739.556 192c0-15.709 12.735-28.444 28.444-28.444s28.444 12.735 28.444 28.444v0 113.778c0 15.709-12.735 28.444-28.444 28.444s-28.444-12.735-28.444-28.444v0-113.778z" />
<glyph unicode="&#xe919;" glyph-name="dbank" data-tags="dbank" d="M1023.090 78.222c0 9.956 1.934-9.387 0 0zM880.868-64h-738.020c-78.547 0-142.222 63.675-142.222 142.222v0l85.447 824.889c0 31.419 25.47 56.889 56.889 56.889v0h738.19c31.419 0 56.889-25.47 56.889-56.889v0l85.333-824.889c0-78.547-63.675-142.222-142.222-142.222v0zM654.222 561.778c0 62.838-50.94 113.778-113.778 113.778v0c-0.103 0-0.224 0.001-0.346 0.001-37.963 0-70.531-23.096-84.42-56.003l-0.225-0.602c-1.308 0-2.731 0 0-0.284-47.047 0-113.778-38.229-113.778-85.333 0 0 0 0 0-0.001 0-47.008 38.011-85.139 84.973-85.333h227.575c31.419 0 56.889 25.47 56.889 56.889s-25.47 56.889-56.889 56.889v0zM881.38 163.556h-738.532c-47.128 0-85.333-38.205-85.333-85.333s38.205-85.333 85.333-85.333v0h738.304c47.128 0 85.333 38.205 85.333 85.333s-38.205 85.333-85.333 85.333v0zM426.667 49.778c-15.709 0-28.444 12.735-28.444 28.444s12.735 28.444 28.444 28.444c15.709 0 28.444-12.735 28.444-28.444v0c0-15.709-12.735-28.444-28.444-28.444v0zM312.889 49.778c-15.709 0-28.444 12.735-28.444 28.444s12.735 28.444 28.444 28.444c15.709 0 28.444-12.735 28.444-28.444v0c0-15.709-12.735-28.444-28.444-28.444v0zM199.111 49.778c-15.709 0-28.444 12.735-28.444 28.444s12.735 28.444 28.444 28.444c15.709 0 28.444-12.735 28.444-28.444v0c0-15.709-12.735-28.444-28.444-28.444v0zM455.111 618.667v0.284c1.479-0.284 2.56-0.284 0-0.284zM0.853 78.222c-1.934-9.387 0 9.956 0 0z" />
<glyph unicode="&#xe91a;" glyph-name="checkReport" data-tags="checkReport" d="M995.556 846.222h-28.444v-625.778h28.444c15.709 0 28.444-12.735 28.444-28.444s-12.735-28.444-28.444-28.444v0h-426.667v-113.778h142.222c15.709 0 28.444-12.735 28.444-28.444s-12.735-28.444-28.444-28.444v0h-398.222c-15.709 0-28.444 12.735-28.444 28.444s12.735 28.444 28.444 28.444v0h142.222v113.778h-426.667c-15.709 0-28.444 12.735-28.444 28.444s12.735 28.444 28.444 28.444v0h28.444v625.778h-28.444c-15.709 0-28.444 12.735-28.444 28.444s12.735 28.444 28.444 28.444v0h967.111c15.709 0 28.444-12.735 28.444-28.444s-12.735-28.444-28.444-28.444v0zM284.444 476.444c0 15.709-12.735 28.444-28.444 28.444s-28.444-12.735-28.444-28.444v0-199.111h56.889v199.111zM455.111 647.111c0 15.709-12.735 28.444-28.444 28.444s-28.444-12.735-28.444-28.444v0-369.778h56.889v369.778zM625.778 362.667c0 15.709-12.735 28.444-28.444 28.444s-28.444-12.735-28.444-28.444v0-85.333h56.889v85.333zM796.444 419.556c0 15.709-12.735 28.444-28.444 28.444s-28.444-12.735-28.444-28.444v0-142.222h56.889v142.222z" />
<glyph unicode="&#xe91b;" glyph-name="staffCare" data-tags="staffCare" d="M1024 592.043c0 1.308 0 2.56 0.057 3.641 0 4.153-0.569 8.135-0.569 12.231-0.341 2.446-0.341 4.892-0.341 7.282-0.398 6.087-0.74 12.174-1.422 18.148l-0.058 0.903c-2 25.019-7.584 49.027-15.643 69.753l-0.622 2.060c-38.983 112.285-144.247 193.575-269.372 197.051l0.564-0.023c-4.014 0.201-8.054 0.303-12.117 0.303-92.222 0-172.212-52.373-212.475-130.328l-0.626 1.329c-39.699 76.628-119.727 128.992-211.985 128.992-4.016 0-8.008-0.099-11.417-0.273l-0.403-0.009c-124.62-3.438-229.825-84.575-269.534-198.761l0.595 1.754c-8.676-22.478-14.279-46.484-16.354-72.41-0.626-5.973-1.024-12.060-1.365-18.091-0.341-2.389-0.341-4.836-0.341-7.282-0.171-4.153-0.569-8.192-0.569-12.402 0-1.308 0-2.56 0-3.868 0-2.56 0-4.892 0-7.509 0-314.197 512-591.644 512-591.644s512 277.447 512 591.644c0 2.617 0 4.949 0 7.509zM877.739 504.889c-0.068-0.001-0.148-0.001-0.229-0.001-17.715 0-32.094 14.28-32.255 31.957v0.015c-7.713 75.49-59.394 137.145-128.726 159.378l-1.322 0.366c-0.238-0.006-0.517-0.010-0.798-0.010-17.657 0-31.972 14.314-31.972 31.972s14.314 31.972 31.972 31.972c6.142 0 11.88-1.732 16.751-4.734l-0.138 0.079c98.566-28.558 170.881-114.277 179.145-218.042l0.055-0.866c-0.096-17.741-14.501-32.086-32.256-32.086-0.080 0-0.16 0-0.24 0.001h0.012z" />
<glyph unicode="&#xe91c;" glyph-name="salarySheet" data-tags="salarySheet" d="M967.111 106.667c0-62.838-50.94-113.778-113.778-113.778v0h-625.778c-94.257 0-170.667 76.41-170.667 170.667v0 682.667c0 31.419 25.47 56.889 56.889 56.889v0h625.778c31.419 0 56.889-25.47 56.889-56.889v0-113.778h170.667v-625.778zM560.697 666.624c-4.633 5.482-11.513 8.94-19.2 8.94s-14.567-3.458-19.169-8.903l-0.031-0.037-96.085-108.089-96.256 108.089c-4.633 5.502-11.525 8.974-19.228 8.974s-14.595-3.472-19.197-8.936l-0.031-0.038c-4.944-5.773-7.953-13.33-7.953-21.589s3.009-15.817 7.991-21.635l-0.038 0.045 78.279-115.541h-56.889c-16.144-1.83-28.573-15.41-28.573-31.892 0-1.009 0.047-2.008 0.138-2.993l-0.009 0.126c-0.082-0.859-0.128-1.857-0.128-2.867 0-16.483 12.429-30.063 28.426-31.879l0.147-0.014h85.333v-47.275h-85.333c-15.709 0-28.444-12.735-28.444-28.444s12.735-28.444 28.444-28.444v0h85.333v-85.333c0-15.709 12.735-28.444 28.444-28.444s28.444 12.735 28.444 28.444v0 85.333h85.333c15.709 0 28.444 12.735 28.444 28.444s-12.735 28.444-28.444 28.444v0h-85.333v47.332h85.333c16.144 1.83 28.573 15.41 28.573 31.892 0 1.009-0.047 2.008-0.138 2.993l0.009-0.126c0.082 0.859 0.128 1.857 0.128 2.867 0 16.483-12.429 30.063-28.426 31.879l-0.147 0.014h-56.889l77.198 115.484c4.927 5.767 7.925 13.312 7.925 21.556 0 8.275-3.020 15.845-8.019 21.667l0.037-0.044zM853.333 732.444h-56.889v-625.778c31.419 0 56.889 25.47 56.889 56.889v0 568.889z" />
<glyph unicode="&#xe91d;" glyph-name="pactManagement" data-tags="pactManagement" d="M995.556-64h-398.222c-15.709 0-28.444 12.735-28.444 28.444v0c-0.903 5.011-1.42 10.778-1.42 16.666 0 54.417 44.114 98.532 98.532 98.532 5.888 0 11.655-0.516 17.259-1.507l-0.593 0.087 58.823 156.956c-35.347 19.763-58.852 56.958-58.852 99.642 0 62.838 50.94 113.778 113.778 113.778s113.778-50.94 113.778-113.778c0-42.684-23.505-79.879-58.277-99.346l-0.575-0.296 58.88-156.956c5.011 0.903 10.778 1.42 16.666 1.42 54.417 0 98.532-44.114 98.532-98.532 0-5.888-0.516-11.655-1.507-17.259l0.087 0.593c0-15.709-12.735-28.444-28.444-28.444v0zM796.444 504.889c-0.253 0.001-0.553 0.002-0.853 0.002-93.785 0-169.813-76.028-169.813-169.813 0-40.089 13.892-76.934 37.125-105.983l-0.261 0.338-24.804-68.267c-73.331-22.039-125.838-88.946-125.838-168.116 0-0.057 0-0.114 0-0.17v0.009-56.889h-455.111c-31.419 0-56.889 25.47-56.889 56.889v0 910.222c0 31.419 25.47 56.889 56.889 56.889v0h853.333c31.419 0 56.889-25.47 56.889-56.889v0-566.044h-0.284c-1.598 92.934-77.238 167.675-170.368 167.822h-0.014zM256 220.444h113.778c15.709 0 28.444 12.735 28.444 28.444s-12.735 28.444-28.444 28.444v0h-113.778c-15.709 0-28.444-12.735-28.444-28.444s12.735-28.444 28.444-28.444v0zM256 448h170.667c15.709 0 28.444 12.735 28.444 28.444s-12.735 28.444-28.444 28.444v0h-170.667c-15.709 0-28.444-12.735-28.444-28.444s12.735-28.444 28.444-28.444v0zM540.444 732.444h-284.444c-15.709 0-28.444-12.735-28.444-28.444s12.735-28.444 28.444-28.444v0h284.444c15.709 0 28.444 12.735 28.444 28.444s-12.735 28.444-28.444 28.444v0z" />
<glyph unicode="&#xe91e;" glyph-name="organizationChart" data-tags="organizationChart" d="M853.333 277.333c94.257 0 170.667-76.41 170.667-170.667s-76.41-170.667-170.667-170.667c-94.257 0-170.667 76.41-170.667 170.667v0c0.266 8.547 1.124 16.684 2.54 24.627l-0.15-1.018-317.668 126.919c-35.756-56.138-97.671-92.838-168.159-92.838-109.746 0-198.713 88.967-198.713 198.713s88.967 198.713 198.713 198.713c54.986 0 104.756-22.333 140.733-58.424l0.005-0.005 251.108 203.378c-13.779 23.733-21.988 52.188-22.186 82.545v0.058c-0.005 0.487-0.008 1.062-0.008 1.637 0 95.168 77.149 172.316 172.316 172.316s172.316-77.149 172.316-172.316c0-95.168-77.149-172.316-172.316-172.316-44.118 0-84.364 16.58-114.846 43.849l0.166-0.146-253.212-204.8c15.788-26.855 25.113-59.155 25.113-93.632 0-19.363-2.941-38.038-8.401-55.605l0.355 1.326 312.206-124.814c28.707 55.192 85.374 92.286 150.726 92.501h0.030z" />
<glyph unicode="&#xe91f;" glyph-name="workreport" data-tags="workreport" d="M966.258 226.588l-78.507 78.507 48.356 47.161c4.446 6.081 11.554 9.986 19.575 9.986 4.67 0 9.031-1.324 12.728-3.617l-0.103 0.060 51.541-51.541c2.222-3.592 3.539-7.947 3.539-12.609 0-8.021-3.896-15.132-9.9-19.543l-0.067-0.047zM568.889 78.222c-0.853 1.365-12.629-82.716-20.764-142.222-11.947 0-23.893 0-36.124 0-282.795 0-512 25.486-512 56.889 0 0.078 0 0.172 0 0.265 0 241.367 178.416 441.063 410.56 474.398l2.568 0.302c-93.060 39.715-157.099 130.441-157.099 236.124 0 141.385 114.615 256 256 256s256-114.615 256-256c0-105.683-64.039-196.408-155.429-235.489l-1.67-0.635c94.868-16.293 178.396-56.241 246.921-113.534l-0.82 0.667zM848.555 266.98l79.644-79.644-217.088-222.891-113.778-28.444 28.444 113.778zM1024-7.111c0-20.764-100.636-38.912-250.311-48.811l217.372 225.963c20.849-51.869 32.944-112.006 32.944-174.968 0-0.768-0.002-1.535-0.005-2.302v0.118z" />
<glyph unicode="&#xe920;" glyph-name="actionLog" data-tags="actionLog" d="M853.333-64h-682.667c-62.838 0-113.778 50.94-113.778 113.778v0 796.444c0 62.838 50.94 113.778 113.778 113.778v0h682.667c62.838 0 113.778-50.94 113.778-113.778v0-796.444c0-62.838-50.94-113.778-113.778-113.778v0zM284.444 760.889c0 15.709-12.735 28.444-28.444 28.444s-28.444-12.735-28.444-28.444v0-625.778c0-15.709 12.735-28.444 28.444-28.444s28.444 12.735 28.444 28.444v0 625.778zM739.556 732.444c0 31.419-25.47 56.889-56.889 56.889v0h-113.778c-31.419 0-56.889-25.47-56.889-56.889v0-227.556l113.778 113.778 113.778-113.778v227.556z" />
<glyph unicode="&#xe921;" glyph-name="personnelAnalyze" data-tags="personnelAnalyze" d="M995.556 49.778h-94.379l-51.655-98.759c-4.422-9.254-13.706-15.533-24.458-15.533-5.339 0-10.315 1.548-14.506 4.22l0.109-0.065c-4.551 3.153-8.117 7.432-10.336 12.44l-0.075 0.189v0.341l-89.316 173.113-30.037-57.401c-0.582-1.316-1.171-2.417-1.83-3.471l0.067 0.114c-1.662-3.057-3.751-5.654-6.226-7.823l-0.032-0.028c-1.746-1.552-3.729-2.899-5.874-3.968l-0.157-0.071c-0.569-0.284-1.081-0.683-1.707-0.91-3.226-1.585-7.022-2.512-11.034-2.512-1.488 0-2.946 0.127-4.364 0.372l0.152-0.022h-109.454c-15.709 0-28.444 12.735-28.444 28.444s12.735 28.444 28.444 28.444v0h94.606l51.2 98.247c0 0.341 0.455 0.512 0.626 0.796 2.34 3.426 4.926 6.41 7.814 9.069l0.036 0.033c0.626 0.455 1.024 1.195 1.707 1.65 1.328 0.685 2.878 1.287 4.497 1.725l0.168 0.039c1.056 0.508 2.32 0.992 3.628 1.376l0.183 0.046c1.544 0.354 3.318 0.556 5.139 0.556 0.514 0 1.024-0.016 1.529-0.048l-0.069 0.003c0.125 0.002 0.272 0.004 0.42 0.004 1.439 0 2.85-0.125 4.22-0.366l-0.145 0.021c2.162-0.512 4.059-1.215 5.838-2.116l-0.149 0.068c1.449-0.414 2.676-0.879 3.854-1.431l-0.157 0.066c0.626-0.398 0.967-1.024 1.536-1.479 1.027-0.877 1.956-1.788 2.819-2.759l0.025-0.029c2.041-1.936 3.797-4.144 5.215-6.573l0.076-0.14s0.341-0.341 0.455-0.569l89.941-174.308 29.753 56.889c1.842 5.175 5.009 9.498 9.098 12.697l0.061 0.046c0.455 0.398 0.967 0.626 1.479 1.024 1.981 1.474 4.255 2.722 6.693 3.635l0.19 0.062c1.887 0.668 4.074 1.134 6.343 1.303l0.085 0.005c0.746 0.108 1.649 0.19 2.564 0.226l0.052 0.002h113.778c15.709 0 28.444-12.735 28.444-28.444s-12.735-28.444-28.444-28.444v0zM853.333 163.556c9.557 39.481 28.444-2.276 0 56.889-8.647 18.034-66.901 58.766-56.889 56.889-2.731 0-56.889 0-56.889 0h-53.646l3.925 5.689c6.428 16.327 0 11.093-7.168-5.689h3.243l-82.261-113.778h-63.204c-47.128 0-85.333-38.205-85.333-85.333s38.205-85.333 85.333-85.333v0h102.855c0.74 0 1.422 0 2.162 0h37.205v-56.889c-58.027-2.503-104.505 0-170.667 0-282.795 0-512 25.486-512 56.889v0c0 0.076 0 0.167 0 0.257 0 241.388 178.447 441.097 410.619 474.406l2.565 0.302c-93.106 39.695-157.184 130.444-157.184 236.16 0 141.385 114.615 256 256 256s256-114.615 256-256c0-105.715-64.078-196.464-155.513-235.525l-1.671-0.635c175.224-27.005 317.959-143.757 381.35-301.012l1.17-3.287h-140.004z" />
<glyph unicode="&#xe922;" glyph-name="applocation" data-tags="applocation" d="M910.222 106.667h-625.778c-0.769-0.039-1.669-0.061-2.574-0.061-29.057 0-52.792 22.788-54.309 51.467l-0.006 0.135v750.251c1.553 28.819 25.301 51.6 54.368 51.6 0.887 0 1.768-0.021 2.644-0.063l-0.124 0.005h398.222v-256c0-15.709 12.735-28.444 28.444-28.444v0h256v-517.348c-1.522-28.814-25.257-51.602-54.315-51.602-0.905 0-1.806 0.022-2.7 0.066l0.126-0.005zM426.667 277.333h170.667c15.709 0 28.444 12.735 28.444 28.444s-12.735 28.444-28.444 28.444v0h-170.667c-15.709 0-28.444-12.735-28.444-28.444s12.735-28.444 28.444-28.444v0zM540.444 789.333h-113.778c-15.709 0-28.444-12.735-28.444-28.444s12.735-28.444 28.444-28.444v0h113.778c15.709 0 28.444 12.735 28.444 28.444s-12.735 28.444-28.444 28.444v0zM654.222 561.778h-227.556c-15.709 0-28.444-12.735-28.444-28.444s12.735-28.444 28.444-28.444v0h227.556c15.709 0 28.444 12.735 28.444 28.444s-12.735 28.444-28.444 28.444v0zM739.556 960l227.556-206.222v-21.333h-227.556v227.556zM796.444 49.778c31.419 0 56.889-25.47 56.889-56.889s-25.47-56.889-56.889-56.889v0h-682.667c-31.419 0-56.889 25.47-56.889 56.889v0 739.556c0 31.419 25.47 56.889 56.889 56.889s56.889-25.47 56.889-56.889v0-682.667h625.778z" />
<glyph unicode="&#xe923;" glyph-name="purviewSetting" data-tags="purviewSetting" d="M512-64c-108.089 0-433.209 185.628-455.111 455.111v398.222c0 31.419 25.47 56.889 56.889 56.889v0c115.026 64.234 250.978 105.385 395.733 113.664l2.489 0.114c147.246-8.095 283.25-49.284 402.924-116.192l-4.702 2.414c31.419 0 56.889-25.47 56.889-56.889v0-398.222c-21.902-269.483-347.022-455.111-455.111-455.111zM682.667 533.333c0 15.709-12.735 28.444-28.444 28.444v0h-28.444c0 62.838-50.94 113.778-113.778 113.778s-113.778-50.94-113.778-113.778v0h-28.444c-15.709 0-28.444-12.735-28.444-28.444v0-227.556c0-15.709 12.735-28.444 28.444-28.444v0h284.444c15.709 0 28.444 12.735 28.444 28.444v0 227.556zM597.333 334.222h-170.667c-15.709 0-28.444 12.735-28.444 28.444v0 113.778c0 15.709 12.735 28.444 28.444 28.444v0h170.667c15.709 0 28.444-12.735 28.444-28.444v0-113.778c0-15.709-12.735-28.444-28.444-28.444v0zM512 618.667c31.419 0 56.889-25.47 56.889-56.889v0h-113.778c0 31.419 25.47 56.889 56.889 56.889v0z" />
<glyph unicode="&#xe924;" glyph-name="companyInformation" data-tags="未标题-1" d="M995.556-64h-967.111c-15.709 0-28.444 12.735-28.444 28.444s12.735 28.444 28.444 28.444v0h28.444v512c0 31.419 25.47 56.889 56.889 56.889v0h341.333v341.333c0 31.419 25.47 56.889 56.889 56.889v0h398.222c31.419 0 56.889-25.47 56.889-56.889v0-910.222h28.444c15.709 0 28.444-12.735 28.444-28.444s-12.735-28.444-28.444-28.444v0zM312.889 391.111h-56.889c-15.709 0-28.444-12.735-28.444-28.444s12.735-28.444 28.444-28.444v0h56.889c15.709 0 28.444 12.735 28.444 28.444s-12.735 28.444-28.444 28.444v0zM312.889 163.556h-56.889c-15.709 0-28.444-12.735-28.444-28.444s12.735-28.444 28.444-28.444v0h56.889c15.709 0 28.444 12.735 28.444 28.444s-12.735 28.444-28.444 28.444v0zM768 732.444h-113.778c-15.709 0-28.444-12.735-28.444-28.444s12.735-28.444 28.444-28.444v0h113.778c15.709 0 28.444 12.735 28.444 28.444s-12.735 28.444-28.444 28.444v0zM768 504.889h-113.778c-15.709 0-28.444-12.735-28.444-28.444s12.735-28.444 28.444-28.444v0h113.778c15.709 0 28.444 12.735 28.444 28.444s-12.735 28.444-28.444 28.444v0zM768 277.333h-113.778c-15.709 0-28.444-12.735-28.444-28.444s12.735-28.444 28.444-28.444v0h113.778c15.709 0 28.444 12.735 28.444 28.444s-12.735 28.444-28.444 28.444v0z" />
<glyph unicode="&#xe925;" glyph-name="customerService" data-tags="customerService" horiz-adv-x="1008" d="M930.398 150.265c-18.54 0.071-35.691 5.969-49.728 15.956l0.266-0.18c-46.031-85.999-118.009-153.023-205.352-191.655l-2.731-1.078c-6.242-21.167-25.501-36.351-48.307-36.351-1.156 0-2.305 0.039-3.442 0.116l0.154-0.008h-106.6c-2.883-0.678-6.193-1.066-9.594-1.066-24.138 0-43.706 19.568-43.706 43.706s19.568 43.706 43.706 43.706c3.401 0 6.711-0.389 9.889-1.123l-0.295 0.057h106.6c12.549-0.141 24.184-3.941 33.92-10.38l-0.234 0.146c87.297 38.139 156.088 105.136 195.579 188.693l0.992 2.335c-4.045 9.431-6.397 20.407-6.397 31.932 0 0.167 0 0.334 0.001 0.5v-0.026 298.48c0 188.395-152.725 341.12-341.12 341.12s-341.12-152.725-341.12-341.12v0 0-298.48c-0.145-47.041-38.24-85.135-85.266-85.28h-0.014c-70.648 0-127.92 57.272-127.92 127.92v0 213.2c0 70.648 57.272 127.92 127.92 127.92v0c3.171-0.154 6.107-0.459 8.994-0.913l-0.467 0.061c40.892 196.231 212.412 341.547 417.872 341.547s376.979-145.316 417.388-338.776l0.485-2.771c2.42 0.394 5.358 0.699 8.336 0.845l0.193 0.008c70.648 0 127.92-57.272 127.92-127.92v0-213.2c0-70.648-57.272-127.92-127.92-127.92v0z" />
<glyph unicode="&#xe926;" glyph-name="message" data-tags="message" horiz-adv-x="1039" d="M1038.779 77.652c-98.738-17.911-220.28-32.685-343.595-40.983l-10.534-0.568c-31.79-59.992-93.834-100.164-165.26-100.164s-133.47 40.171-164.771 99.153l-0.489 1.010c-134.109 8.996-255.646 23.767-375.109 44.577l20.979-3.025c45.519 54.904 84.326 117.758 113.74 185.629l1.943 5.034c15.685 41.554 25.281 89.575 26.432 139.683l0.009 0.505-0.472-0.331v94.434c0.040 175.107 119.373 322.331 281.148 364.828l2.627 0.586c0 51.894 42.068 93.962 93.962 93.962s93.962-42.068 93.962-93.962v0c164.403-43.083 283.735-190.307 283.776-365.409v-94.439h-0.472c1.576-51.485 11.483-100.179 28.413-145.446l-1.027 3.133c31.146-71.967 69.626-134.006 115.751-189.461l-1.013 1.253zM818.747 313.738c-11.804 70.826-16.054 141.652-16.054 141.652v47.217c0 156.464-126.839 283.303-283.303 283.303s-283.303-126.839-283.303-283.303v0-47.217c-2.595-51.558-7.652-99.246-15.167-146.113l1.002 7.577c-12.498-57.515-31.053-108.331-55.468-155.63l1.641 3.496c104.343-23.427 224.859-37.84 348.394-39.832l1.486-0.019c126.049 2.053 247.55 16.465 364.865 42.077l-12.152-2.226c-22.103 42.925-40.025 92.729-51.223 145.028l-0.716 3.99z" />
<glyph unicode="&#xe927;" glyph-name="exit" data-tags="exit" horiz-adv-x="1026" d="M1009.664 412.877v0l-0.512-0.41c0-0.307-0.512-0.614-0.512-0.973l-153.088-152.525c-9.313-10.186-22.659-16.551-37.492-16.551-28.022 0-50.739 22.717-50.739 50.739 0 14.833 6.365 28.179 16.512 37.457l0.039 0.035 66.048 66.15h-389.12c-28.277 0-51.2 22.923-51.2 51.2s22.923 51.2 51.2 51.2v0h390.656l-67.584 67.686c-8.215 8.984-13.248 20.999-13.248 34.188 0 28.022 22.717 50.739 50.739 50.739 13.19 0 25.204-5.033 34.227-13.283l-0.039 0.035 154.112-153.907c9.459-9.058 15.337-21.788 15.337-35.891s-5.879-26.834-15.319-35.874l-0.018-0.017zM665.6 857.6h-512c-28.277 0-51.2-22.923-51.2-51.2v0-716.8c0-28.277 22.923-51.2 51.2-51.2v0h512c28.277 0 51.2 22.923 51.2 51.2v0h102.4v-51.2c0-56.554-45.846-102.4-102.4-102.4v0h-614.4c-56.554 0-102.4 45.846-102.4 102.4v0 819.2c0 56.554 45.846 102.4 102.4 102.4v0h614.4c56.554 0 102.4-45.846 102.4-102.4v0-51.2h-102.4c0 28.277-22.923 51.2-51.2 51.2v0z" />
<glyph unicode="&#xe928;" glyph-name="qqicon" data-tags="qqicon" horiz-adv-x="1026" d="M936.867 155.058c-6.306 1.414-11.533 5.244-14.759 10.444l-0.057 0.099-17.096 31.286c-12.075-28.435-26.399-52.951-43.371-75.351l0.631 0.869c29.058-12.133 52.8-32.169 69.168-57.426l0.356-0.586c4.395-8.168 6.978-17.874 6.978-28.183 0-7.326-1.304-14.348-3.693-20.846l0.135 0.419c-0.415-2.224-1.425-4.163-2.856-5.706l0.007 0.007c-1.71-2.678-49.009-66.048-180.079-66.048-53.312 0.892-104.382 8.991-152.754 23.363l4.017-1.024-67.245 18.065c-55.812-30.947-122.387-49.163-193.216-49.163-1.993 0-3.983 0.014-5.969 0.043l0.301-0.003c-32.509 0.075-64.198 3.391-94.82 9.642l3.071-0.524c-10.258 1.596-109.985 18.293-132.21 74.596-2.411 7.226-3.801 15.546-3.801 24.19 0 22.378 9.319 42.579 24.289 56.933l0.028 0.026c1.776 1.959 3.845 3.61 6.146 4.895l0.122 0.063c9.383 5.385 20.306 10.319 31.718 14.195l1.335 0.394c-23.339 25.529-42.542 55.335-56.237 88.021l-0.75 2.018c-14.449-25.394-38.829-43.722-67.721-49.804l-0.664-0.117c-0.124-0.003-0.271-0.004-0.418-0.004-6.478 0-12.264 2.961-16.079 7.604l-0.029 0.036c-19.307 25.367-31.038 57.416-31.342 92.191v2.237c0.139 46.901 13.482 90.657 36.504 127.781l-0.602-1.042c29.959 48.268 63.47 90.079 101.362 127.463l0.075 0.074c4.059 45.283 16.875 86.768 36.748 123.911l-0.846-1.731c4.559 38.808 41.031 266.756 267.839 310.636 28.835 6.495 61.952 10.216 95.937 10.216 1.333 0 2.664-0.006 3.994-0.017l-0.204 0.001c5.125 0.262 11.127 0.412 17.164 0.412 119.511 0 225.351-58.535 290.414-148.499l0.722-1.048c33.077-49.127 55.009-108.327 60.868-172.177l0.108-1.462c16.478-27.96 26.212-61.601 26.212-97.515 0-11.715-1.036-23.188-3.021-34.333l0.174 1.176c47.149-58.445 79.516-130.672 90.359-209.757l0.251-2.235c1.065-7.394 1.673-15.931 1.673-24.611 0-35.878-10.39-69.329-28.326-97.508l0.438 0.737c-11.293-11.975-27.265-19.431-44.979-19.431-5.689 0-11.199 0.769-16.431 2.209l0.434-0.102z" />
<glyph unicode="&#xe929;" glyph-name="wqlogo" data-tags="wqlogo" horiz-adv-x="3904" d="M3721.6 517.632h78.752l8 10.176 47.584-38.4-12-15.264v-24.448c-2.864-72.65-35.741-137.095-86.497-181.673l-0.287-0.247c42.848-20.491 92.672-34.478 145.171-39.175l1.677-0.121-4.32-53.76c-71.001 4.634-136.327 25.084-193.728 57.832l2.208-1.16c-61.142-35.763-134.431-57.278-212.664-58.301l-0.296-0.003-2.176 53.888c60.759 1.144 117.907 15.446 169.084 40.161l-2.428-1.057c-3.456 3.008-7.136 5.792-10.432 8.928-48.031 43.505-78.746 105.363-81.014 174.418l-0.010 0.398v23.296h-28.8v44.512h128.864v79.456h-139.808v49.76h139.808v87.52l53.312-5.024v-82.496h170.176v-49.76h-170.176v-79.456zM3621.664 473.12v-23.296c1.241-64.346 35.086-120.525 85.655-152.835l0.745-0.445c47.835 35.316 79.395 90.302 82.667 152.781l0.021 0.499v23.296h-168.992zM3427.712 216.384c0.001-0.076 0.001-0.167 0.001-0.257 0-22.019-17.778-39.886-39.763-40.031h-62.446l-9.376 53.952h52.704c3.097 0.018 5.6 2.533 5.6 5.632 0 0.011 0 0.023 0 0.034v-0.002 126.72l-60.8-17.952-15.552-14.208-23.232 66.336 99.488 22.4v178.080h-87.744v49.76h87.744v87.52l53.28-5.024v-82.496h71.296v-49.76h-71.296v-166.080l83.52 18.784 9.824-44-93.344-27.584v-161.824zM3171.712 179.168h-54.912v138.72l-185.6-31.808-24.768-10.144-9.184 67.648 219.456 29.056v346.464h54.72v-339.2l76.448 10.112 5.728-48.672-82.176-14.080v-148.064zM3075.392 453.28l-43.584-39.744c-24.25 25.939-51.174 48.858-80.485 68.49l-1.659 1.046 37.44 38.4c33.789-19.040 62.79-41.699 87.96-68.049l0.136-0.143zM2964.128 634.176s1.44 1.408 36.416 36.544c32.248-18.626 59.921-40.715 83.877-66.326l0.187-0.202-42.304-37.728c-23.162 25.274-48.862 47.58-76.886 66.735l-1.514 0.977zM2813.504 495.84c29.408-18.24 80.704-50.464 106.944-69.312l-35.2-51.552s-30.528 27.136-71.872 59.808v-255.584h-54.72v241.152c-29.25-53.311-60.781-99.275-96.292-141.8l1.124 1.384-41.6 40.448c55.542 57.247 100.988 124.67 133.219 199.145l1.661 4.311h-109.472v49.76h111.264v82.4l-102.72-9.248-5.504 46.016c1.633-0.013 3.564-0.020 5.497-0.020 79.672 0 156.404 12.589 228.315 35.887l-5.236-1.467 29.6-57.6-95.2-8.544v-87.232h107.040v-49.76h-107.040v-27.968zM2246.112 184.608c-75.902 0.229-142.521 39.757-180.604 99.298l-0.516 0.862c-10.277-47.116-26.071-88.795-47.032-127.254l1.24 2.486-40.032 29.92c30.453 56.355 48.652 123.233 49.406 194.295l0.002 0.233v73.248l54.4-11.872-7.776-11.648v-33.664c0.399-34.414 10.779-66.325 28.371-93.069l-0.403 0.653v201.216h-97.024v43.936h97.152v81.312h-86.016v43.84h85.984v57.312h44.8v-57.312h59.68v-43.904h-59.68v-81.152h71.392v-43.936h-71.392v-93.408h71.392v-43.904h-71.392v-110.56c27.158-19.616 61.116-31.38 97.821-31.392h347.203l-7.296-45.568h-339.872zM2559.712 276.096c-26.256 17.966-48.973 38.325-68.77 61.275l-0.382 0.453c-20.406-26.498-43.479-49.459-69.218-69.105l-0.894-0.655-27.008 36.448c26.687 20.333 49.472 43.993 68.255 70.673l0.673 1.007c-34.077 55.040-54.272 121.787-54.272 193.252 0 6.414 0.163 12.791 0.484 19.126l-0.036-0.889h-11.744v40.32h131.648l7.552 9.408 44.032-39.904-10.368-10.368c0.031-1.899 0.049-4.14 0.049-6.385 0-74.745-19.696-144.89-54.181-205.527l1.076 2.056c19.365-24.549 41.792-45.532 66.972-62.79l1.028-0.666zM2524.8 587.68h-71.424c-0.301-5.259-0.473-11.412-0.473-17.605 0-54.298 13.187-105.516 36.534-150.625l-0.861 1.83c22.878 47.571 36.245 103.428 36.245 162.408 0 1.404-0.008 2.806-0.023 4.206l0.002-0.214zM2378.784 246.144h-44.8v73.856l-92.256-30.688-17.568-13.376-16.896 55.552 34.464 8.384v330.88h-17.728v40.32h345.6v-40.32h-190.912v-424.608zM2333.984 670.752h-47.552v-77.024h47.456v77.024zM2333.984 553.408h-47.552v-78.752h47.456v78.752zM2333.984 434.336h-47.552v-83.552l47.456 11.552v72zM1724.288 176.736h-137.6v47.264h137.6v57.6h-97.984v47.424h97.888v52.16l-81.248-8.32-16.64-8.064-7.776 56.448 20.672 0.256c18.832 21.337 34.672 45.923 46.487 72.685l0.713 1.811h-79.36v45.536h302.464v-45.536h-173.632c-11.734-28.326-24.676-52.527-39.656-75.268l1.032 1.668 123.648 1.472c-12.539 12.668-26.2 24.176-40.838 34.379l-0.954 0.629 33.664 24.96c37.066-24.502 68.736-53.425 95.378-86.561l0.622-0.799-41.44-27.456c-6.4 9.088-12.8 17.376-19.2 25.056l-72.128-7.392v-57.6h109.312v-47.424h-109.312v-57.664h149.12v-47.424h-200.928zM1597.312 399.648c0.229-4.605 0.359-10 0.359-15.426 0-80.691-28.82-154.651-76.728-212.148l0.433 0.534-40.032 29.888c41.394 49.119 66.549 113.106 66.549 182.968 0 4.899-0.124 9.769-0.368 14.607l0.027-0.679v317.248h361.856v-140.64h-312.224v-176.48zM1857.728 618.592v55.584h-260.544v-55.584h260.448zM1395.776 274.464v-52.16h-51.776v494.336h166.4v-442.176h-114.624zM1458.624 664.224h-62.848v-337.344h62.848v337.344zM857.024 770.56c-338.386-225.969-622.569-503.406-849.005-824.486l-6.739-10.074-1.28 1.728v1022.272h960v-896.896h-609.6c115.579 281.028 288.054 517.922 504.443 705.498l2.309 1.958z" />
<glyph unicode="&#xe92a;" glyph-name="deviceManagement" data-tags="deviceManagement" d="M967.111-7.111h-227.556c-31.419 0-56.889 25.47-56.889 56.889v0 398.222c0 31.419 25.47 56.889 56.889 56.889v0h227.556c31.419 0 56.889-25.47 56.889-56.889v0-398.222c0-31.419-25.47-56.889-56.889-56.889v0zM967.111 448h-227.556v-341.333h227.556v341.333zM625.778 504.889v-284.444h-113.778v-170.667h113.778v-56.889h-426.667c-15.709 0-28.444 12.735-28.444 28.444s12.735 28.444 28.444 28.444v0h199.111v170.667h-341.333c-31.419 0-56.889 25.47-56.889 56.889v0 568.889c0 31.419 25.47 56.889 56.889 56.889v0h796.444c31.419 0 56.889-25.47 56.889-56.889v0-284.444h-227.556c-31.419 0-56.889-25.47-56.889-56.889v0z" />
<glyph unicode="&#xe92b;" glyph-name="attendanceIndex" data-tags="attendanceIndex" d="M1015.922 436.622c-5.147-5.146-12.257-8.328-20.11-8.328s-14.963 3.183-20.11 8.328v0l-463.701 409.088-463.701-409.088c-5.051-4.667-11.83-7.529-19.278-7.529-15.709 0-28.444 12.735-28.444 28.444 0 7.433 2.851 14.201 7.52 19.268l-0.018-0.020 483.271 426.325s0 0.512 0.284 0.683c5.265 5.096 12.449 8.237 20.366 8.237s15.102-3.141 20.374-8.244l-0.008 0.008s0-0.512 0-0.683l483.556-426.667c5.028-5.127 8.131-12.156 8.131-19.911s-3.103-14.785-8.136-19.916l0.004 0.005zM512 732.956l396.914-356.068 1.308-327.111c0-31.419-25.47-56.889-56.889-56.889v0h-256v227.556c0 31.419-25.47 56.889-56.889 56.889v0h-62.236c-31.419 0-56.889-25.47-56.889-56.889v0-227.556h-250.652c-31.419 0-56.889 25.47-56.889 56.889v0l1.308 327.111z" />
<glyph unicode="&#xe92c;" glyph-name="patrol" data-tags="patrol" d="M1013.874 530.034l-36.011-46.706c28.060-20.814 46.067-53.808 46.137-91.011v-175.399c-0.083-41.723-22.713-78.141-56.349-97.729l-0.539-0.29v-40.676c0-47.128-38.205-85.333-85.333-85.333s-85.333 38.205-85.333 85.333v0 15.246c-77.483-5.689-184.377-11.662-291.556-11.662-102.4 0-203.321 5.689-277.333 11.378v-14.962c0-47.128-38.205-85.333-85.333-85.333s-85.333 38.205-85.333 85.333v0 40.676c-34.168 19.887-56.793 56.3-56.889 98.006v175.402c0.070 37.214 18.077 70.208 45.832 90.806l0.304 0.216-36.011 46.706c-6.771 9.256-10.834 20.865-10.834 33.422 0 31.464 25.507 56.971 56.971 56.971 18.906 0 35.662-9.21 46.025-23.387l0.112-0.161 1.593-2.332 60.985 122.027c20.888 39.166 59.047 66.75 104.031 72.685l0.701 0.076h199.623v22.756h-139.378c-25.135 0-45.511 20.376-45.511 45.511s20.376 45.511 45.511 45.511v0h364.089c25.135 0 45.511-20.376 45.511-45.511s-20.376-45.511-45.511-45.511v0h-134.030v-22.756h196.608c45.641-6.048 83.752-33.623 104.257-72.018l0.362-0.743 60.359-120.263 0.455 0.569c10.511 12.688 26.27 20.709 43.902 20.709 31.419 0 56.889-25.47 56.889-56.889 0-11.387-3.345-21.992-9.107-30.887l0.135 0.222zM796.444 279.097c31.419 0 56.889 25.47 56.889 56.889s-25.47 56.889-56.889 56.889c-31.419 0-56.889-25.47-56.889-56.889v0c0-31.419 25.47-56.889 56.889-56.889v0zM284.444 335.986c0 31.419-25.47 56.889-56.889 56.889s-56.889-25.47-56.889-56.889c0-31.419 25.47-56.889 56.889-56.889v0c31.419 0 56.889 25.47 56.889 56.889v0zM797.241 652.8c-18.507 36.801-54.705 62.302-97.122 65.4l-0.386 0.023h-373.134c-42.825-3.1-79.048-28.606-97.255-64.744l-0.309-0.678-69.291-146.716h704.967z" />
<glyph unicode="&#xe92d;" glyph-name="wqcf-ok" data-tags="wqcf-ok" d="M844.068 594.434l-377.6-377.6c-1.488-2.605-2.969-4.821-4.586-6.927l0.106 0.143c-12.058-11.465-28.405-18.517-46.4-18.517s-34.342 7.053-46.429 18.544l0.029-0.027c-1.511 1.963-2.992 4.179-4.325 6.492l-0.155 0.292-185.6 185.6c-11.564 11.587-18.714 27.583-18.714 45.248 0 35.378 28.68 64.058 64.058 64.058 17.713 0 33.747-7.189 45.343-18.809l145.857-145.857 337.92 337.856c11.654 12.054 27.97 19.538 46.034 19.538 35.346 0 64-28.654 64-64 0-18.064-7.484-34.38-19.52-46.017l-0.018-0.017z" />
<glyph unicode="&#xe92e;" glyph-name="close" data-tags="close" d="M572.467 448.335l436.667-436.752c9.123-7.846 14.865-19.403 14.865-32.301 0-23.487-19.040-42.527-42.527-42.527-12.899 0-24.455 5.742-32.254 14.809l-0.047 0.056-436.752 436.667-439.304-439.304c-7.744-8.010-18.586-12.983-30.589-12.983-23.487 0-42.527 19.040-42.527 42.527 0 12.003 4.973 22.845 12.971 30.578l0.012 0.011 439.304 439.304-436.667 436.752c-9.123 7.846-14.865 19.403-14.865 32.301 0 23.487 19.040 42.527 42.527 42.527 12.899 0 24.455-5.742 32.254-14.809l0.047-0.056 436.752-436.752 436.667 436.667c7.744 8.010 18.586 12.983 30.589 12.983 23.487 0 42.527-19.040 42.527-42.527 0-12.003-4.973-22.845-12.971-30.578l-0.012-0.011z" />
<glyph unicode="&#xe92f;" glyph-name="search" data-tags="search" d="M1001.746-41.746c-13.736-13.748-32.72-22.253-53.688-22.253s-39.952 8.504-53.688 22.253l-144.973 144.973c-76.634-55.746-172.622-89.181-276.419-89.181-261.218 0-472.977 211.759-472.977 472.977s211.759 472.977 472.977 472.977c261.218 0 472.977-211.759 472.977-472.977 0-103.797-33.435-199.786-90.124-277.781l0.944 1.362 144.972-144.972c13.748-13.736 22.253-32.72 22.253-53.688s-8.504-39.952-22.253-53.688l-0.001-0.001zM475.98 797.38c-173.021 0-313.282-140.262-313.282-313.282s140.262-313.282 313.282-313.282c173.021 0 313.282 140.262 313.282 313.282v0c0 173.021-140.262 313.282-313.282 313.282v0z" />
<glyph unicode="&#xe930;" glyph-name="max" data-tags="max" d="M996.352 21.333l12.629-12.544c7.403-7.403 11.982-17.631 11.982-28.928 0-22.594-18.316-40.91-40.91-40.91-11.297 0-21.525 4.579-28.928 11.982l-12.459 12.459v-27.392h-341.333l184.405 184.405-172.117 172.117c-7.411 7.4-11.995 17.629-11.995 28.928 0 22.578 18.303 40.88 40.88 40.88 11.278 0 21.49-4.567 28.886-11.953v0l172.117-172.117 184.491 184.405v-341.333h-27.648zM981.333 533.333c-23.564 0-42.667 19.103-42.667 42.667v0 213.333c0 47.128-38.205 85.333-85.333 85.333v0h-213.333c-23.564 0-42.667 19.103-42.667 42.667s19.103 42.667 42.667 42.667v0h298.667c47.128 0 85.333-38.205 85.333-85.333v0-298.667c0-23.564-19.103-42.667-42.667-42.667v0zM384-64h-298.667c-47.128 0-85.333 38.205-85.333 85.333v0 298.667c0 23.564 19.103 42.667 42.667 42.667s42.667-19.103 42.667-42.667v0-213.333c0-47.128 38.205-85.333 85.333-85.333v0h213.333c23.564 0 42.667-19.103 42.667-42.667s-19.103-42.667-42.667-42.667v0zM411.648 606.123c7.403-7.403 11.982-17.631 11.982-28.928 0-22.594-18.316-40.91-40.91-40.91-11.297 0-21.525 4.579-28.928 11.982l-169.387 169.472-184.405-184.405v341.333h27.392l-15.104 15.104c-7.411 7.4-11.995 17.629-11.995 28.928 0 22.578 18.303 40.88 40.88 40.88 11.278 0 21.49-4.567 28.886-11.953v0l15.275-15.275v27.648h341.333l-184.491-184.491z" />
<glyph unicode="&#xe931;" glyph-name="treeItem_del" data-tags="treeItem_del" d="M755.712 631.381l0.012 0.012c8.024 7.758 13.014 18.635 13.014 30.679 0 23.564-19.103 42.666-42.666 42.666-12.042 0-22.92-4.99-30.689-13.026l-182.102-182.102-182.131 182.055c-7.468 6.424-17.185 10.306-27.809 10.306-23.564 0-42.666-19.103-42.666-42.666 0-10.624 3.883-20.341 10.26-27.753l182.102-182.102-184.758-184.843c-8.024-7.758-13.014-18.635-13.014-30.679 0-23.564 19.103-42.666 42.666-42.666 12.042 0 22.92 4.99 30.689 13.026l184.746 184.746 182.233-182.158c7.825-9.097 19.419-14.858 32.36-14.858 23.564 0 42.666 19.103 42.666 42.666 0 12.941-5.761 24.535-14.914 32.408l-182.102 182.187zM512 960c282.77 0 512-229.23 512-512s-229.23-512-512-512c-282.77 0-512 229.23-512 512v0c0 282.77 229.23 512 512 512v0z" />
<glyph unicode="&#xe932;" glyph-name="selected" data-tags="selected" d="M812.8 542.656l-0.038-0.042c9.415 10.253 15.162 23.929 15.162 38.946 0 31.812-25.788 57.6-57.6 57.6-14.97 0-28.605-5.71-38.804-15.032l-290.56-292.288-156.116 162.264c-10.243 9.361-23.878 15.072-38.848 15.072-31.812 0-57.6-25.788-57.6-57.6 0-15.017 5.747-28.692 15.124-38.904l195.187-203.315c10.665-10.383 25.232-16.779 41.293-16.779s30.628 6.396 41.28 16.767l331.52 333.312zM512 960c282.77 0 512-229.23 512-512s-229.23-512-512-512c-282.77 0-512 229.23-512 512v0c0 282.77 229.23 512 512 512v0z" />
<glyph unicode="&#xe933;" glyph-name="maxmin" data-tags="maxmin" d="M981.333 533.333c-23.564 0-42.666 19.103-42.666 42.666v0 213.333c0 47.129-38.205 85.333-85.333 85.333v0h-213.333c-23.564 0-42.666 19.103-42.666 42.666s19.103 42.666 42.666 42.666v0h298.666c47.129 0 85.333-38.205 85.333-85.333v0-298.666c0-23.564-19.103-42.666-42.666-42.666v0zM426.667 618.667c0-47.129-38.205-85.333-85.333-85.333v0h-341.332l184.49 184.49-169.472 169.387c-7.385 7.395-11.952 17.607-11.952 28.885 0 22.577 18.303 40.88 40.88 40.88 11.299 0 21.528-4.584 28.927-11.994v0l169.387-169.387 184.405 184.405v-341.332zM42.667 362.666c23.564 0 42.666-19.103 42.666-42.666v0-213.333c0-47.129 38.205-85.333 85.333-85.333v0h213.333c23.564 0 42.666-19.103 42.666-42.666s-19.103-42.666-42.666-42.666v0h-298.666c-47.129 0-85.333 38.205-85.333 85.333v0 298.666c0 23.564 19.103 42.666 42.666 42.666v0zM682.667 362.666h341.332l-184.405-184.405 172.117-172.117c7.411-7.4 11.994-17.628 11.994-28.927 0-22.577-18.303-40.88-40.88-40.88-11.278 0-21.49 4.567-28.885 11.952v0l-172.117 172.117-184.49-184.405v341.332c0 47.129 38.205 85.333 85.333 85.333v0z" />
<glyph unicode="&#xe934;" glyph-name="noline_close" data-tags="noline_close" d="M853.333-64h-682.666c-94.257 0-170.667 76.41-170.667 170.667v0 682.666c0 94.257 76.41 170.667 170.667 170.667v0h682.666c94.257 0 170.667-76.41 170.667-170.667v0-682.666c0-94.257-76.41-170.667-170.667-170.667v0zM938.667 789.332c0 47.128-38.205 85.333-85.333 85.333v0h-682.666c-47.128 0-85.333-38.205-85.333-85.333v0-682.666c0-47.128 38.205-85.333 85.333-85.333v0h682.666c47.128 0 85.333 38.205 85.333 85.333v0 682.666zM768 362.667h-170.667v-170.667c0-47.128-38.205-85.333-85.333-85.333s-85.333 38.205-85.333 85.333v0 170.667h-170.667c-47.128 0-85.333 38.205-85.333 85.333s38.205 85.333 85.333 85.333v0h170.667v170.667c0 47.128 38.205 85.333 85.333 85.333s85.333-38.205 85.333-85.333v0-170.667h170.667c47.128 0 85.333-38.205 85.333-85.333s-38.205-85.333-85.333-85.333v0z" />
<glyph unicode="&#xe935;" glyph-name="noline_open" data-tags="noline_open" d="M853.333-64h-682.666c-94.257 0-170.667 76.41-170.667 170.667v0 682.666c0 94.257 76.41 170.667 170.667 170.667v0h682.666c94.257 0 170.667-76.41 170.667-170.667v0-682.666c0-94.257-76.41-170.667-170.667-170.667v0zM938.667 789.332c0 47.128-38.205 85.333-85.333 85.333v0h-682.666c-47.128 0-85.333-38.205-85.333-85.333v0-682.666c0-47.128 38.205-85.333 85.333-85.333v0h682.666c47.128 0 85.333 38.205 85.333 85.333v0 682.666zM768 362.667h-512c-47.128 0-85.333 38.205-85.333 85.333s38.205 85.333 85.333 85.333v0h512c47.128 0 85.333-38.205 85.333-85.333s-38.205-85.333-85.333-85.333v0z" />
</font>
</defs>
</svg>
